  0
SECTION
  2
HEADER
  9
$ACADVER
  1
AC1014
  9
$ACADMAINTVER
 70
     9
  9
$DWGCODEPAGE
  3
ANSI_1250
  9
$INSBASE
 10
0.0
 20
0.0
 30
0.0
  9
$EXTMIN
 10
0.0
 20
0.0
 30
0.0
  9
$EXTMAX
 10
840.0
 20
594.0
 30
0.0
  9
$LIMMIN
 10
0.0
 20
0.0
  9
$LIMMAX
 10
840.0
 20
594.0
  9
$ORTHOMODE
 70
     0
  9
$REGENMODE
 70
     1
  9
$FILLMODE
 70
     1
  9
$QTEXTMODE
 70
     0
  9
$MIRRTEXT
 70
     1
  9
$DRAGMODE
 70
     2
  9
$LTSCALE
 40
2.0
  9
$OSMODE
 70
    37
  9
$ATTMODE
 70
     1
  9
$TEXTSIZE
 40
7.0
  9
$TRACEWID
 40
1.0
  9
$TEXTSTYLE
  7
STANDARD
  9
$CLAYER
  8
0
  9
$CELTYPE
  6
BYLAYER
  9
$CECOLOR
 62
   256
  9
$CELTSCALE
 40
1.0
  9
$DELOBJ
 70
     1
  9
$DISPSILH
 70
     0
  9
$DIMSCALE
 40
1.0
  9
$DIMASZ
 40
8.0
  9
$DIMEXO
 40
1.0
  9
$DIMDLI
 40
3.75
  9
$DIMRND
 40
0.0
  9
$DIMDLE
 40
0.0
  9
$DIMEXE
 40
1.0
  9
$DIMTP
 40
0.0
  9
$DIMTM
 40
0.0
  9
$DIMTXT
 40
5.0
  9
$DIMCEN
 40
2.5
  9
$DIMTSZ
 40
0.0
  9
$DIMTOL
 70
     0
  9
$DIMLIM
 70
     0
  9
$DIMTIH
 70
     1
  9
$DIMTOH
 70
     1
  9
$DIMSE1
 70
     0
  9
$DIMSE2
 70
     0
  9
$DIMTAD
 70
     1
  9
$DIMZIN
 70
     0
  9
$DIMBLK
  1

  9
$DIMASO
 70
     1
  9
$DIMSHO
 70
     1
  9
$DIMPOST
  1

  9
$DIMAPOST
  1

  9
$DIMALT
 70
     0
  9
$DIMALTD
 70
     3
  9
$DIMALTF
 40
0.0393700787
  9
$DIMLFAC
 40
1.0
  9
$DIMTOFL
 70
     1
  9
$DIMTVP
 40
0.0
  9
$DIMTIX
 70
     0
  9
$DIMSOXD
 70
     0
  9
$DIMSAH
 70
     0
  9
$DIMBLK1
  1

  9
$DIMBLK2
  1

  9
$DIMSTYLE
  2
ISO-25
  9
$DIMCLRD
 70
     0
  9
$DIMCLRE
 70
     0
  9
$DIMCLRT
 70
     0
  9
$DIMTFAC
 40
1.0
  9
$DIMGAP
 40
4.0
  9
$DIMJUST
 70
     0
  9
$DIMSD1
 70
     0
  9
$DIMSD2
 70
     0
  9
$DIMTOLJ
 70
     0
  9
$DIMTZIN
 70
     0
  9
$DIMALTZ
 70
     0
  9
$DIMALTTZ
 70
     0
  9
$DIMFIT
 70
     3
  9
$DIMUPT
 70
     0
  9
$DIMUNIT
 70
     2
  9
$DIMDEC
 70
     3
  9
$DIMTDEC
 70
     1
  9
$DIMALTU
 70
     2
  9
$DIMALTTD
 70
     3
  9
$DIMTXSTY
  7
STANDARD
  9
$DIMAUNIT
 70
     0
  9
$LUNITS
 70
     2
  9
$LUPREC
 70
     3
  9
$SKETCHINC
 40
1.0
  9
$FILLETRAD
 40
10.0
  9
$AUNITS
 70
     0
  9
$AUPREC
 70
     3
  9
$MENU
  1
.
  9
$ELEVATION
 40
0.0
  9
$PELEVATION
 40
0.0
  9
$THICKNESS
 40
0.0
  9
$LIMCHECK
 70
     0
  9
$CHAMFERA
 40
0.0
  9
$CHAMFERB
 40
0.0
  9
$CHAMFERC
 40
0.0
  9
$CHAMFERD
 40
0.0
  9
$SKPOLY
 70
     0
  9
$TDCREATE
 40
2458487.542093519
  9
$TDUPDATE
 40
2458487.54209816
  9
$TDINDWG
 40
0.0000000116
  9
$TDUSRTIMER
 40
0.0000000116
  9
$USRTIMER
 70
     1
  9
$ANGBASE
 50
0.0
  9
$ANGDIR
 70
     0
  9
$PDMODE
 70
     0
  9
$PDSIZE
 40
-1.0
  9
$PLINEWID
 40
0.0
  9
$COORDS
 70
     1
  9
$SPLFRAME
 70
     0
  9
$SPLINETYPE
 70
     6
  9
$SPLINESEGS
 70
     8
  9
$ATTDIA
 70
     0
  9
$ATTREQ
 70
     1
  9
$HANDLING
 70
     1
  9
$HANDSEED
  5
520
  9
$SURFTAB1
 70
     6
  9
$SURFTAB2
 70
     6
  9
$SURFTYPE
 70
     6
  9
$SURFU
 70
     6
  9
$SURFV
 70
     6
  9
$UCSNAME
  2

  9
$UCSORG
 10
0.0
 20
0.0
 30
0.0
  9
$UCSXDIR
 10
1.0
 20
0.0
 30
0.0
  9
$UCSYDIR
 10
0.0
 20
1.0
 30
0.0
  9
$PUCSNAME
  2

  9
$PUCSORG
 10
0.0
 20
0.0
 30
0.0
  9
$PUCSXDIR
 10
1.0
 20
0.0
 30
0.0
  9
$PUCSYDIR
 10
0.0
 20
1.0
 30
0.0
  9
$USERI1
 70
     0
  9
$USERI2
 70
     0
  9
$USERI3
 70
     0
  9
$USERI4
 70
     0
  9
$USERI5
 70
     0
  9
$USERR1
 40
0.0
  9
$USERR2
 40
0.0
  9
$USERR3
 40
0.0
  9
$USERR4
 40
0.0
  9
$USERR5
 40
0.0
  9
$WORLDVIEW
 70
     1
  9
$SHADEDGE
 70
     3
  9
$SHADEDIF
 70
    70
  9
$TILEMODE
 70
     1
  9
$MAXACTVP
 70
    64
  9
$PINSBASE
 10
0.0
 20
0.0
 30
0.0
  9
$PLIMCHECK
 70
     0
  9
$PEXTMIN
 10
1.0000000000E+20
 20
1.0000000000E+20
 30
1.0000000000E+20
  9
$PEXTMAX
 10
-1.0000000000E+20
 20
-1.0000000000E+20
 30
-1.0000000000E+20
  9
$PLIMMIN
 10
0.0
 20
0.0
  9
$PLIMMAX
 10
420.0
 20
297.0
  9
$UNITMODE
 70
     0
  9
$VISRETAIN
 70
     1
  9
$PLINEGEN
 70
     0
  9
$PSLTSCALE
 70
     1
  9
$TREEDEPTH
 70
  3020
  9
$PICKSTYLE
 70
     1
  9
$CMLSTYLE
  2
STANDARD
  9
$CMLJUST
 70
     0
  9
$CMLSCALE
 40
20.0
  9
$PROXYGRAPHICS
 70
     1
  9
$MEASUREMENT
 70
     1
  0
ENDSEC
  0
SECTION
  2
CLASSES
  0
CLASS
  1
ACDBDICTIONARYWDFLT
  2
AcDbDictionaryWithDefault
  3
ObjectDBX Classes
 90
        0
280
     0
281
     0
  0
CLASS
  1
VISUALSTYLE
  2
AcDbVisualStyle
  3
ObjectDBX Classes
 90
     4095
280
     0
281
     0
  0
CLASS
  1
MATERIAL
  2
AcDbMaterial
  3
ObjectDBX Classes
 90
     1153
280
     0
281
     0
  0
CLASS
  1
SCALE
  2
AcDbScale
  3
ObjectDBX Classes
 90
     1153
280
     0
281
     0
  0
CLASS
  1
TABLESTYLE
  2
AcDbTableStyle
  3
ObjectDBX Classes
 90
     4095
280
     0
281
     0
  0
CLASS
  1
MLEADERSTYLE
  2
AcDbMLeaderStyle
  3
ACDB_MLEADERSTYLE_CLASS
 90
     4095
280
     0
281
     0
  0
CLASS
  1
SUN
  2
AcDbSun
  3
SCENEOE
 90
     1153
280
     0
281
     0
  0
CLASS
  1
XRECORD
  2
AcDbXrecord
  3
ObjectDBX Classes
 90
        0
280
     0
281
     0
  0
CLASS
  1
LWPOLYLINE
  2
AcDbPolyline
  3
ObjectDBX Classes
 90
        0
280
     0
281
     1
  0
CLASS
  1
HATCH
  2
AcDbHatch
  3
ObjectDBX Classes
 90
        0
280
     0
281
     1
  0
ENDSEC
  0
SECTION
  2
TABLES
  0
TABLE
  2
VPORT
  5
8
330
0
100
AcDbSymbolTable
 70
     1
  0
VPORT
  5
29
330
8
100
AcDbSymbolTableRecord
100
AcDbViewportTableRecord
  2
*ACTIVE
 70
     0
 10
0.0
 20
0.0
 11
1.0
 21
1.0
 12
420.0
 22
297.0
 13
0.0
 23
0.0
 14
10.0
 24
10.0
 15
10.0
 25
10.0
 16
0.0
 26
0.0
 36
1.0
 17
0.0
 27
0.0
 37
0.0
 40
594.0
 41
1.4141414141
 42
50.0
 43
0.0
 44
0.0
 50
0.0
 51
0.0
 71
     0
 72
  2000
 73
     1
 74
     3
 75
     0
 76
     0
 77
     0
 78
     0
  0
ENDTAB
  0
TABLE
  2
LTYPE
  5
5
330
0
100
AcDbSymbolTable
 70
     6
  0
LTYPE
  5
14
330
5
100
AcDbSymbolTableRecord
100
AcDbLinetypeTableRecord
  2
BYBLOCK
 70
     0
  3

 72
    65
 73
     0
 40
0.0
  0
LTYPE
  5
15
330
5
100
AcDbSymbolTableRecord
100
AcDbLinetypeTableRecord
  2
BYLAYER
 70
     0
  3

 72
    65
 73
     0
 40
0.0
  0
LTYPE
  5
16
330
5
100
AcDbSymbolTableRecord
100
AcDbLinetypeTableRecord
  2
CONTINUOUS
 70
     0
  3
Solid line
 72
    65
 73
     0
 40
0.0
  0
LTYPE
  5
6E
330
5
100
AcDbSymbolTableRecord
100
AcDbLinetypeTableRecord
  2
HIDDEN
 70
     0
  3
Hidden __ __ __ __ __ __ __ __ __ __ __ __ __ __
 72
    65
 73
     2
 40
1.905
 49
1.27
 74
     0
 49
-0.635
 74
     0
  0
LTYPE
  5
6F
330
5
100
AcDbSymbolTableRecord
100
AcDbLinetypeTableRecord
  2
PHANTOM
 70
     0
  3
Phantom ______  __  __  ______  __  __  ______
 72
    65
 73
     6
 40
12.7
 49
6.35
 74
     0
 49
-1.27
 74
     0
 49
1.27
 74
     0
 49
-1.27
 74
     0
 49
1.27
 74
     0
 49
-1.27
 74
     0
  0
LTYPE
  5
70
330
5
100
AcDbSymbolTableRecord
100
AcDbLinetypeTableRecord
  2
CENTER
 70
     0
  3
Center ____ _ ____ _ ____ _ ____ _ ____ _ ____
 72
    65
 73
     4
 40
10.16
 49
6.35
 74
     0
 49
-1.27
 74
     0
 49
1.27
 74
     0
 49
-1.27
 74
     0
  0
LTYPE
  5
71
330
5
100
AcDbSymbolTableRecord
100
AcDbLinetypeTableRecord
  2
CENTERX2
 70
     0
  3
Center (2x) ________  __  ________  __  _____
 72
    65
 73
     4
 40
20.32
 49
12.7
 74
     0
 49
-2.54
 74
     0
 49
2.54
 74
     0
 49
-2.54
 74
     0
  0
LTYPE
  5
72
330
5
100
AcDbSymbolTableRecord
100
AcDbLinetypeTableRecord
  2
DOT2
 70
     0
  3
Dot (.5x) ........................................
 72
    65
 73
     2
 40
0.635
 49
0.0
 74
     0
 49
-0.635
 74
     0
  0
ENDTAB
  0
TABLE
  2
LAYER
  5
2
330
0
100
AcDbSymbolTable
 70
     3
  0
LAYER
  5
10
330
2
100
AcDbSymbolTableRecord
100
AcDbLayerTableRecord
  2
0
 70
     0
 62
     7
  6
CONTINUOUS
  0
LAYER
  5
73
330
2
100
AcDbSymbolTableRecord
100
AcDbLayerTableRecord
  2
OPISY
 70
     0
 62
     5
  6
CONTINUOUS
  0
LAYER
  5
74
330
2
100
AcDbSymbolTableRecord
100
AcDbLayerTableRecord
  2
FORMAT
 70
     0
 62
     7
  6
CONTINUOUS
  0
ENDTAB
  0
TABLE
  2
STYLE
  5
3
330
0
100
AcDbSymbolTable
 70
     5
  0
STYLE
  5
11
330
3
100
AcDbSymbolTableRecord
100
AcDbTextStyleTableRecord
  2
STANDARD
 70
     0
 40
0.0
 41
1.0
 50
0.0
 71
     0
 42
7.0
  3
txt
  4

  0
STYLE
  5
8A
330
3
100
AcDbSymbolTableRecord
100
AcDbTextStyleTableRecord
  2
SLDTEXTSTYLE0
 70
     0
 40
0.0
 41
0.75
 50
0.0
 71
     0
 42
7.0
  3
TXT
  4

  0
STYLE
  5
8C
330
3
100
AcDbSymbolTableRecord
100
AcDbTextStyleTableRecord
  2
SLDTEXTSTYLE1
 70
     0
 40
0.0
 41
0.605
 50
0.0
 71
     0
 42
7.0
  3
TXT
  4

  0
STYLE
  5
9A
330
3
100
AcDbSymbolTableRecord
100
AcDbTextStyleTableRecord
  2
SLDTEXTSTYLE2
 70
     0
 40
0.0
 41
0.75
 50
0.0
 71
     0
 42
7.0
  3
TXT
  4
bigfont
  0
STYLE
  5
51E
330
3
100
AcDbSymbolTableRecord
100
AcDbTextStyleTableRecord
  2
SLDTEXTSTYLE3
 70
     0
 40
0.0
 41
0.6666666667
 50
0.0
 71
     0
 42
7.0
  3
TXT
  4

  0
ENDTAB
  0
TABLE
  2
VIEW
  5
6
330
0
100
AcDbSymbolTable
 70
     0
  0
ENDTAB
  0
TABLE
  2
UCS
  5
7
330
0
100
AcDbSymbolTable
 70
     0
  0
ENDTAB
  0
TABLE
  2
APPID
  5
9
330
0
100
AcDbSymbolTable
 70
     1
  0
APPID
  5
12
330
9
100
AcDbSymbolTableRecord
100
AcDbRegAppTableRecord
  2
ACAD
 70
     0
  0
ENDTAB
  0
TABLE
  2
DIMSTYLE
  5
A
330
0
100
AcDbSymbolTable
 70
     7
  0
DIMSTYLE
105
27
330
A
100
AcDbSymbolTableRecord
100
AcDbDimStyleTableRecord
  2
ISO-25
 70
     0
  3

  4

  5

  6

  7

 40
1.0
 41
2.5
 42
0.625
 43
3.75
 44
1.25
 45
0.0
 46
0.0
 47
0.0
 48
0.0
140
2.5
141
2.5
142
0.0
143
0.0393700787
144
1.0
145
0.0
146
1.0
147
0.625
 71
     0
 72
     0
 73
     0
 74
     0
 75
     0
 76
     0
 77
     1
 78
     8
170
     0
171
     3
172
     1
173
     0
174
     0
175
     0
176
     0
177
     0
178
     0
270
     2
271
     2
272
     2
273
     2
274
     3
340
11
275
     0
280
     0
281
     0
282
     0
283
     0
284
     8
285
     0
286
     0
287
     3
288
     0
  0
DIMSTYLE
105
1E4
102
{ACAD_REACTORS
330
1E3
102
}
330
A
100
AcDbSymbolTableRecord
100
AcDbDimStyleTableRecord
  2
SLDDIMSTYLE0
 70
     0
  3

  4

  5

  6

  7

 40
1.0
 41
8.0
 42
0.0625
 43
0.38
 44
0.0
 45
0.000000001
 46
0.0
 47
0.0
 48
0.0
140
5.0
141
0.09
142
0.0
143
25.4
144
1.0
145
0.0
146
1.0
147
1.25
 71
     0
 72
     0
 73
     0
 74
     0
 75
     0
 76
     0
 77
     1
 78
    12
170
     0
171
     2
172
     1
173
     1
174
     0
175
     0
176
     0
177
     0
178
     0
270
     2
271
     1
272
     1
273
     2
274
     2
340
8A
275
     0
280
     0
281
     0
282
     0
283
     1
284
    12
285
     0
286
     0
288
     0
  0
DIMSTYLE
105
1F1
102
{ACAD_REACTORS
330
1F0
330
1FB
102
}
330
A
100
AcDbSymbolTableRecord
100
AcDbDimStyleTableRecord
  2
SLDDIMSTYLE1
 70
     0
  3

  4

  5

  6

  7

 40
1.0
 41
8.0
 42
0.0625
 43
0.38
 44
0.0
 45
0.000000001
 46
0.0
 47
0.0
 48
0.0
140
5.0
141
0.09
142
0.0
143
25.4
144
1.0
145
0.0
146
1.0
147
1.25
 71
     0
 72
     0
 73
     0
 74
     0
 75
     0
 76
     0
 77
     1
 78
    12
170
     0
171
     2
172
     0
173
     1
174
     0
175
     0
176
     0
177
     0
178
     0
270
     2
271
     1
272
     1
273
     2
274
     2
340
8A
275
     0
280
     0
281
     0
282
     0
283
     1
284
    12
285
     0
286
     0
287
     3
288
     0
  0
DIMSTYLE
105
206
102
{ACAD_REACTORS
330
205
330
459
330
468
330
474
102
}
330
A
100
AcDbSymbolTableRecord
100
AcDbDimStyleTableRecord
  2
SLDDIMSTYLE2
 70
     0
  3

  4

  5

  6

  7

 40
1.0
 41
8.0
 42
0.0625
 43
0.38
 44
0.0
 45
0.000000001
 46
0.0
 47
0.0
 48
0.0
140
5.0
141
0.09
142
0.0
143
25.4
144
1.0
145
0.0
146
1.0
147
1.25
 71
     0
 72
     0
 73
     0
 74
     0
 75
     0
 76
     0
 77
     1
 78
    12
170
     0
171
     2
172
     1
173
     1
174
     0
175
     0
176
     0
177
     0
178
     0
270
     2
271
     3
272
     1
273
     2
274
     2
340
8A
275
     0
280
     0
281
     0
282
     0
283
     1
284
    12
285
     0
286
     0
288
     0
  0
DIMSTYLE
105
481
102
{ACAD_REACTORS
330
480
330
496
330
4A2
330
4AD
330
4B7
330
4C1
330
4CB
330
4D5
330
4E0
330
4EA
330
4F4
330
4FE
330
509
102
}
330
A
100
AcDbSymbolTableRecord
100
AcDbDimStyleTableRecord
  2
SLDDIMSTYLE3
 70
     0
  3

  4

  5

  6

  7

 40
1.0
 41
8.0
 42
0.0625
 43
0.38
 44
0.0
 45
0.000000001
 46
0.0
 47
0.0
 48
0.0
140
5.0
141
0.09
142
0.0
143
25.4
144
1.0
145
0.0
146
1.0
147
1.25
 71
     0
 72
     0
 73
     0
 74
     0
 75
     0
 76
     0
 77
     1
 78
    12
170
     0
171
     2
172
     0
173
     1
174
     0
175
     0
176
     0
177
     0
178
     0
270
     2
271
     3
272
     1
273
     2
274
     2
340
8A
275
     0
280
     0
281
     0
282
     0
283
     1
284
    12
285
     0
286
     0
287
     3
288
     0
  0
DIMSTYLE
105
48C
102
{ACAD_REACTORS
330
48B
102
}
330
A
100
AcDbSymbolTableRecord
100
AcDbDimStyleTableRecord
  2
SLDDIMSTYLE4
 70
     0
  3

  4

  5

  6

  7

 40
1.0
 41
8.0
 42
0.0625
 43
0.38
 44
0.0
 45
0.000000001
 46
0.0
 47
0.0
 48
0.0
140
5.0
141
0.09
142
0.0
143
25.4
144
1.0
145
0.0
146
1.0
147
1.25
 71
     0
 72
     0
 73
     0
 74
     0
 75
     0
 76
     0
 77
     1
 78
    12
170
     0
171
     2
172
     0
173
     1
174
     0
175
     0
176
     0
177
     0
178
     0
270
     2
271
     0
272
     1
273
     2
274
     2
340
8A
275
     0
280
     0
281
     0
282
     0
283
     1
284
    12
285
     0
286
     0
287
     3
288
     0
  0
DIMSTYLE
105
515
102
{ACAD_REACTORS
330
514
102
}
330
A
100
AcDbSymbolTableRecord
100
AcDbDimStyleTableRecord
  2
SLDDIMSTYLE5
 70
     0
  3
<>
  4

  5

  6

  7

 40
1.0
 41
8.0
 42
0.0625
 43
0.38
 44
0.0
 45
0.000000001
 46
0.0
 47
0.0
 48
0.0
140
5.0
141
0.0
142
0.0
143
25.4
144
1.0
145
0.0
146
1.0
147
1.25
 71
     0
 72
     0
 73
     0
 74
     0
 75
     0
 76
     0
 77
     1
 78
    12
170
     0
171
     2
172
     1
173
     1
174
     0
175
     0
176
     0
177
     0
178
     0
270
     2
271
     3
272
     1
273
     2
274
     2
340
8A
275
     0
280
     0
281
     0
282
     0
283
     1
284
    12
285
     0
286
     0
287
     3
288
     0
  0
ENDTAB
  0
TABLE
  2
BLOCK_RECORD
  5
1
330
0
100
AcDbSymbolTable
 70
    24
  0
BLOCK_RECORD
  5
1F
330
1
100
AcDbSymbolTableRecord
100
AcDbBlockTableRecord
  2
*MODEL_SPACE
  0
BLOCK_RECORD
  5
1B
330
1
100
AcDbSymbolTableRecord
100
AcDbBlockTableRecord
  2
*PAPER_SPACE
  0
BLOCK_RECORD
  5
23
330
1
100
AcDbSymbolTableRecord
100
AcDbBlockTableRecord
  2
*PAPER_SPACE0
  0
BLOCK_RECORD
  5
94
330
1
100
AcDbSymbolTableRecord
100
AcDbBlockTableRecord
  2
SW_NOTE_0
  0
BLOCK_RECORD
  5
1E5
330
1
100
AcDbSymbolTableRecord
100
AcDbBlockTableRecord
  2
_D
  0
BLOCK_RECORD
  5
1F2
330
1
100
AcDbSymbolTableRecord
100
AcDbBlockTableRecord
  2
_D_1
  0
BLOCK_RECORD
  5
1FC
330
1
100
AcDbSymbolTableRecord
100
AcDbBlockTableRecord
  2
_D_2
  0
BLOCK_RECORD
  5
207
330
1
100
AcDbSymbolTableRecord
100
AcDbBlockTableRecord
  2
_D_3
  0
BLOCK_RECORD
  5
45A
330
1
100
AcDbSymbolTableRecord
100
AcDbBlockTableRecord
  2
_D_4
  0
BLOCK_RECORD
  5
469
330
1
100
AcDbSymbolTableRecord
100
AcDbBlockTableRecord
  2
_D_5
  0
BLOCK_RECORD
  5
475
330
1
100
AcDbSymbolTableRecord
100
AcDbBlockTableRecord
  2
_D_6
  0
BLOCK_RECORD
  5
482
330
1
100
AcDbSymbolTableRecord
100
AcDbBlockTableRecord
  2
_D_7
  0
BLOCK_RECORD
  5
48D
330
1
100
AcDbSymbolTableRecord
100
AcDbBlockTableRecord
  2
_D_8
  0
BLOCK_RECORD
  5
497
330
1
100
AcDbSymbolTableRecord
100
AcDbBlockTableRecord
  2
_D_9
  0
BLOCK_RECORD
  5
4A3
330
1
100
AcDbSymbolTableRecord
100
AcDbBlockTableRecord
  2
_D_10
  0
BLOCK_RECORD
  5
4AE
330
1
100
AcDbSymbolTableRecord
100
AcDbBlockTableRecord
  2
_D_11
  0
BLOCK_RECORD
  5
4B8
330
1
100
AcDbSymbolTableRecord
100
AcDbBlockTableRecord
  2
_D_12
  0
BLOCK_RECORD
  5
4C2
330
1
100
AcDbSymbolTableRecord
100
AcDbBlockTableRecord
  2
_D_13
  0
BLOCK_RECORD
  5
4CC
330
1
100
AcDbSymbolTableRecord
100
AcDbBlockTableRecord
  2
_D_14
  0
BLOCK_RECORD
  5
4D6
330
1
100
AcDbSymbolTableRecord
100
AcDbBlockTableRecord
  2
_D_15
  0
BLOCK_RECORD
  5
4E1
330
1
100
AcDbSymbolTableRecord
100
AcDbBlockTableRecord
  2
_D_16
  0
BLOCK_RECORD
  5
4EB
330
1
100
AcDbSymbolTableRecord
100
AcDbBlockTableRecord
  2
_D_17
  0
BLOCK_RECORD
  5
4F5
330
1
100
AcDbSymbolTableRecord
100
AcDbBlockTableRecord
  2
_D_18
  0
BLOCK_RECORD
  5
4FF
330
1
100
AcDbSymbolTableRecord
100
AcDbBlockTableRecord
  2
_D_19
  0
BLOCK_RECORD
  5
50A
330
1
100
AcDbSymbolTableRecord
100
AcDbBlockTableRecord
  2
_D_20
  0
BLOCK_RECORD
  5
516
330
1
100
AcDbSymbolTableRecord
100
AcDbBlockTableRecord
  2
_D_21
  0
ENDTAB
  0
ENDSEC
  0
SECTION
  2
BLOCKS
  0
BLOCK
  5
20
330
1F
100
AcDbEntity
  8
0
100
AcDbBlockBegin
  2
*MODEL_SPACE
 70
     0
 10
0.0
 20
0.0
 30
0.0
  3
*MODEL_SPACE
  1

  0
ENDBLK
  5
21
330
1F
100
AcDbEntity
  8
0
100
AcDbBlockEnd
  0
BLOCK
  5
1C
330
1B
100
AcDbEntity
 67
     1
  8
0
100
AcDbBlockBegin
  2
*PAPER_SPACE
 70
     0
 10
0.0
 20
0.0
 30
0.0
  3
*PAPER_SPACE
  1

  0
ENDBLK
  5
1D
330
1B
100
AcDbEntity
 67
     1
  8
0
100
AcDbBlockEnd
  0
BLOCK
  5
24
330
23
100
AcDbEntity
  8
0
100
AcDbBlockBegin
  2
*PAPER_SPACE0
 70
     0
 10
0.0
 20
0.0
 30
0.0
  3
*PAPER_SPACE0
  1

  0
ENDBLK
  5
25
330
23
100
AcDbEntity
  8
0
100
AcDbBlockEnd
  0
BLOCK
  5
95
330
94
100
AcDbEntity
  8
0
100
AcDbBlockBegin
  2
SW_NOTE_0
 70
     0
 10
0.0
 20
0.0
 30
0.0
  3
SW_NOTE_0
  1

  0
MTEXT
  5
97
330
94
100
AcDbEntity
  8
0
  6
CONTINUOUS
 62
     0
100
AcDbMText
 10
0.0
 20
3.8672032193
 30
0.0
 40
3.0
 41
0.0
 71
     1
 72
     1
  1
Data
  7
SLDTEXTSTYLE0
  0
MTEXT
  5
98
330
94
100
AcDbEntity
  8
0
  6
CONTINUOUS
 62
     0
100
AcDbMText
 10
0.0
 20
-0.5327967568
 30
0.0
 40
3.0
 41
0.0
 71
     1
 72
     1
  1
i podpis
  7
SLDTEXTSTYLE0
  0
ENDBLK
  5
96
330
94
100
AcDbEntity
  8
0
100
AcDbBlockEnd
  0
BLOCK
  5
1E6
330
1E5
100
AcDbEntity
  8
0
100
AcDbBlockBegin
  2
_D
 70
     0
 10
0.0
 20
0.0
 30
0.0
  3
_D
  1

  0
SOLID
  5
1E8
330
1E5
100
AcDbEntity
  8
OPISY
100
AcDbTrace
 10
704.7971367846
 20
491.5579648426
 30
0.0
 11
703.7971367846
 21
483.5579648426
 31
0.0
 12
705.7971367846
 22
483.5579648426
 32
0.0
 13
705.7971367846
 23
483.5579648426
 33
0.0
  0
SOLID
  5
1E9
330
1E5
100
AcDbEntity
  8
OPISY
100
AcDbTrace
 10
704.7971367846
 20
511.0079648426
 30
0.0
 11
705.7971367846
 21
519.0079648426
 31
0.0
 12
703.7971367846
 22
519.0079648426
 32
0.0
 13
703.7971367846
 23
519.0079648426
 33
0.0
  0
LINE
  5
1EA
330
1E5
100
AcDbEntity
  8
OPISY
100
AcDbLine
 10
639.6161894884
 20
491.5579648426
 30
0.0
 11
705.7971367846
 21
491.5579648426
 31
0.0
  0
LINE
  5
1EB
330
1E5
100
AcDbEntity
  8
OPISY
100
AcDbLine
 10
568.3661894884
 20
511.0079648426
 30
0.0
 11
705.7971367846
 21
511.0079648426
 31
0.0
  0
LINE
  5
1EC
330
1E5
100
AcDbEntity
  8
OPISY
100
AcDbLine
 10
704.7971367846
 20
491.5579648426
 30
0.0
 11
704.7971367846
 21
479.5579648426
 31
0.0
  0
LINE
  5
1ED
330
1E5
100
AcDbEntity
  8
OPISY
100
AcDbLine
 10
704.7971367846
 20
491.5579648426
 30
0.0
 11
704.7971367846
 21
511.0079648426
 31
0.0
  0
LINE
  5
1EE
330
1E5
100
AcDbEntity
  8
OPISY
100
AcDbLine
 10
704.7971367846
 20
511.0079648426
 30
0.0
 11
704.7971367846
 21
523.0079648426
 31
0.0
  0
MTEXT
  5
1EF
330
1E5
100
AcDbEntity
  8
OPISY
100
AcDbMText
 10
698.3517977364
 20
494.8176872081
 30
0.0
 40
5.0
 41
0.0
 71
     1
 72
     1
  1
19,5
  7
SLDTEXTSTYLE0
 11
-1.608122649676637E-16
 21
1.0
 31
0.0
  0
ENDBLK
  5
1E7
330
1E5
100
AcDbEntity
  8
0
100
AcDbBlockEnd
  0
BLOCK
  5
1F3
330
1F2
100
AcDbEntity
  8
0
100
AcDbBlockBegin
  2
_D_1
 70
     0
 10
0.0
 20
0.0
 30
0.0
  3
_D_1
  1

  0
SOLID
  5
1F5
330
1F2
100
AcDbEntity
  8
OPISY
100
AcDbTrace
 10
704.7971367846
 20
431.0079648426
 30
0.0
 11
705.7971367846
 21
439.0079648426
 31
0.0
 12
703.7971367846
 22
439.0079648426
 32
0.0
 13
703.7971367846
 23
439.0079648426
 33
0.0
  0
SOLID
  5
1F6
330
1F2
100
AcDbEntity
  8
OPISY
100
AcDbTrace
 10
704.7971367846
 20
471.0079648426
 30
0.0
 11
703.7971367846
 21
463.0079648426
 31
0.0
 12
705.7971367846
 22
463.0079648426
 32
0.0
 13
705.7971367846
 23
463.0079648426
 33
0.0
  0
LINE
  5
1F7
330
1F2
100
AcDbEntity
  8
OPISY
100
AcDbLine
 10
665.6161894884
 20
431.0079648426
 30
0.0
 11
705.7971367846
 21
431.0079648426
 31
0.0
  0
LINE
  5
1F8
330
1F2
100
AcDbEntity
  8
OPISY
100
AcDbLine
 10
665.6161894884
 20
471.0079648426
 30
0.0
 11
705.7971367846
 21
471.0079648426
 31
0.0
  0
LINE
  5
1F9
330
1F2
100
AcDbEntity
  8
OPISY
100
AcDbLine
 10
704.7971367846
 20
431.0079648426
 30
0.0
 11
704.7971367846
 21
471.0079648426
 31
0.0
  0
MTEXT
  5
1FA
330
1F2
100
AcDbEntity
  8
OPISY
100
AcDbMText
 10
698.3517977364
 20
447.3135204135
 30
0.0
 40
5.0
 41
0.0
 71
     1
 72
     1
  1
40
  7
SLDTEXTSTYLE0
 11
6.123233995736766E-17
 21
1.0
 31
0.0
  0
ENDBLK
  5
1F4
330
1F2
100
AcDbEntity
  8
0
100
AcDbBlockEnd
  0
BLOCK
  5
1FD
330
1FC
100
AcDbEntity
  8
0
100
AcDbBlockBegin
  2
_D_2
 70
     0
 10
0.0
 20
0.0
 30
0.0
  3
_D_2
  1

  0
SOLID
  5
1FF
330
1FC
100
AcDbEntity
  8
OPISY
100
AcDbTrace
 10
704.7971367846
 20
491.5579648426
 30
0.0
 11
703.7971367846
 21
483.5579648426
 31
0.0
 12
705.7971367846
 22
483.5579648426
 32
0.0
 13
705.7971367846
 23
483.5579648426
 33
0.0
  0
SOLID
  5
200
330
1FC
100
AcDbEntity
  8
OPISY
100
AcDbTrace
 10
704.7971367846
 20
471.0079648426
 30
0.0
 11
705.7971367846
 21
479.0079648426
 31
0.0
 12
703.7971367846
 22
479.0079648426
 32
0.0
 13
703.7971367846
 23
479.0079648426
 33
0.0
  0
LINE
  5
201
330
1FC
100
AcDbEntity
  8
OPISY
100
AcDbLine
 10
639.6161894884
 20
491.5579648426
 30
0.0
 11
705.7971367846
 21
491.5579648426
 31
0.0
  0
LINE
  5
202
330
1FC
100
AcDbEntity
  8
OPISY
100
AcDbLine
 10
665.6161894884
 20
471.0079648426
 30
0.0
 11
705.7971367846
 21
471.0079648426
 31
0.0
  0
LINE
  5
203
330
1FC
100
AcDbEntity
  8
OPISY
100
AcDbLine
 10
704.7971367846
 20
491.5579648426
 30
0.0
 11
704.7971367846
 21
471.0079648426
 31
0.0
  0
MTEXT
  5
204
330
1FC
100
AcDbEntity
  8
OPISY
100
AcDbMText
 10
698.3517977364
 20
474.8176872081
 30
0.0
 40
5.0
 41
0.0
 71
     1
 72
     1
  1
20,6
  7
SLDTEXTSTYLE0
 11
-7.044195017643634E-15
 21
1.0
 31
0.0
  0
ENDBLK
  5
1FE
330
1FC
100
AcDbEntity
  8
0
100
AcDbBlockEnd
  0
BLOCK
  5
208
330
207
100
AcDbEntity
  8
0
100
AcDbBlockBegin
  2
_D_3
 70
     0
 10
0.0
 20
0.0
 30
0.0
  3
_D_3
  1

  0
SOLID
  5
20A
330
207
100
AcDbEntity
  8
OPISY
100
AcDbTrace
 10
138.6161894884
 20
516.2550836919
 30
0.0
 11
130.6161894884
 21
517.2550836919
 31
0.0
 12
130.6161894884
 22
515.2550836919
 32
0.0
 13
130.6161894884
 23
515.2550836919
 33
0.0
  0
SOLID
  5
20B
330
207
100
AcDbEntity
  8
OPISY
100
AcDbTrace
 10
158.6161894883
 20
516.2550836919
 30
0.0
 11
166.6161894883
 21
515.2550836919
 31
0.0
 12
166.6161894883
 22
517.2550836919
 32
0.0
 13
166.6161894883
 23
517.2550836919
 33
0.0
  0
LINE
  5
20C
330
207
100
AcDbEntity
  8
OPISY
100
AcDbLine
 10
138.6161894884
 20
502.0579648426
 30
0.0
 11
138.6161894884
 21
517.2550836919
 31
0.0
  0
LINE
  5
20D
330
207
100
AcDbEntity
  8
OPISY
100
AcDbLine
 10
158.6161894883
 20
502.0579648426
 30
0.0
 11
158.6161894883
 21
517.2550836919
 31
0.0
  0
LINE
  5
20E
330
207
100
AcDbEntity
  8
OPISY
100
AcDbLine
 10
138.6161894884
 20
516.2550836919
 30
0.0
 11
126.6161894884
 21
516.2550836919
 31
0.0
  0
LINE
  5
20F
330
207
100
AcDbEntity
  8
OPISY
100
AcDbLine
 10
138.6161894884
 20
516.2550836919
 30
0.0
 11
158.6161894883
 21
516.2550836919
 31
0.0
  0
LINE
  5
210
330
207
100
AcDbEntity
  8
OPISY
100
AcDbLine
 10
158.6161894883
 20
516.2550836919
 30
0.0
 11
170.6161894883
 21
516.2550836919
 31
0.0
  0
MTEXT
  5
211
330
207
100
AcDbEntity
  8
OPISY
100
AcDbMText
 10
141.1514322992
 20
522.7004223908
 30
0.0
 40
5.0
 41
0.0
 71
     1
 72
     1
  1
%%c
  7
SLDTEXTSTYLE0
  0
MTEXT
  5
212
330
207
100
AcDbEntity
  8
OPISY
100
AcDbMText
 10
148.6920573536
 20
522.7768112146
 30
0.0
 40
5.0
 41
0.0
 71
     1
 72
     1
  1
20
  7
SLDTEXTSTYLE0
  0
ENDBLK
  5
209
330
207
100
AcDbEntity
  8
0
100
AcDbBlockEnd
  0
BLOCK
  5
45B
330
45A
100
AcDbEntity
  8
0
100
AcDbBlockBegin
  2
_D_4
 70
     0
 10
0.0
 20
0.0
 30
0.0
  3
_D_4
  1

  0
SOLID
  5
45D
330
45A
100
AcDbEntity
  8
OPISY
100
AcDbTrace
 10
671.0028977877
 20
327.6327395426
 30
0.0
 11
679.0028977877
 21
326.6327395426
 31
0.0
 12
679.0028977877
 22
328.6327395426
 32
0.0
 13
679.0028977877
 23
328.6327395426
 33
0.0
  0
SOLID
  5
45E
330
45A
100
AcDbEntity
  8
OPISY
100
AcDbTrace
 10
659.0028977877
 20
327.6327395426
 30
0.0
 11
651.0028977877
 21
328.6327395426
 31
0.0
 12
651.0028977877
 22
326.6327395426
 32
0.0
 13
651.0028977877
 23
326.6327395426
 33
0.0
  0
LINE
  5
45F
330
45A
100
AcDbEntity
  8
OPISY
100
AcDbLine
 10
670.630065961
 20
300.7674157462
 30
0.0
 11
670.8058578744
 21
313.4345389312
 31
0.0
  0
LINE
  5
460
330
45A
100
AcDbEntity
  8
OPISY
100
AcDbLine
 10
670.8613637648
 20
317.4341537997
 30
0.0
 11
671.0167742603
 21
328.6326432597
 31
0.0
  0
LINE
  5
461
330
45A
100
AcDbEntity
  8
OPISY
100
AcDbLine
 10
658.630065961
 20
300.7674157462
 30
0.0
 11
658.8058578744
 21
313.4345389312
 31
0.0
  0
LINE
  5
462
330
45A
100
AcDbEntity
  8
OPISY
100
AcDbLine
 10
658.8613637648
 20
317.4341537997
 30
0.0
 11
659.0167742603
 21
328.6326432597
 31
0.0
  0
LINE
  5
463
330
45A
100
AcDbEntity
  8
OPISY
100
AcDbLine
 10
671.0028977877
 20
327.6327395426
 30
0.0
 11
683.0028977877
 21
327.6327395426
 31
0.0
  0
LINE
  5
464
330
45A
100
AcDbEntity
  8
OPISY
100
AcDbLine
 10
671.0028977877
 20
327.6327395426
 30
0.0
 11
659.0028977877
 21
327.6327395426
 31
0.0
  0
LINE
  5
465
330
45A
100
AcDbEntity
  8
OPISY
100
AcDbLine
 10
659.0028977877
 20
327.6327395426
 30
0.0
 11
647.0028977877
 21
327.6327395426
 31
0.0
  0
MTEXT
  5
466
330
45A
100
AcDbEntity
  8
OPISY
100
AcDbMText
 10
657.5381405985
 20
334.0780782414
 30
0.0
 40
5.0
 41
0.0
 71
     1
 72
     1
  1
%%c
  7
SLDTEXTSTYLE0
  0
MTEXT
  5
467
330
45A
100
AcDbEntity
  8
OPISY
100
AcDbMText
 10
665.0787656529
 20
334.1544670652
 30
0.0
 40
5.0
 41
0.0
 71
     1
 72
     1
  1
12
  7
SLDTEXTSTYLE0
  0
ENDBLK
  5
45C
330
45A
100
AcDbEntity
  8
0
100
AcDbBlockEnd
  0
BLOCK
  5
46A
330
469
100
AcDbEntity
  8
0
100
AcDbBlockBegin
  2
_D_5
 70
     0
 10
0.0
 20
0.0
 30
0.0
  3
_D_5
  1

  0
SOLID
  5
46C
330
469
100
AcDbEntity
  8
OPISY
100
AcDbTrace
 10
662.1161894884
 20
315.4343463654
 30
0.0
 11
654.1161894884
 21
316.4343463654
 31
0.0
 12
654.1161894884
 22
314.4343463654
 32
0.0
 13
654.1161894884
 23
314.4343463654
 33
0.0
  0
SOLID
  5
46D
330
469
100
AcDbEntity
  8
OPISY
100
AcDbTrace
 10
667.1161894884
 20
315.4343463654
 30
0.0
 11
675.1161894884
 21
314.4343463654
 31
0.0
 12
675.1161894884
 22
316.4343463654
 32
0.0
 13
675.1161894884
 23
316.4343463654
 33
0.0
  0
LINE
  5
46E
330
469
100
AcDbEntity
  8
OPISY
100
AcDbLine
 10
662.1161894884
 20
296.2675120291
 30
0.0
 11
662.1161894884
 21
316.4343463654
 31
0.0
  0
LINE
  5
46F
330
469
100
AcDbEntity
  8
OPISY
100
AcDbLine
 10
667.1161894884
 20
296.2675120291
 30
0.0
 11
667.1161894884
 21
316.4343463654
 31
0.0
  0
LINE
  5
470
330
469
100
AcDbEntity
  8
OPISY
100
AcDbLine
 10
662.1161894884
 20
315.4343463654
 30
0.0
 11
650.1161894884
 21
315.4343463654
 31
0.0
  0
LINE
  5
471
330
469
100
AcDbEntity
  8
OPISY
100
AcDbLine
 10
662.1161894884
 20
315.4343463654
 30
0.0
 11
667.1161894884
 21
315.4343463654
 31
0.0
  0
LINE
  5
472
330
469
100
AcDbEntity
  8
OPISY
100
AcDbLine
 10
667.1161894884
 20
315.4343463654
 30
0.0
 11
682.8600623004
 21
315.4343463654
 31
0.0
  0
MTEXT
  5
473
330
469
100
AcDbEntity
  8
OPISY
100
AcDbMText
 10
679.1656178713
 20
321.8796854135
 30
0.0
 40
5.0
 41
0.0
 71
     1
 72
     1
  1
5
  7
SLDTEXTSTYLE0
  0
ENDBLK
  5
46B
330
469
100
AcDbEntity
  8
0
100
AcDbBlockEnd
  0
BLOCK
  5
476
330
475
100
AcDbEntity
  8
0
100
AcDbBlockBegin
  2
_D_6
 70
     0
 10
0.0
 20
0.0
 30
0.0
  3
_D_6
  1

  0
SOLID
  5
478
330
475
100
AcDbEntity
  8
OPISY
100
AcDbTrace
 10
696.4281936318
 20
297.7675120291
 30
0.0
 11
695.4281936318
 21
289.7675120291
 31
0.0
 12
697.4281936318
 22
289.7675120291
 32
0.0
 13
697.4281936318
 23
289.7675120291
 33
0.0
  0
SOLID
  5
479
330
475
100
AcDbEntity
  8
OPISY
100
AcDbTrace
 10
696.4281936318
 20
300.2675120291
 30
0.0
 11
697.4281936318
 21
308.2675120291
 31
0.0
 12
695.4281936318
 22
308.2675120291
 32
0.0
 13
695.4281936318
 23
308.2675120291
 33
0.0
  0
LINE
  5
47A
330
475
100
AcDbEntity
  8
OPISY
100
AcDbLine
 10
665.6161894884
 20
297.7675120291
 30
0.0
 11
697.4281936318
 21
297.7675120291
 31
0.0
  0
LINE
  5
47B
330
475
100
AcDbEntity
  8
OPISY
100
AcDbLine
 10
671.1161894884
 20
300.2675120291
 30
0.0
 11
697.4281936318
 21
300.2675120291
 31
0.0
  0
LINE
  5
47C
330
475
100
AcDbEntity
  8
OPISY
100
AcDbLine
 10
696.4281936318
 20
297.7675120291
 30
0.0
 11
696.4281936318
 21
285.7675120291
 31
0.0
  0
LINE
  5
47D
330
475
100
AcDbEntity
  8
OPISY
100
AcDbLine
 10
696.4281936318
 20
297.7675120291
 30
0.0
 11
696.4281936318
 21
300.2675120291
 31
0.0
  0
LINE
  5
47E
330
475
100
AcDbEntity
  8
OPISY
100
AcDbLine
 10
696.4281936318
 20
300.2675120291
 30
0.0
 11
696.4281936318
 21
319.1842518661
 31
0.0
  0
MTEXT
  5
47F
330
475
100
AcDbEntity
  8
OPISY
100
AcDbMText
 10
689.9828545837
 20
309.9481414918
 30
0.0
 40
5.0
 41
0.0
 71
     1
 72
     1
  1
2,5
  7
SLDTEXTSTYLE0
 11
6.123233995736766E-17
 21
1.0
 31
0.0
  0
ENDBLK
  5
477
330
475
100
AcDbEntity
  8
0
100
AcDbBlockEnd
  0
BLOCK
  5
483
330
482
100
AcDbEntity
  8
0
100
AcDbBlockBegin
  2
_D_7
 70
     0
 10
0.0
 20
0.0
 30
0.0
  3
_D_7
  1

  0
SOLID
  5
485
330
482
100
AcDbEntity
  8
OPISY
100
AcDbTrace
 10
706.0854366015
 20
297.7675120291
 30
0.0
 11
705.0854366015
 21
289.7675120291
 31
0.0
 12
707.0854366015
 22
289.7675120291
 32
0.0
 13
707.0854366015
 23
289.7675120291
 33
0.0
  0
SOLID
  5
486
330
482
100
AcDbEntity
  8
OPISY
100
AcDbTrace
 10
706.0854366015
 20
277.7675120291
 30
0.0
 11
707.0854366015
 21
285.7675120291
 31
0.0
 12
705.0854366015
 22
285.7675120291
 32
0.0
 13
705.0854366015
 23
285.7675120291
 33
0.0
  0
LINE
  5
487
330
482
100
AcDbEntity
  8
OPISY
100
AcDbLine
 10
665.6161894884
 20
297.7675120291
 30
0.0
 11
707.0854366015
 21
297.7675120291
 31
0.0
  0
LINE
  5
488
330
482
100
AcDbEntity
  8
OPISY
100
AcDbLine
 10
665.6161894884
 20
277.7675120291
 30
0.0
 11
707.0854366015
 21
277.7675120291
 31
0.0
  0
LINE
  5
489
330
482
100
AcDbEntity
  8
OPISY
100
AcDbLine
 10
706.0854366015
 20
297.7675120291
 30
0.0
 11
706.0854366015
 21
277.7675120291
 31
0.0
  0
MTEXT
  5
48A
330
482
100
AcDbEntity
  8
OPISY
100
AcDbMText
 10
699.6400975534
 20
284.0730675999
 30
0.0
 40
5.0
 41
0.0
 71
     1
 72
     1
  1
20
  7
SLDTEXTSTYLE0
 11
-7.044195017643634E-15
 21
1.0
 31
0.0
  0
ENDBLK
  5
484
330
482
100
AcDbEntity
  8
0
100
AcDbBlockEnd
  0
BLOCK
  5
48E
330
48D
100
AcDbEntity
  8
0
100
AcDbBlockBegin
  2
_D_8
 70
     0
 10
0.0
 20
0.0
 30
0.0
  3
_D_8
  1

  0
SOLID
  5
490
330
48D
100
AcDbEntity
  8
OPISY
100
AcDbTrace
 10
717.282339128
 20
270.3675120291
 30
0.0
 11
718.282339128
 21
278.3675120291
 31
0.0
 12
716.282339128
 22
278.3675120291
 32
0.0
 13
716.282339128
 23
278.3675120291
 33
0.0
  0
SOLID
  5
491
330
48D
100
AcDbEntity
  8
OPISY
100
AcDbTrace
 10
717.282339128
 20
300.2675120291
 30
0.0
 11
716.282339128
 21
292.2675120291
 31
0.0
 12
718.282339128
 22
292.2675120291
 32
0.0
 13
718.282339128
 23
292.2675120291
 33
0.0
  0
LINE
  5
492
330
48D
100
AcDbEntity
  8
OPISY
100
AcDbLine
 10
684.6161894884
 20
270.3675120291
 30
0.0
 11
718.282339128
 21
270.3675120291
 31
0.0
  0
LINE
  5
493
330
48D
100
AcDbEntity
  8
OPISY
100
AcDbLine
 10
671.1161894884
 20
300.2675120291
 30
0.0
 11
718.282339128
 21
300.2675120291
 31
0.0
  0
LINE
  5
494
330
48D
100
AcDbEntity
  8
OPISY
100
AcDbLine
 10
717.282339128
 20
270.3675120291
 30
0.0
 11
717.282339128
 21
300.2675120291
 31
0.0
  0
MTEXT
  5
495
330
48D
100
AcDbEntity
  8
OPISY
100
AcDbMText
 10
710.8370000799
 20
281.6230675999
 30
0.0
 40
5.0
 41
0.0
 71
     1
 72
     1
  1
30
  7
SLDTEXTSTYLE0
 11
6.123233995736766E-17
 21
1.0
 31
0.0
  0
ENDBLK
  5
48F
330
48D
100
AcDbEntity
  8
0
100
AcDbBlockEnd
  0
BLOCK
  5
498
330
497
100
AcDbEntity
  8
0
100
AcDbBlockBegin
  2
_D_9
 70
     0
 10
0.0
 20
0.0
 30
0.0
  3
_D_9
  1

  0
SOLID
  5
49A
330
497
100
AcDbEntity
  8
OPISY
100
AcDbTrace
 10
717.282339128
 20
214.3675120291
 30
0.0
 11
716.282339128
 21
206.3675120291
 31
0.0
 12
718.282339128
 22
206.3675120291
 32
0.0
 13
718.282339128
 23
206.3675120291
 33
0.0
  0
SOLID
  5
49B
330
497
100
AcDbEntity
  8
OPISY
100
AcDbTrace
 10
717.282339128
 20
182.3675120291
 30
0.0
 11
718.282339128
 21
190.3675120291
 31
0.0
 12
716.282339128
 22
190.3675120291
 32
0.0
 13
716.282339128
 23
190.3675120291
 33
0.0
  0
LINE
  5
49C
330
497
100
AcDbEntity
  8
OPISY
100
AcDbLine
 10
665.6161894884
 20
214.3675120291
 30
0.0
 11
718.282339128
 21
214.3675120291
 31
0.0
  0
LINE
  5
49D
330
497
100
AcDbEntity
  8
OPISY
100
AcDbLine
 10
568.3661894884
 20
182.3675120291
 30
0.0
 11
636.6161894884
 21
182.3675120291
 31
0.0
  0
LINE
  5
49E
330
497
100
AcDbEntity
  8
OPISY
100
AcDbLine
 10
640.6161894884
 20
182.3675120291
 30
0.0
 11
682.6161894884
 21
182.3675120291
 31
0.0
  0
LINE
  5
49F
330
497
100
AcDbEntity
  8
OPISY
100
AcDbLine
 10
686.6161894884
 20
182.3675120291
 30
0.0
 11
718.282339128
 21
182.3675120291
 31
0.0
  0
LINE
  5
4A0
330
497
100
AcDbEntity
  8
OPISY
100
AcDbLine
 10
717.282339128
 20
214.3675120291
 30
0.0
 11
717.282339128
 21
182.3675120291
 31
0.0
  0
MTEXT
  5
4A1
330
497
100
AcDbEntity
  8
OPISY
100
AcDbMText
 10
710.8370000799
 20
194.6730675999
 30
0.0
 40
5.0
 41
0.0
 71
     1
 72
     1
  1
32
  7
SLDTEXTSTYLE0
 11
-1.681415763434501E-14
 21
1.0
 31
0.0
  0
ENDBLK
  5
499
330
497
100
AcDbEntity
  8
0
100
AcDbBlockEnd
  0
BLOCK
  5
4A4
330
4A3
100
AcDbEntity
  8
0
100
AcDbBlockBegin
  2
_D_10
 70
     0
 10
0.0
 20
0.0
 30
0.0
  3
_D_10
  1

  0
SOLID
  5
4A6
330
4A3
100
AcDbEntity
  8
OPISY
100
AcDbTrace
 10
459.1808222543
 20
273.8675120291
 30
0.0
 11
458.1808222543
 21
265.8675120291
 31
0.0
 12
460.1808222543
 22
265.8675120291
 32
0.0
 13
460.1808222543
 23
265.8675120291
 33
0.0
  0
SOLID
  5
4A7
330
4A3
100
AcDbEntity
  8
OPISY
100
AcDbTrace
 10
459.1808222543
 20
182.3675120291
 30
0.0
 11
460.1808222543
 21
190.3675120291
 31
0.0
 12
458.1808222543
 22
190.3675120291
 32
0.0
 13
458.1808222543
 23
190.3675120291
 33
0.0
  0
LINE
  5
4A8
330
4A3
100
AcDbEntity
  8
OPISY
100
AcDbLine
 10
498.8661894884
 20
273.8675120291
 30
0.0
 11
458.1808222543
 21
273.8675120291
 31
0.0
  0
LINE
  5
4A9
330
4A3
100
AcDbEntity
  8
OPISY
100
AcDbLine
 10
488.8661894884
 20
182.3675120291
 30
0.0
 11
458.1808222543
 21
182.3675120291
 31
0.0
  0
LINE
  5
4AA
330
4A3
100
AcDbEntity
  8
OPISY
100
AcDbLine
 10
459.1808222543
 20
273.8675120291
 30
0.0
 11
459.1808222543
 21
294.2327896636
 31
0.0
  0
LINE
  5
4AB
330
4A3
100
AcDbEntity
  8
OPISY
100
AcDbLine
 10
459.1808222543
 20
273.8675120291
 30
0.0
 11
459.1808222543
 21
182.3675120291
 31
0.0
  0
MTEXT
  5
4AC
330
4A3
100
AcDbEntity
  8
OPISY
100
AcDbMText
 10
452.7354832062
 20
281.3022343945
 30
0.0
 40
5.0
 41
0.0
 71
     1
 72
     1
  1
91,5
  7
SLDTEXTSTYLE0
 11
-7.044195017643634E-15
 21
1.0
 31
0.0
  0
ENDBLK
  5
4A5
330
4A3
100
AcDbEntity
  8
0
100
AcDbBlockEnd
  0
BLOCK
  5
4AF
330
4AE
100
AcDbEntity
  8
0
100
AcDbBlockBegin
  2
_D_11
 70
     0
 10
0.0
 20
0.0
 30
0.0
  3
_D_11
  1

  0
SOLID
  5
4B1
330
4AE
100
AcDbEntity
  8
OPISY
100
AcDbTrace
 10
473.6388818616
 20
222.8675120291
 30
0.0
 11
472.6388818616
 21
214.8675120291
 31
0.0
 12
474.6388818616
 22
214.8675120291
 32
0.0
 13
474.6388818616
 23
214.8675120291
 33
0.0
  0
SOLID
  5
4B2
330
4AE
100
AcDbEntity
  8
OPISY
100
AcDbTrace
 10
473.6388818616
 20
182.3675120291
 30
0.0
 11
474.6388818616
 21
190.3675120291
 31
0.0
 12
472.6388818616
 22
190.3675120291
 32
0.0
 13
472.6388818616
 23
190.3675120291
 33
0.0
  0
LINE
  5
4B3
330
4AE
100
AcDbEntity
  8
OPISY
100
AcDbLine
 10
495.1161894884
 20
222.8675120291
 30
0.0
 11
472.6388818616
 21
222.8675120291
 31
0.0
  0
LINE
  5
4B4
330
4AE
100
AcDbEntity
  8
OPISY
100
AcDbLine
 10
488.8661894884
 20
182.3675120291
 30
0.0
 11
472.6388818616
 21
182.3675120291
 31
0.0
  0
LINE
  5
4B5
330
4AE
100
AcDbEntity
  8
OPISY
100
AcDbLine
 10
473.6388818616
 20
222.8675120291
 30
0.0
 11
473.6388818616
 21
182.3675120291
 31
0.0
  0
MTEXT
  5
4B6
330
4AE
100
AcDbEntity
  8
OPISY
100
AcDbMText
 10
467.1935428135
 20
196.1522343945
 30
0.0
 40
5.0
 41
0.0
 71
     1
 72
     1
  1
40,5
  7
SLDTEXTSTYLE0
 11
-7.044195017643634E-15
 21
1.0
 31
0.0
  0
ENDBLK
  5
4B0
330
4AE
100
AcDbEntity
  8
0
100
AcDbBlockEnd
  0
BLOCK
  5
4B9
330
4B8
100
AcDbEntity
  8
0
100
AcDbBlockBegin
  2
_D_12
 70
     0
 10
0.0
 20
0.0
 30
0.0
  3
_D_12
  1

  0
SOLID
  5
4BB
330
4B8
100
AcDbEntity
  8
OPISY
100
AcDbTrace
 10
473.6388818616
 20
264.8675120291
 30
0.0
 11
472.6388818616
 21
256.8675120291
 31
0.0
 12
474.6388818616
 22
256.8675120291
 32
0.0
 13
474.6388818616
 23
256.8675120291
 33
0.0
  0
SOLID
  5
4BC
330
4B8
100
AcDbEntity
  8
OPISY
100
AcDbTrace
 10
473.6388818616
 20
222.8675120291
 30
0.0
 11
474.6388818616
 21
230.8675120291
 31
0.0
 12
472.6388818616
 22
230.8675120291
 32
0.0
 13
472.6388818616
 23
230.8675120291
 33
0.0
  0
LINE
  5
4BD
330
4B8
100
AcDbEntity
  8
OPISY
100
AcDbLine
 10
495.1161894884
 20
264.8675120291
 30
0.0
 11
472.6388818616
 21
264.8675120291
 31
0.0
  0
LINE
  5
4BE
330
4B8
100
AcDbEntity
  8
OPISY
100
AcDbLine
 10
495.1161894884
 20
222.8675120291
 30
0.0
 11
472.6388818616
 21
222.8675120291
 31
0.0
  0
LINE
  5
4BF
330
4B8
100
AcDbEntity
  8
OPISY
100
AcDbLine
 10
473.6388818616
 20
264.8675120291
 30
0.0
 11
473.6388818616
 21
222.8675120291
 31
0.0
  0
MTEXT
  5
4C0
330
4B8
100
AcDbEntity
  8
OPISY
100
AcDbMText
 10
467.1935428135
 20
240.1730675999
 30
0.0
 40
5.0
 41
0.0
 71
     1
 72
     1
  1
42
  7
SLDTEXTSTYLE0
 11
-7.932373437343760E-15
 21
1.0
 31
0.0
  0
ENDBLK
  5
4BA
330
4B8
100
AcDbEntity
  8
0
100
AcDbBlockEnd
  0
BLOCK
  5
4C3
330
4C2
100
AcDbEntity
  8
0
100
AcDbBlockBegin
  2
_D_13
 70
     0
 10
0.0
 20
0.0
 30
0.0
  3
_D_13
  1

  0
SOLID
  5
4C5
330
4C2
100
AcDbEntity
  8
OPISY
100
AcDbTrace
 10
496.1161894884
 20
285.3175120291
 30
0.0
 11
504.1161894884
 21
284.3175120291
 31
0.0
 12
504.1161894884
 22
286.3175120291
 32
0.0
 13
504.1161894884
 23
286.3175120291
 33
0.0
  0
SOLID
  5
4C6
330
4C2
100
AcDbEntity
  8
OPISY
100
AcDbTrace
 10
561.1161894884
 20
285.3175120291
 30
0.0
 11
553.1161894884
 21
286.3175120291
 31
0.0
 12
553.1161894884
 22
284.3175120291
 32
0.0
 13
553.1161894884
 23
284.3175120291
 33
0.0
  0
LINE
  5
4C7
330
4C2
100
AcDbEntity
  8
OPISY
100
AcDbLine
 10
496.1161894884
 20
265.8675120291
 30
0.0
 11
496.1161894884
 21
286.3175120291
 31
0.0
  0
LINE
  5
4C8
330
4C2
100
AcDbEntity
  8
OPISY
100
AcDbLine
 10
561.1161894884
 20
265.8675120291
 30
0.0
 11
561.1161894884
 21
286.3175120291
 31
0.0
  0
LINE
  5
4C9
330
4C2
100
AcDbEntity
  8
OPISY
100
AcDbLine
 10
496.1161894884
 20
285.3175120291
 30
0.0
 11
561.1161894884
 21
285.3175120291
 31
0.0
  0
MTEXT
  5
4CA
330
4C2
100
AcDbEntity
  8
OPISY
100
AcDbMText
 10
524.9217450593
 20
291.7628510772
 30
0.0
 40
5.0
 41
0.0
 71
     1
 72
     1
  1
65
  7
SLDTEXTSTYLE0
  0
ENDBLK
  5
4C4
330
4C2
100
AcDbEntity
  8
0
100
AcDbBlockEnd
  0
BLOCK
  5
4CD
330
4CC
100
AcDbEntity
  8
0
100
AcDbBlockBegin
  2
_D_14
 70
     0
 10
0.0
 20
0.0
 30
0.0
  3
_D_14
  1

  0
SOLID
  5
4CF
330
4CC
100
AcDbEntity
  8
OPISY
100
AcDbTrace
 10
489.8661894884
 20
299.4710653254
 30
0.0
 11
497.8661894884
 21
298.4710653254
 31
0.0
 12
497.8661894884
 22
300.4710653254
 32
0.0
 13
497.8661894884
 23
300.4710653254
 33
0.0
  0
SOLID
  5
4D0
330
4CC
100
AcDbEntity
  8
OPISY
100
AcDbTrace
 10
567.3661894884
 20
299.4710653254
 30
0.0
 11
559.3661894884
 21
300.4710653254
 31
0.0
 12
559.3661894884
 22
298.4710653254
 32
0.0
 13
559.3661894884
 23
298.4710653254
 33
0.0
  0
LINE
  5
4D1
330
4CC
100
AcDbEntity
  8
OPISY
100
AcDbLine
 10
489.8661894884
 20
264.8675120291
 30
0.0
 11
489.8661894884
 21
300.4710653254
 31
0.0
  0
LINE
  5
4D2
330
4CC
100
AcDbEntity
  8
OPISY
100
AcDbLine
 10
567.3661894884
 20
264.8675120291
 30
0.0
 11
567.3661894884
 21
300.4710653254
 31
0.0
  0
LINE
  5
4D3
330
4CC
100
AcDbEntity
  8
OPISY
100
AcDbLine
 10
489.8661894884
 20
299.4710653254
 30
0.0
 11
567.3661894884
 21
299.4710653254
 31
0.0
  0
MTEXT
  5
4D4
330
4CC
100
AcDbEntity
  8
OPISY
100
AcDbMText
 10
522.1509118538
 20
305.9164043735
 30
0.0
 40
5.0
 41
0.0
 71
     1
 72
     1
  1
77,5
  7
SLDTEXTSTYLE0
  0
ENDBLK
  5
4CE
330
4CC
100
AcDbEntity
  8
0
100
AcDbBlockEnd
  0
BLOCK
  5
4D7
330
4D6
100
AcDbEntity
  8
0
100
AcDbBlockBegin
  2
_D_15
 70
     0
 10
0.0
 20
0.0
 30
0.0
  3
_D_15
  1

  0
SOLID
  5
4D9
330
4D6
100
AcDbEntity
  8
OPISY
100
AcDbTrace
 10
585.9448100972
 20
242.367512029
 30
0.0
 11
586.9448100972
 21
250.367512029
 31
0.0
 12
584.9448100972
 22
250.367512029
 32
0.0
 13
584.9448100972
 23
250.367512029
 33
0.0
  0
SOLID
  5
4DA
330
4D6
100
AcDbEntity
  8
OPISY
100
AcDbTrace
 10
585.9448100972
 20
273.8675120291
 30
0.0
 11
584.9448100972
 21
265.8675120291
 31
0.0
 12
586.9448100972
 22
265.8675120291
 32
0.0
 13
586.9448100972
 23
265.8675120291
 33
0.0
  0
LINE
  5
4DB
330
4D6
100
AcDbEntity
  8
OPISY
100
AcDbLine
 10
627.6161894884
 20
242.367512029
 30
0.0
 11
584.9448100972
 21
242.367512029
 31
0.0
  0
LINE
  5
4DC
330
4D6
100
AcDbEntity
  8
OPISY
100
AcDbLine
 10
558.3661894884
 20
273.8675120291
 30
0.0
 11
586.9448100972
 21
273.8675120291
 31
0.0
  0
LINE
  5
4DD
330
4D6
100
AcDbEntity
  8
OPISY
100
AcDbLine
 10
585.9448100972
 20
242.367512029
 30
0.0
 11
585.9448100972
 21
273.8675120291
 31
0.0
  0
LINE
  5
4DE
330
4D6
100
AcDbEntity
  8
OPISY
100
AcDbLine
 10
585.9448100972
 20
273.8675120291
 30
0.0
 11
585.9448100972
 21
290.5796391282
 31
0.0
  0
MTEXT
  5
4DF
330
4D6
100
AcDbEntity
  8
OPISY
100
AcDbMText
 10
579.4994710491
 20
277.6490838591
 30
0.0
 40
5.0
 41
0.0
 71
     1
 72
     1
  1
31,5
  7
SLDTEXTSTYLE0
 11
6.123233995736766E-17
 21
1.0
 31
0.0
  0
ENDBLK
  5
4D8
330
4D6
100
AcDbEntity
  8
0
100
AcDbBlockEnd
  0
BLOCK
  5
4E2
330
4E1
100
AcDbEntity
  8
0
100
AcDbBlockBegin
  2
_D_16
 70
     0
 10
0.0
 20
0.0
 30
0.0
  3
_D_16
  1

  0
SOLID
  5
4E4
330
4E1
100
AcDbEntity
  8
OPISY
100
AcDbTrace
 10
717.282339128
 20
262.3675120291
 30
0.0
 11
716.282339128
 21
254.3675120291
 31
0.0
 12
718.282339128
 22
254.3675120291
 32
0.0
 13
718.282339128
 23
254.3675120291
 33
0.0
  0
SOLID
  5
4E5
330
4E1
100
AcDbEntity
  8
OPISY
100
AcDbTrace
 10
717.282339128
 20
222.3675120291
 30
0.0
 11
718.282339128
 21
230.3675120291
 31
0.0
 12
716.282339128
 22
230.3675120291
 32
0.0
 13
716.282339128
 23
230.3675120291
 33
0.0
  0
LINE
  5
4E6
330
4E1
100
AcDbEntity
  8
OPISY
100
AcDbLine
 10
685.6161894884
 20
262.3675120291
 30
0.0
 11
718.282339128
 21
262.3675120291
 31
0.0
  0
LINE
  5
4E7
330
4E1
100
AcDbEntity
  8
OPISY
100
AcDbLine
 10
667.1411894884
 20
222.3675120291
 30
0.0
 11
718.282339128
 21
222.3675120291
 31
0.0
  0
LINE
  5
4E8
330
4E1
100
AcDbEntity
  8
OPISY
100
AcDbLine
 10
717.282339128
 20
262.3675120291
 30
0.0
 11
717.282339128
 21
222.3675120291
 31
0.0
  0
MTEXT
  5
4E9
330
4E1
100
AcDbEntity
  8
OPISY
100
AcDbMText
 10
710.8370000799
 20
238.6730675999
 30
0.0
 40
5.0
 41
0.0
 71
     1
 72
     1
  1
40
  7
SLDTEXTSTYLE0
 11
-7.044195017643634E-15
 21
1.0
 31
0.0
  0
ENDBLK
  5
4E3
330
4E1
100
AcDbEntity
  8
0
100
AcDbBlockEnd
  0
BLOCK
  5
4EC
330
4EB
100
AcDbEntity
  8
0
100
AcDbBlockBegin
  2
_D_17
 70
     0
 10
0.0
 20
0.0
 30
0.0
  3
_D_17
  1

  0
SOLID
  5
4EE
330
4EB
100
AcDbEntity
  8
OPISY
100
AcDbTrace
 10
730.1966824808
 20
270.3675120291
 30
0.0
 11
729.1966824808
 21
262.3675120291
 31
0.0
 12
731.1966824808
 22
262.3675120291
 32
0.0
 13
731.1966824808
 23
262.3675120291
 33
0.0
  0
SOLID
  5
4EF
330
4EB
100
AcDbEntity
  8
OPISY
100
AcDbTrace
 10
730.1966824808
 20
214.3675120291
 30
0.0
 11
731.1966824808
 21
222.3675120291
 31
0.0
 12
729.1966824808
 22
222.3675120291
 32
0.0
 13
729.1966824808
 23
222.3675120291
 33
0.0
  0
LINE
  5
4F0
330
4EB
100
AcDbEntity
  8
OPISY
100
AcDbLine
 10
684.6161894884
 20
270.3675120291
 30
0.0
 11
731.1966824808
 21
270.3675120291
 31
0.0
  0
LINE
  5
4F1
330
4EB
100
AcDbEntity
  8
OPISY
100
AcDbLine
 10
684.6161894884
 20
214.3675120291
 30
0.0
 11
731.1966824808
 21
214.3675120291
 31
0.0
  0
LINE
  5
4F2
330
4EB
100
AcDbEntity
  8
OPISY
100
AcDbLine
 10
730.1966824808
 20
270.3675120291
 30
0.0
 11
730.1966824808
 21
214.3675120291
 31
0.0
  0
MTEXT
  5
4F3
330
4EB
100
AcDbEntity
  8
OPISY
100
AcDbMText
 10
723.7513434327
 20
238.6730675999
 30
0.0
 40
5.0
 41
0.0
 71
     1
 72
     1
  1
56
  7
SLDTEXTSTYLE0
 11
6.123233995736766E-17
 21
1.0
 31
0.0
  0
ENDBLK
  5
4ED
330
4EB
100
AcDbEntity
  8
0
100
AcDbBlockEnd
  0
BLOCK
  5
4F6
330
4F5
100
AcDbEntity
  8
0
100
AcDbBlockBegin
  2
_D_18
 70
     0
 10
0.0
 20
0.0
 30
0.0
  3
_D_18
  1

  0
SOLID
  5
4F8
330
4F5
100
AcDbEntity
  8
OPISY
100
AcDbTrace
 10
638.6161894884
 20
315.4343463654
 30
0.0
 11
630.6161894884
 21
316.4343463654
 31
0.0
 12
630.6161894884
 22
314.4343463654
 32
0.0
 13
630.6161894884
 23
314.4343463654
 33
0.0
  0
SOLID
  5
4F9
330
4F5
100
AcDbEntity
  8
OPISY
100
AcDbTrace
 10
138.6161894884
 20
315.4343463654
 30
0.0
 11
146.6161894884
 21
314.4343463654
 31
0.0
 12
146.6161894884
 22
316.4343463654
 32
0.0
 13
146.6161894884
 23
316.4343463654
 33
0.0
  0
LINE
  5
4FA
330
4F5
100
AcDbEntity
  8
OPISY
100
AcDbLine
 10
638.6161894884
 20
259.3675120291
 30
0.0
 11
638.6161894884
 21
316.4343463654
 31
0.0
  0
LINE
  5
4FB
330
4F5
100
AcDbEntity
  8
OPISY
100
AcDbLine
 10
138.6161894884
 20
259.3675120291
 30
0.0
 11
138.6161894884
 21
316.4343463654
 31
0.0
  0
LINE
  5
4FC
330
4F5
100
AcDbEntity
  8
OPISY
100
AcDbLine
 10
638.6161894884
 20
315.4343463654
 30
0.0
 11
138.6161894884
 21
315.4343463654
 31
0.0
  0
MTEXT
  5
4FD
330
4F5
100
AcDbEntity
  8
OPISY
100
AcDbMText
 10
387.0779950052
 20
321.8796854135
 30
0.0
 40
5.0
 41
0.0
 71
     1
 72
     1
  1
L
  7
SLDTEXTSTYLE0
  0
ENDBLK
  5
4F7
330
4F5
100
AcDbEntity
  8
0
100
AcDbBlockEnd
  0
BLOCK
  5
500
330
4FF
100
AcDbEntity
  8
0
100
AcDbBlockBegin
  2
_D_19
 70
     0
 10
0.0
 20
0.0
 30
0.0
  3
_D_19
  1

  0
SOLID
  5
502
330
4FF
100
AcDbEntity
  8
OPISY
100
AcDbTrace
 10
684.6161894884
 20
168.7596433264
 30
0.0
 11
676.6161894884
 21
169.7596433264
 31
0.0
 12
676.6161894884
 22
167.7596433264
 32
0.0
 13
676.6161894884
 23
167.7596433264
 33
0.0
  0
SOLID
  5
503
330
4FF
100
AcDbEntity
  8
OPISY
100
AcDbTrace
 10
638.6161894884
 20
168.7596433264
 30
0.0
 11
646.6161894884
 21
167.7596433264
 31
0.0
 12
646.6161894884
 22
169.7596433264
 32
0.0
 13
646.6161894884
 23
169.7596433264
 33
0.0
  0
LINE
  5
504
330
4FF
100
AcDbEntity
  8
OPISY
100
AcDbLine
 10
684.6161894884
 20
214.3675120291
 30
0.0
 11
684.6161894884
 21
167.7596433264
 31
0.0
  0
LINE
  5
505
330
4FF
100
AcDbEntity
  8
OPISY
100
AcDbLine
 10
638.6161894884
 20
221.3675120291
 30
0.0
 11
638.6161894884
 21
167.7596433264
 31
0.0
  0
LINE
  5
506
330
4FF
100
AcDbEntity
  8
OPISY
100
AcDbLine
 10
684.6161894884
 20
168.7596433264
 30
0.0
 11
638.6161894884
 21
168.7596433264
 31
0.0
  0
MTEXT
  5
507
330
4FF
100
AcDbEntity
  8
OPISY
100
AcDbMText
 10
655.9009115111
 20
175.2049823745
 30
0.0
 40
5.0
 41
0.0
 71
     1
 72
     1
  1
~
  7
SLDTEXTSTYLE0
  0
MTEXT
  5
508
330
4FF
100
AcDbEntity
  8
OPISY
100
AcDbMText
 10
659.9425781417
 20
175.2049823745
 30
0.0
 40
5.0
 41
0.0
 71
     1
 72
     1
  1
46
  7
SLDTEXTSTYLE0
  0
ENDBLK
  5
501
330
4FF
100
AcDbEntity
  8
0
100
AcDbBlockEnd
  0
BLOCK
  5
50B
330
50A
100
AcDbEntity
  8
0
100
AcDbBlockBegin
  2
_D_20
 70
     0
 10
0.0
 20
0.0
 30
0.0
  3
_D_20
  1

  0
SOLID
  5
50D
330
50A
100
AcDbEntity
  8
OPISY
100
AcDbTrace
 10
138.6161894884
 20
315.4343463654
 30
0.0
 11
130.6161894884
 21
316.4343463654
 31
0.0
 12
130.6161894884
 22
314.4343463654
 32
0.0
 13
130.6161894884
 23
314.4343463654
 33
0.0
  0
SOLID
  5
50E
330
50A
100
AcDbEntity
  8
OPISY
100
AcDbTrace
 10
92.6161894884
 20
315.4343463654
 30
0.0
 11
100.6161894884
 21
314.4343463654
 31
0.0
 12
100.6161894884
 22
316.4343463654
 32
0.0
 13
100.6161894884
 23
316.4343463654
 33
0.0
  0
LINE
  5
50F
330
50A
100
AcDbEntity
  8
OPISY
100
AcDbLine
 10
138.6161894884
 20
259.3675120291
 30
0.0
 11
138.6161894884
 21
316.4343463654
 31
0.0
  0
LINE
  5
510
330
50A
100
AcDbEntity
  8
OPISY
100
AcDbLine
 10
92.6161894884
 20
270.3675120291
 30
0.0
 11
92.6161894884
 21
316.4343463654
 31
0.0
  0
LINE
  5
511
330
50A
100
AcDbEntity
  8
OPISY
100
AcDbLine
 10
138.6161894884
 20
315.4343463654
 30
0.0
 11
92.6161894884
 21
315.4343463654
 31
0.0
  0
MTEXT
  5
512
330
50A
100
AcDbEntity
  8
OPISY
100
AcDbMText
 10
109.9009115111
 20
321.8796854135
 30
0.0
 40
5.0
 41
0.0
 71
     1
 72
     1
  1
~
  7
SLDTEXTSTYLE0
  0
MTEXT
  5
513
330
50A
100
AcDbEntity
  8
OPISY
100
AcDbMText
 10
113.9425781417
 20
321.8796854135
 30
0.0
 40
5.0
 41
0.0
 71
     1
 72
     1
  1
46
  7
SLDTEXTSTYLE0
  0
ENDBLK
  5
50C
330
50A
100
AcDbEntity
  8
0
100
AcDbBlockEnd
  0
BLOCK
  5
517
330
516
100
AcDbEntity
  8
0
100
AcDbBlockBegin
  2
_D_21
 70
     0
 10
0.0
 20
0.0
 30
0.0
  3
_D_21
  1

  0
SOLID
  5
519
330
516
100
AcDbEntity
  8
OPISY
100
AcDbTrace
 10
562.5374247786
 20
225.5378519419
 30
0.0
 11
567.1788205585
 21
232.1300780616
 31
0.0
 12
565.4133065666
 22
233.0697377576
 32
0.0
 13
565.4133065666
 23
233.0697377576
 33
0.0
  0
SOLID
  5
51A
330
516
100
AcDbEntity
  8
OPISY
100
AcDbTrace
 10
559.6949541982
 20
220.1971721163
 30
0.0
 11
555.0535584182
 21
213.6049459965
 31
0.0
 12
556.8190724101
 22
212.6652863005
 32
0.0
 13
556.8190724101
 23
212.6652863005
 33
0.0
  0
LINE
  5
51B
330
516
100
AcDbEntity
  8
OPISY
100
AcDbLine
 10
559.6949541982
 20
220.1971721163
 30
0.0
 11
523.8749998695
 21
152.8955406567
 31
0.0
  0
LINE
  5
51C
330
516
100
AcDbEntity
  8
OPISY
100
AcDbLine
 10
562.5374247786
 20
225.5378519419
 30
0.0
 11
568.1753829546
 21
236.1309358935
 31
0.0
  0
LINE
  5
51D
330
516
100
AcDbEntity
  8
OPISY
100
AcDbLine
 10
559.6949541982
 20
220.1971721163
 30
0.0
 11
562.5374247786
 21
225.5378519419
 31
0.0
  0
MTEXT
  5
51F
330
516
100
AcDbEntity
  8
OPISY
100
AcDbMText
 10
518.1910837001
 20
155.9206919522
 30
0.0
 40
5.0
 41
0.0
 71
     1
 72
     1
  1
6 x M6
  7
SLDTEXTSTYLE3
 11
0.4698298480001807
 21
0.8827569959666857
 31
0.0
  0
ENDBLK
  5
518
330
516
100
AcDbEntity
  8
0
100
AcDbBlockEnd
  0
ENDSEC
  0
SECTION
  2
ENTITIES
  0
LINE
  5
75
330
1F
100
AcDbEntity
  8
0
  6
CONTINUOUS
 62
     7
100
AcDbLine
 10
10.0
 20
10.0
 30
0.0
 11
830.0
 21
10.0
 31
0.0
  0
LINE
  5
76
330
1F
100
AcDbEntity
  8
0
  6
CONTINUOUS
 62
   218
100
AcDbLine
 10
830.2545578658
 20
90.0
 30
0.0
 11
470.2545578658
 21
90.0
 31
0.0
  0
LINE
  5
77
330
1F
100
AcDbEntity
  8
0
  6
CONTINUOUS
 62
     7
100
AcDbLine
 10
830.2545578658
 20
70.0
 30
0.0
 11
470.2545578658
 21
70.0
 31
0.0
  0
LINE
  5
78
330
1F
100
AcDbEntity
  8
0
  6
CONTINUOUS
 62
   218
100
AcDbLine
 10
470.2545578658
 20
10.0
 30
0.0
 11
470.2545578658
 21
90.0
 31
0.0
  0
LINE
  5
79
330
1F
100
AcDbEntity
  8
0
  6
CONTINUOUS
 62
   218
100
AcDbLine
 10
830.0
 20
40.0
 30
0.0
 11
470.0
 21
40.0
 31
0.0
  0
LINE
  5
7A
330
1F
100
AcDbEntity
  8
0
  6
CONTINUOUS
 62
     7
100
AcDbLine
 10
492.023082781
 20
90.0
 30
0.0
 11
492.023082781
 21
70.0
 31
0.0
  0
LINE
  5
7B
330
1F
100
AcDbEntity
  8
0
  6
CONTINUOUS
 62
     7
100
AcDbLine
 10
710.2545578658
 20
60.933773122
 30
0.0
 11
830.2545578658
 21
60.933773122
 31
0.0
  0
LINE
  5
7C
330
1F
100
AcDbEntity
  8
0
  6
CONTINUOUS
 62
     7
100
AcDbLine
 10
710.2545578658
 20
83.0985741693
 30
0.0
 11
541.8828354241
 21
83.0985741693
 31
0.0
  0
LINE
  5
7D
330
1F
100
AcDbEntity
  8
0
  6
CONTINUOUS
 62
     7
100
AcDbLine
 10
710.2545578658
 20
50.4961274533
 30
0.0
 11
830.2545578658
 21
50.4961274533
 31
0.0
  0
LINE
  5
7E
330
1F
100
AcDbEntity
  8
0
  6
CONTINUOUS
 62
   218
100
AcDbLine
 10
710.2545578658
 20
10.0
 30
0.0
 11
710.2545578658
 21
90.0
 31
0.0
  0
LINE
  5
7F
330
1F
100
AcDbEntity
  8
0
  6
CONTINUOUS
 62
     7
100
AcDbLine
 10
710.2545578658
 20
76.2780425011
 30
0.0
 11
541.8828354241
 21
76.2780425011
 31
0.0
  0
LINE
  5
80
330
1F
100
AcDbEntity
  8
0
  6
CONTINUOUS
 62
     7
100
AcDbLine
 10
541.8828354241
 20
90.0
 30
0.0
 11
541.8828354241
 21
10.0
 31
0.0
  0
LINE
  5
81
330
1F
100
AcDbEntity
  8
0
  6
CONTINUOUS
 62
     7
100
AcDbLine
 10
743.3803319491
 20
70.0
 30
0.0
 11
743.3803319491
 21
10.0
 31
0.0
  0
LINE
  5
82
330
1F
100
AcDbEntity
  8
0
  6
CONTINUOUS
 62
     7
100
AcDbLine
 10
656.5332726686
 20
40.0
 30
0.0
 11
656.5332726686
 21
10.0
 31
0.0
  0
LINE
  5
83
330
1F
100
AcDbEntity
  8
0
  6
CONTINUOUS
 62
     7
100
AcDbLine
 10
681.3739234474
 20
40.0
 30
0.0
 11
681.3739234474
 21
10.0
 31
0.0
  0
LINE
  5
84
330
1F
100
AcDbEntity
  8
0
  6
CONTINUOUS
 62
     7
100
AcDbLine
 10
669.7593151538
 20
70.0
 30
0.0
 11
669.7593151538
 21
40.0
 31
0.0
  0
LINE
  5
85
330
1F
100
AcDbEntity
  8
0
  6
CONTINUOUS
 62
     7
100
AcDbLine
 10
611.2793535596
 20
70.0
 30
0.0
 11
611.2793535596
 21
40.0
 31
0.0
  0
LINE
  5
86
330
1F
100
AcDbEntity
  8
0
  6
CONTINUOUS
 62
     7
100
AcDbLine
 10
673.5396136876
 20
70.0
 30
0.0
 11
673.5396136876
 21
90.0
 31
0.0
  0
LINE
  5
87
330
1F
100
AcDbEntity
  8
0
  6
CONTINUOUS
 62
     7
100
AcDbLine
 10
10.0
 20
584.0
 30
0.0
 11
10.0
 21
10.0
 31
0.0
  0
LINE
  5
88
330
1F
100
AcDbEntity
  8
0
  6
CONTINUOUS
 62
     7
100
AcDbLine
 10
830.0
 20
10.0
 30
0.0
 11
830.0
 21
584.0
 31
0.0
  0
LINE
  5
89
330
1F
100
AcDbEntity
  8
0
  6
CONTINUOUS
 62
     7
100
AcDbLine
 10
830.0
 20
584.0
 30
0.0
 11
10.0
 21
584.0
 31
0.0
  0
MTEXT
  5
8B
330
1F
100
AcDbEntity
  8
0
  6
CONTINUOUS
 62
     7
100
AcDbMText
 10
686.9657521359
 20
31.6031810539
 30
0.0
 40
8.0
 41
0.0
 71
     1
 72
     1
  1
1/1
  7
SLDTEXTSTYLE0
  0
MTEXT
  5
8D
330
1F
100
AcDbEntity
  8
0
  6
CONTINUOUS
 62
     7
100
AcDbMText
 10
669.1920145532
 20
62.7182856573
 30
0.0
 40
5.0
 41
0.0
 71
     3
 72
     1
  1
-
  7
SLDTEXTSTYLE1
  0
MTEXT
  5
8E
330
1F
100
AcDbEntity
  8
0
  6
CONTINUOUS
 62
     7
100
AcDbMText
 10
743.9059506676
 20
58.1010287033
 30
0.0
 40
5.0
 41
0.0
 71
     1
 72
     1
  1
DK
  7
SLDTEXTSTYLE1
  0
MTEXT
  5
8F
330
1F
100
AcDbEntity
  8
0
  6
CONTINUOUS
 62
     7
100
AcDbMText
 10
518.8398237053
 20
83.7850777479
 30
0.0
 40
5.0
 41
0.0
 71
     2
 72
     1
  1
2019-01-03
  7
SLDTEXTSTYLE1
  0
MTEXT
  5
90
330
1F
100
AcDbEntity
  8
0
  6
CONTINUOUS
 62
     7
100
AcDbMText
 10
542.8558234476
 20
36.8536808854
 30
0.0
 40
7.0
 41
0.0
 71
     1
 72
     1
  1
TSNP-LG20
  7
SLDTEXTSTYLE1
  0
MTEXT
  5
91
330
1F
100
AcDbEntity
  8
0
  6
CONTINUOUS
 62
     7
100
AcDbMText
 10
542.0922134475
 20
88.9259806226
 30
0.0
 40
5.0
 41
0.0
 71
     1
 72
     1
  1
Plik:  TSNP-LG20.SLDDRW
  7
SLDTEXTSTYLE1
  0
MTEXT
  5
92
330
1F
100
AcDbEntity
  8
0
  6
CONTINUOUS
 62
     7
100
AcDbMText
 10
710.4133180951
 20
68.443813352
 30
0.0
 40
5.0
 41
0.0
 71
     3
 72
     1
  1
1.74kg
  7
SLDTEXTSTYLE1
  0
MTEXT
  5
93
330
1F
100
AcDbEntity
  8
0
  6
CONTINUOUS
 62
     7
100
AcDbMText
 10
669.2317742862
 20
31.0159764852
 30
0.0
 40
10.0
 41
0.0
 71
     2
 72
     1
  1
1:2
  7
SLDTEXTSTYLE1
  0
INSERT
  5
99
330
1F
100
AcDbEntity
  8
0
  6
CONTINUOUS
 62
     7
100
AcDbBlockReference
  2
SW_NOTE_0
 10
814.7582823005
 20
65.7931721169
 30
0.0
  0
MTEXT
  5
9B
330
1F
100
AcDbEntity
  8
0
  6
CONTINUOUS
 62
     7
100
AcDbMText
 10
769.5204416047
 20
67.5176516387
 30
0.0
 40
4.0
 41
0.0
 71
     1
 72
     1
  1
Imię i nazwisko
  7
SLDTEXTSTYLE2
  0
MTEXT
  5
9C
330
1F
100
AcDbEntity
  8
0
  6
CONTINUOUS
 62
     7
100
AcDbMText
 10
713.6981976837
 20
76.0132384844
 30
0.0
 40
4.0
 41
0.0
 71
     1
 72
     1
  1
Notatka
  7
SLDTEXTSTYLE0
  0
MTEXT
  5
9D
330
1F
100
AcDbEntity
  8
0
  6
CONTINUOUS
 62
     7
100
AcDbMText
 10
712.8807746423
 20
57.6234893755
 30
0.0
 40
4.0
 41
0.0
 71
     1
 72
     1
  1
Rysował
  7
SLDTEXTSTYLE2
  0
MTEXT
  5
9E
330
1F
100
AcDbEntity
  8
0
  6
CONTINUOUS
 62
     7
100
AcDbMText
 10
712.7317805141
 20
37.301172446
 30
0.0
 40
4.0
 41
0.0
 71
     1
 72
     1
  1
Zatwierdził
  7
SLDTEXTSTYLE2
  0
MTEXT
  5
9F
330
1F
100
AcDbEntity
  8
0
  6
CONTINUOUS
 62
     7
100
AcDbMText
 10
712.9836839068
 20
47.7391772001
 30
0.0
 40
4.0
 41
0.0
 71
     1
 72
     1
  1
Sprawdził
  7
SLDTEXTSTYLE2
  0
MTEXT
  5
A0
330
1F
100
AcDbEntity
  8
0
  6
CONTINUOUS
 62
     7
100
AcDbMText
 10
673.118426139
 20
46.6866633902
 30
0.0
 40
4.0
 41
0.0
 71
     1
 72
     1
  1
Waga
  7
SLDTEXTSTYLE0
  0
MTEXT
  5
A1
330
1F
100
AcDbEntity
  8
0
  6
CONTINUOUS
 62
     7
100
AcDbMText
 10
613.7497658282
 20
46.7472528793
 30
0.0
 40
4.0
 41
0.0
 71
     1
 72
     1
  1
Materiał
  7
SLDTEXTSTYLE2
  0
MTEXT
  5
A2
330
1F
100
AcDbEntity
  8
0
  6
CONTINUOUS
 62
     7
100
AcDbMText
 10
546.0731192181
 20
46.0917117841
 30
0.0
 40
4.0
 41
0.0
 71
     1
 72
     1
  1
Ilość
  7
SLDTEXTSTYLE2
  0
MTEXT
  5
A3
330
1F
100
AcDbEntity
  8
0
  6
CONTINUOUS
 62
     7
100
AcDbMText
 10
494.9012239959
 20
75.9099615041
 30
0.0
 40
4.0
 41
0.0
 71
     1
 72
     1
  1
DATA
  7
SLDTEXTSTYLE0
  0
MTEXT
  5
A4
330
1F
100
AcDbEntity
  8
0
  6
CONTINUOUS
 62
     7
100
AcDbMText
 10
472.9505294043
 20
46.0917117841
 30
0.0
 40
4.0
 41
0.0
 71
     1
 72
     1
  1
Format
  7
SLDTEXTSTYLE0
  0
MTEXT
  5
A5
330
1F
100
AcDbEntity
  8
0
  6
CONTINUOUS
 62
     7
100
AcDbMText
 10
493.1034000895
 20
63.9355428542
 30
0.0
 40
16.0
 41
0.0
 71
     1
 72
     1
  1
A3
  7
SLDTEXTSTYLE1
  0
LINE
  5
A6
330
1F
100
AcDbEntity
  8
0
  6
CONTINUOUS
 62
     7
100
AcDbLine
 10
566.116184124
 20
496.357171618
 30
0.0
 11
566.1615581598
 21
496.3587585917
 31
0.0
  0
LINE
  5
A7
330
1F
100
AcDbEntity
  8
0
  6
CONTINUOUS
 62
     7
100
AcDbLine
 10
618.6161936607
 20
492.0579630962
 30
0.0
 11
619.1161872234
 21
491.5579658082
 31
0.0
  0
LINE
  5
A8
330
1F
100
AcDbEntity
  8
0
  6
CONTINUOUS
 62
     7
100
AcDbLine
 10
638.1161959257
 20
491.5579658082
 30
0.0
 11
638.6161894884
 21
492.0579630962
 31
0.0
  0
LINE
  5
A9
330
1F
100
AcDbEntity
  8
0
  6
CONTINUOUS
 62
     7
100
AcDbLine
 10
618.6161936607
 20
501.0579664341
 30
0.0
 11
618.6161936607
 21
492.0579630962
 31
0.0
  0
LINE
  5
AA
330
1F
100
AcDbEntity
  8
0
  6
CONTINUOUS
 62
     7
100
AcDbLine
 10
638.6161894884
 20
492.0579630962
 30
0.0
 11
638.6161894884
 21
501.0579664341
 31
0.0
  0
LINE
  5
AB
330
1F
100
AcDbEntity
  8
0
  6
CONTINUOUS
 62
     7
100
AcDbLine
 10
638.6161894884
 20
501.0579664341
 30
0.0
 11
638.1161959257
 21
501.5579637221
 31
0.0
  0
LINE
  5
AC
330
1F
100
AcDbEntity
  8
0
  6
CONTINUOUS
 62
     7
100
AcDbLine
 10
619.1161872234
 20
501.5579637221
 30
0.0
 11
618.6161936607
 21
501.0579664341
 31
0.0
  0
LINE
  5
AD
330
1F
100
AcDbEntity
  8
0
  6
CONTINUOUS
 62
     7
100
AcDbLine
 10
138.6161894884
 20
492.0579630962
 30
0.0
 11
139.1161830511
 21
491.5579658082
 31
0.0
  0
LINE
  5
AE
330
1F
100
AcDbEntity
  8
0
  6
CONTINUOUS
 62
     7
100
AcDbLine
 10
158.1161917534
 20
491.5579658082
 30
0.0
 11
158.6161853161
 21
492.0579630962
 31
0.0
  0
LINE
  5
AF
330
1F
100
AcDbEntity
  8
0
  6
CONTINUOUS
 62
     7
100
AcDbLine
 10
138.6161894884
 20
501.0579664341
 30
0.0
 11
138.6161894884
 21
492.0579630962
 31
0.0
  0
LINE
  5
B0
330
1F
100
AcDbEntity
  8
0
  6
CONTINUOUS
 62
     7
100
AcDbLine
 10
158.6161853161
 20
492.0579630962
 30
0.0
 11
158.6161853161
 21
501.0579664341
 31
0.0
  0
LINE
  5
B1
330
1F
100
AcDbEntity
  8
0
  6
CONTINUOUS
 62
     7
100
AcDbLine
 10
158.6161853161
 20
501.0579664341
 30
0.0
 11
158.1161917534
 21
501.5579637221
 31
0.0
  0
LINE
  5
B2
330
1F
100
AcDbEntity
  8
0
  6
CONTINUOUS
 62
     7
100
AcDbLine
 10
139.1161830511
 20
501.5579637221
 30
0.0
 11
138.6161894884
 21
501.0579664341
 31
0.0
  0
LINE
  5
B3
330
1F
100
AcDbEntity
  8
0
  6
CONTINUOUS
 62
     7
100
AcDbLine
 10
495.11618925
 20
467.0079656026
 30
0.0
 11
495.11618925
 21
463.4079651988
 31
0.0
  0
LINE
  5
B4
330
1F
100
AcDbEntity
  8
0
  6
CONTINUOUS
 62
     7
100
AcDbLine
 10
502.1161885347
 20
463.4079651988
 30
0.0
 11
502.1161885347
 21
467.0079656026
 31
0.0
  0
ARC
  5
B5
330
1F
100
AcDbEntity
  8
0
  6
CONTINUOUS
 62
     7
100
AcDbCircle
 10
501.7161894884
 20
463.4079648426
 30
0.0
 40
0.4000000000000909
100
AcDbArc
 50
270.0
 51
0.0
  0
ARC
  5
B6
330
1F
100
AcDbEntity
  8
0
  6
CONTINUOUS
 62
     7
100
AcDbCircle
 10
495.5161894884
 20
463.4079648426
 30
0.0
 40
0.4000000000000341
100
AcDbArc
 50
180.0
 51
270.0
  0
ARC
  5
B7
330
1F
100
AcDbEntity
  8
0
  6
CONTINUOUS
 62
     7
100
AcDbCircle
 10
561.7161894884
 20
463.4079648426
 30
0.0
 40
0.4000000000000341
100
AcDbArc
 50
270.0
 51
0.0
  0
ARC
  5
B8
330
1F
100
AcDbEntity
  8
0
  6
CONTINUOUS
 62
     7
100
AcDbCircle
 10
555.5161894884
 20
463.4079648426
 30
0.0
 40
0.4000000000000909
100
AcDbArc
 50
180.0
 51
270.0
  0
LINE
  5
B9
330
1F
100
AcDbEntity
  8
0
  6
CONTINUOUS
 62
     7
100
AcDbLine
 10
555.1161916341
 20
467.0079656026
 30
0.0
 11
555.1161916341
 21
463.4079651988
 31
0.0
  0
LINE
  5
BA
330
1F
100
AcDbEntity
  8
0
  6
CONTINUOUS
 62
     7
100
AcDbLine
 10
562.1161909189
 20
463.4079651988
 30
0.0
 11
562.1161909189
 21
467.0079656026
 31
0.0
  0
ARC
  5
BB
330
1F
100
AcDbEntity
  8
0
  6
CONTINUOUS
 62
     7
100
AcDbCircle
 10
531.7161894884
 20
463.4079648426
 30
0.0
 40
0.4000000000000909
100
AcDbArc
 50
270.0
 51
0.0
  0
ARC
  5
BC
330
1F
100
AcDbEntity
  8
0
  6
CONTINUOUS
 62
     7
100
AcDbCircle
 10
525.5161894884
 20
463.4079648426
 30
0.0
 40
0.4000000000000909
100
AcDbArc
 50
180.0
 51
270.0
  0
LINE
  5
BD
330
1F
100
AcDbEntity
  8
0
  6
CONTINUOUS
 62
     7
100
AcDbLine
 10
525.1161904421
 20
467.0079656026
 30
0.0
 11
525.1161904421
 21
463.4079651988
 31
0.0
  0
LINE
  5
BE
330
1F
100
AcDbEntity
  8
0
  6
CONTINUOUS
 62
     7
100
AcDbLine
 10
532.1161897268
 20
463.4079651988
 30
0.0
 11
532.1161897268
 21
467.0079656026
 31
0.0
  0
ARC
  5
BF
330
1F
100
AcDbEntity
  8
0
  6
CONTINUOUS
 62
     7
100
AcDbCircle
 10
555.5161894884
 20
510.6079648426
 30
0.0
 40
0.4000000000000909
100
AcDbArc
 50
90.0
 51
180.0
  0
ARC
  5
C0
330
1F
100
AcDbEntity
  8
0
  6
CONTINUOUS
 62
     7
100
AcDbCircle
 10
561.7161894884
 20
510.6079648426
 30
0.0
 40
0.4000000000000909
100
AcDbArc
 50
0.0
 51
90.0
  0
LINE
  5
C1
330
1F
100
AcDbEntity
  8
0
  6
CONTINUOUS
 62
     7
100
AcDbLine
 10
562.1161909189
 20
507.0079665712
 30
0.0
 11
562.1161909189
 21
510.607964181
 31
0.0
  0
LINE
  5
C2
330
1F
100
AcDbEntity
  8
0
  6
CONTINUOUS
 62
     7
100
AcDbLine
 10
555.1161916341
 20
510.607964181
 30
0.0
 11
555.1161916341
 21
507.0079665712
 31
0.0
  0
ARC
  5
C3
330
1F
100
AcDbEntity
  8
0
  6
CONTINUOUS
 62
     7
100
AcDbCircle
 10
525.5161894884
 20
510.6079648426
 30
0.0
 40
0.4000000000000909
100
AcDbArc
 50
90.0
 51
180.0
  0
ARC
  5
C4
330
1F
100
AcDbEntity
  8
0
  6
CONTINUOUS
 62
     7
100
AcDbCircle
 10
531.7161894884
 20
510.6079648426
 30
0.0
 40
0.4000000000000909
100
AcDbArc
 50
0.0
 51
90.0
  0
LINE
  5
C5
330
1F
100
AcDbEntity
  8
0
  6
CONTINUOUS
 62
     7
100
AcDbLine
 10
532.1161897268
 20
507.0079665712
 30
0.0
 11
532.1161897268
 21
510.607964181
 31
0.0
  0
LINE
  5
C6
330
1F
100
AcDbEntity
  8
0
  6
CONTINUOUS
 62
     7
100
AcDbLine
 10
525.1161904421
 20
510.607964181
 30
0.0
 11
525.1161904421
 21
507.0079665712
 31
0.0
  0
ARC
  5
C7
330
1F
100
AcDbEntity
  8
0
  6
CONTINUOUS
 62
     7
100
AcDbCircle
 10
495.5161894884
 20
510.6079648426
 30
0.0
 40
0.4000000000000909
100
AcDbArc
 50
90.0
 51
180.0
  0
ARC
  5
C8
330
1F
100
AcDbEntity
  8
0
  6
CONTINUOUS
 62
     7
100
AcDbCircle
 10
501.7161894884
 20
510.6079648426
 30
0.0
 40
0.4000000000000909
100
AcDbArc
 50
0.0
 51
90.0
  0
LINE
  5
C9
330
1F
100
AcDbEntity
  8
0
  6
CONTINUOUS
 62
     7
100
AcDbLine
 10
502.1161885347
 20
507.0079665712
 30
0.0
 11
502.1161885347
 21
510.607964181
 31
0.0
  0
LINE
  5
CA
330
1F
100
AcDbEntity
  8
0
  6
CONTINUOUS
 62
     7
100
AcDbLine
 10
495.11618925
 20
510.607964181
 30
0.0
 11
495.11618925
 21
507.0079665712
 31
0.0
  0
LINE
  5
CB
330
1F
100
AcDbEntity
  8
0
  6
CONTINUOUS
 62
     7
100
AcDbLine
 10
138.6161894884
 20
475.5079642019
 30
0.0
 11
491.1161885943
 21
475.5079642019
 31
0.0
  0
LINE
  5
CC
330
1F
100
AcDbEntity
  8
0
  6
CONTINUOUS
 62
     7
100
AcDbLine
 10
566.116184124
 20
475.5079642019
 30
0.0
 11
638.6161894884
 21
475.5079642019
 31
0.0
  0
LINE
  5
CD
330
1F
100
AcDbEntity
  8
0
  6
CONTINUOUS
 62
     7
100
AcDbLine
 10
638.6161894884
 20
474.8151440254
 30
0.0
 11
566.116184124
 21
474.8151440254
 31
0.0
  0
LINE
  5
CE
330
1F
100
AcDbEntity
  8
0
  6
CONTINUOUS
 62
     7
100
AcDbLine
 10
491.1161885943
 20
474.8151440254
 30
0.0
 11
138.6161894884
 21
474.8151440254
 31
0.0
  0
LINE
  5
CF
330
1F
100
AcDbEntity
  8
0
  6
CONTINUOUS
 62
     7
100
AcDbLine
 10
138.6161894884
 20
475.5079642019
 30
0.0
 11
138.6161894884
 21
474.8151440254
 31
0.0
  0
LINE
  5
D0
330
1F
100
AcDbEntity
  8
0
  6
CONTINUOUS
 62
     7
100
AcDbLine
 10
638.6161894884
 20
474.8151440254
 30
0.0
 11
638.6161894884
 21
475.5079642019
 31
0.0
  0
LINE
  5
D1
330
1F
100
AcDbEntity
  8
0
  6
CONTINUOUS
 62
     7
100
AcDbLine
 10
138.6161894884
 20
472.0079645595
 30
0.0
 11
491.1161885943
 21
472.0079645595
 31
0.0
  0
LINE
  5
D2
330
1F
100
AcDbEntity
  8
0
  6
CONTINUOUS
 62
     7
100
AcDbLine
 10
566.116184124
 20
472.0079645595
 30
0.0
 11
638.6161894884
 21
472.0079645595
 31
0.0
  0
LINE
  5
D3
330
1F
100
AcDbEntity
  8
0
  6
CONTINUOUS
 62
     7
100
AcDbLine
 10
138.6161894884
 20
472.0079645595
 30
0.0
 11
138.6161894884
 21
474.8151440254
 31
0.0
  0
LINE
  5
D4
330
1F
100
AcDbEntity
  8
0
  6
CONTINUOUS
 62
     7
100
AcDbLine
 10
638.6161894884
 20
474.8151440254
 30
0.0
 11
638.6161894884
 21
472.0079645595
 31
0.0
  0
LINE
  5
D5
330
1F
100
AcDbEntity
  8
0
  6
CONTINUOUS
 62
     7
100
AcDbLine
 10
138.6161894884
 20
472.0079645595
 30
0.0
 11
138.6161894884
 21
471.0079643956
 31
0.0
  0
LINE
  5
D6
330
1F
100
AcDbEntity
  8
0
  6
CONTINUOUS
 62
     7
100
AcDbLine
 10
638.6161894884
 20
471.0079643956
 30
0.0
 11
638.6161894884
 21
472.0079645595
 31
0.0
  0
LINE
  5
D7
330
1F
100
AcDbEntity
  8
0
  6
CONTINUOUS
 62
     7
100
AcDbLine
 10
138.6161894884
 20
477.5826454243
 30
0.0
 11
491.1161885943
 21
477.5826454243
 31
0.0
  0
LINE
  5
D8
330
1F
100
AcDbEntity
  8
0
  6
CONTINUOUS
 62
     7
100
AcDbLine
 10
566.116184124
 20
477.5826454243
 30
0.0
 11
638.6161894884
 21
477.5826454243
 31
0.0
  0
LINE
  5
D9
330
1F
100
AcDbEntity
  8
0
  6
CONTINUOUS
 62
     7
100
AcDbLine
 10
138.6161894884
 20
475.5079642019
 30
0.0
 11
138.6161894884
 21
477.5826454243
 31
0.0
  0
LINE
  5
DA
330
1F
100
AcDbEntity
  8
0
  6
CONTINUOUS
 62
     7
100
AcDbLine
 10
638.6161894884
 20
477.5826454243
 30
0.0
 11
638.6161894884
 21
475.5079642019
 31
0.0
  0
LINE
  5
DB
330
1F
100
AcDbEntity
  8
0
  6
CONTINUOUS
 62
     7
100
AcDbLine
 10
638.6161894884
 20
489.2322857013
 30
0.0
 11
566.116184124
 21
489.2322857013
 31
0.0
  0
LINE
  5
DC
330
1F
100
AcDbEntity
  8
0
  6
CONTINUOUS
 62
     7
100
AcDbLine
 10
491.1161885943
 20
489.2322857013
 30
0.0
 11
138.6161894884
 21
489.2322857013
 31
0.0
  0
LINE
  5
DD
330
1F
100
AcDbEntity
  8
0
  6
CONTINUOUS
 62
     7
100
AcDbLine
 10
138.6161894884
 20
489.9979632428
 30
0.0
 11
491.1161885943
 21
489.9979632428
 31
0.0
  0
LINE
  5
DE
330
1F
100
AcDbEntity
  8
0
  6
CONTINUOUS
 62
     7
100
AcDbLine
 10
566.116184124
 20
489.9979632428
 30
0.0
 11
638.6161894884
 21
489.9979632428
 31
0.0
  0
LINE
  5
DF
330
1F
100
AcDbEntity
  8
0
  6
CONTINUOUS
 62
     7
100
AcDbLine
 10
138.6161894884
 20
489.9979632428
 30
0.0
 11
138.6161894884
 21
489.2322857013
 31
0.0
  0
LINE
  5
E0
330
1F
100
AcDbEntity
  8
0
  6
CONTINUOUS
 62
     7
100
AcDbLine
 10
638.6161894884
 20
489.2322857013
 30
0.0
 11
638.6161894884
 21
489.9979632428
 31
0.0
  0
LINE
  5
E1
330
1F
100
AcDbEntity
  8
0
  6
CONTINUOUS
 62
     7
100
AcDbLine
 10
138.6161894884
 20
487.4884922138
 30
0.0
 11
491.1161885943
 21
487.4884922138
 31
0.0
  0
LINE
  5
E2
330
1F
100
AcDbEntity
  8
0
  6
CONTINUOUS
 62
     7
100
AcDbLine
 10
566.116184124
 20
487.4884922138
 30
0.0
 11
638.6161894884
 21
487.4884922138
 31
0.0
  0
LINE
  5
E3
330
1F
100
AcDbEntity
  8
0
  6
CONTINUOUS
 62
     7
100
AcDbLine
 10
138.6161894884
 20
487.4884922138
 30
0.0
 11
138.6161894884
 21
489.2322857013
 31
0.0
  0
LINE
  5
E4
330
1F
100
AcDbEntity
  8
0
  6
CONTINUOUS
 62
     7
100
AcDbLine
 10
638.6161894884
 20
489.2322857013
 30
0.0
 11
638.6161894884
 21
487.4884922138
 31
0.0
  0
LINE
  5
E5
330
1F
100
AcDbEntity
  8
0
  6
CONTINUOUS
 62
     7
100
AcDbLine
 10
638.6161894884
 20
479.3275918892
 30
0.0
 11
566.116184124
 21
479.3275937519
 31
0.0
  0
LINE
  5
E6
330
1F
100
AcDbEntity
  8
0
  6
CONTINUOUS
 62
     7
100
AcDbLine
 10
491.1161885943
 20
479.3275918892
 30
0.0
 11
138.6161894884
 21
479.3275918892
 31
0.0
  0
LINE
  5
E7
330
1F
100
AcDbEntity
  8
0
  6
CONTINUOUS
 62
     7
100
AcDbLine
 10
138.6161894884
 20
477.5826454243
 30
0.0
 11
138.6161894884
 21
479.3275918892
 31
0.0
  0
LINE
  5
E8
330
1F
100
AcDbEntity
  8
0
  6
CONTINUOUS
 62
     7
100
AcDbLine
 10
638.6161894884
 20
479.3275918892
 30
0.0
 11
638.6161894884
 21
477.5826454243
 31
0.0
  0
LINE
  5
E9
330
1F
100
AcDbEntity
  8
0
  6
CONTINUOUS
 62
     7
100
AcDbLine
 10
138.6161894884
 20
490.4479634097
 30
0.0
 11
491.1161885943
 21
490.4479634097
 31
0.0
  0
LINE
  5
EA
330
1F
100
AcDbEntity
  8
0
  6
CONTINUOUS
 62
     7
100
AcDbLine
 10
566.116184124
 20
490.4479634097
 30
0.0
 11
638.6161894884
 21
490.4479634097
 31
0.0
  0
LINE
  5
EB
330
1F
100
AcDbEntity
  8
0
  6
CONTINUOUS
 62
     7
100
AcDbLine
 10
138.6161894884
 20
489.9979632428
 30
0.0
 11
138.6161894884
 21
490.4479634097
 31
0.0
  0
LINE
  5
EC
330
1F
100
AcDbEntity
  8
0
  6
CONTINUOUS
 62
     7
100
AcDbLine
 10
638.6161894884
 20
490.4479634097
 30
0.0
 11
638.6161894884
 21
489.9979632428
 31
0.0
  0
LINE
  5
ED
330
1F
100
AcDbEntity
  8
0
  6
CONTINUOUS
 62
     7
100
AcDbLine
 10
138.6161894884
 20
491.5579658082
 30
0.0
 11
144.6827353325
 21
491.5579658082
 31
0.0
  0
LINE
  5
EE
330
1F
100
AcDbEntity
  8
0
  6
CONTINUOUS
 62
     7
100
AcDbLine
 10
152.549639472
 20
491.5579658082
 30
0.0
 11
491.1161885943
 21
491.5579658082
 31
0.0
  0
LINE
  5
EF
330
1F
100
AcDbEntity
  8
0
  6
CONTINUOUS
 62
     7
100
AcDbLine
 10
566.116184124
 20
491.5579658082
 30
0.0
 11
624.6827395048
 21
491.5579658082
 31
0.0
  0
LINE
  5
F0
330
1F
100
AcDbEntity
  8
0
  6
CONTINUOUS
 62
     7
100
AcDbLine
 10
632.5496436443
 20
491.5579658082
 30
0.0
 11
638.6161894884
 21
491.5579658082
 31
0.0
  0
LINE
  5
F1
330
1F
100
AcDbEntity
  8
0
  6
CONTINUOUS
 62
     7
100
AcDbLine
 10
138.6161894884
 20
491.5579658082
 30
0.0
 11
138.6161894884
 21
490.4479634097
 31
0.0
  0
LINE
  5
F2
330
1F
100
AcDbEntity
  8
0
  6
CONTINUOUS
 62
     7
100
AcDbLine
 10
638.6161894884
 20
490.4479634097
 30
0.0
 11
638.6161894884
 21
491.5579658082
 31
0.0
  0
LINE
  5
F3
330
1F
100
AcDbEntity
  8
0
  6
CONTINUOUS
 62
     7
100
AcDbLine
 10
638.6161894884
 20
486.857964479
 30
0.0
 11
566.116184124
 21
486.857964479
 31
0.0
  0
LINE
  5
F4
330
1F
100
AcDbEntity
  8
0
  6
CONTINUOUS
 62
     7
100
AcDbLine
 10
491.1161885943
 20
486.857964479
 30
0.0
 11
138.6161894884
 21
486.857964479
 31
0.0
  0
LINE
  5
F5
330
1F
100
AcDbEntity
  8
0
  6
CONTINUOUS
 62
     7
100
AcDbLine
 10
138.6161894884
 20
487.4884922138
 30
0.0
 11
138.6161894884
 21
486.857964479
 31
0.0
  0
LINE
  5
F6
330
1F
100
AcDbEntity
  8
0
  6
CONTINUOUS
 62
     7
100
AcDbLine
 10
638.6161894884
 20
486.857964479
 30
0.0
 11
638.6161894884
 21
487.4884922138
 31
0.0
  0
LINE
  5
F7
330
1F
100
AcDbEntity
  8
0
  6
CONTINUOUS
 62
     7
100
AcDbLine
 10
138.6161894884
 20
479.9579650244
 30
0.0
 11
491.1161885943
 21
479.9579650244
 31
0.0
  0
LINE
  5
F8
330
1F
100
AcDbEntity
  8
0
  6
CONTINUOUS
 62
     7
100
AcDbLine
 10
566.116184124
 20
479.9579650244
 30
0.0
 11
638.6161894884
 21
479.9579650244
 31
0.0
  0
LINE
  5
F9
330
1F
100
AcDbEntity
  8
0
  6
CONTINUOUS
 62
     7
100
AcDbLine
 10
138.6161894884
 20
479.9579650244
 30
0.0
 11
138.6161894884
 21
479.3275918892
 31
0.0
  0
LINE
  5
FA
330
1F
100
AcDbEntity
  8
0
  6
CONTINUOUS
 62
     7
100
AcDbLine
 10
638.6161894884
 20
479.3275918892
 30
0.0
 11
638.6161894884
 21
479.9579650244
 31
0.0
  0
LINE
  5
FB
330
1F
100
AcDbEntity
  8
0
  6
CONTINUOUS
 62
     7
100
AcDbLine
 10
138.6161894884
 20
479.9579650244
 30
0.0
 11
138.6161894884
 21
486.857964479
 31
0.0
  0
LINE
  5
FC
330
1F
100
AcDbEntity
  8
0
  6
CONTINUOUS
 62
     7
100
AcDbLine
 10
638.6161894884
 20
486.857964479
 30
0.0
 11
638.6161894884
 21
479.9579650244
 31
0.0
  0
LINE
  5
FD
330
1F
100
AcDbEntity
  8
0
  6
CONTINUOUS
 62
     7
100
AcDbLine
 10
566.1184938039
 20
497.5917887023
 30
0.0
 11
566.116184124
 21
497.6579647592
 31
0.0
  0
LINE
  5
FE
330
1F
100
AcDbEntity
  8
0
  6
CONTINUOUS
 62
     7
100
AcDbLine
 10
566.116184124
 20
497.7242227724
 30
0.0
 11
567.7129031505
 21
497.7799791923
 31
0.0
  0
LINE
  5
FF
330
1F
100
AcDbEntity
  8
0
  6
CONTINUOUS
 62
     7
100
AcDbLine
 10
567.7175225105
 20
497.6476270786
 30
0.0
 11
566.1184938039
 21
497.5917887023
 31
0.0
  0
LWPOLYLINE
  5
100
330
1F
100
AcDbEntity
  8
0
  6
CONTINUOUS
 62
     7
100
AcDbPolyline
 90
        9
 70
   128
 43
0.0
 10
567.7129031505
 20
497.7799791923
 10
567.7134842958
 20
497.7634389034
 10
567.7140654411
 20
497.7468948892
 10
567.7146316852
 20
497.730350875
 10
567.7152128305
 20
497.7138031355
 10
567.7157939758
 20
497.6972591212
 10
567.7163751211
 20
497.680715107
 10
567.7169413652
 20
497.6641710928
 10
567.7175225105
 20
497.6476270786
  0
LINE
  5
101
330
1F
100
AcDbEntity
  8
0
  6
CONTINUOUS
 62
     7
100
AcDbLine
 10
567.6302017059
 20
500.1480493775
 30
0.0
 11
566.116184124
 21
500.0951763323
 31
0.0
  0
LINE
  5
102
330
1F
100
AcDbEntity
  8
0
  6
CONTINUOUS
 62
     7
100
AcDbLine
 10
567.7129031505
 20
497.7799791923
 30
0.0
 11
567.6302017059
 21
500.1480493775
 31
0.0
  0
LINE
  5
103
330
1F
100
AcDbEntity
  8
0
  6
CONTINUOUS
 62
     7
100
AcDbLine
 10
566.2011952486
 20
495.2237222424
 30
0.0
 11
567.8002239551
 21
495.2795606187
 31
0.0
  0
LINE
  5
104
330
1F
100
AcDbEntity
  8
0
  6
CONTINUOUS
 62
     7
100
AcDbLine
 10
566.2011952486
 20
495.2237222424
 30
0.0
 11
566.1184938039
 21
497.5917887023
 31
0.0
  0
LINE
  5
105
330
1F
100
AcDbEntity
  8
0
  6
CONTINUOUS
 62
     7
100
AcDbLine
 10
567.8002239551
 20
495.2795606187
 30
0.0
 11
567.7175225105
 21
497.6476270786
 31
0.0
  0
LINE
  5
106
330
1F
100
AcDbEntity
  8
0
  6
CONTINUOUS
 62
     7
100
AcDbLine
 10
567.8025336351
 20
495.2133845618
 30
0.0
 11
566.2035049286
 21
495.1575461856
 31
0.0
  0
LWPOLYLINE
  5
107
330
1F
100
AcDbEntity
  8
0
  6
CONTINUOUS
 62
     7
100
AcDbPolyline
 90
        9
 70
   128
 43
0.0
 10
566.2011952486
 20
495.2237222424
 10
566.2014932718
 20
495.2151578
 10
566.201791295
 20
495.206675314
 10
566.2020893182
 20
495.1982785097
 10
566.2023724403
 20
495.1899636617
 10
566.2026555624
 20
495.1817344955
 10
566.2029386844
 20
495.1735872856
 10
566.2032218065
 20
495.1655257574
 10
566.2035049286
 20
495.1575461856
  0
LWPOLYLINE
  5
108
330
1F
100
AcDbEntity
  8
0
  6
CONTINUOUS
 62
     7
100
AcDbPolyline
 90
        9
 70
   128
 43
0.0
 10
567.8002239551
 20
495.2795606187
 10
567.8005219783
 20
495.2709961763
 10
567.8008200016
 20
495.2625174156
 10
567.8011031236
 20
495.254116886
 10
567.8014011469
 20
495.2458057633
 10
567.8016842689
 20
495.2375728717
 10
567.801967391
 20
495.2294256619
 10
567.802250513
 20
495.2213641337
 10
567.8025336351
 20
495.2133845618
  0
LINE
  5
109
330
1F
100
AcDbEntity
  8
0
  6
CONTINUOUS
 62
     7
100
AcDbLine
 10
566.116184124
 20
500.1614343455
 30
0.0
 11
567.6278920259
 21
500.2142217091
 31
0.0
  0
LWPOLYLINE
  5
10A
330
1F
100
AcDbEntity
  8
0
  6
CONTINUOUS
 62
     7
100
AcDbPolyline
 90
        9
 70
   128
 43
0.0
 10
567.6302017059
 20
500.1480493775
 10
567.6299036827
 20
500.1566100946
 10
567.6296205606
 20
500.1650925806
 10
567.6293225374
 20
500.173489385
 10
567.6290245142
 20
500.1818042329
 10
567.6287413921
 20
500.1900333992
 10
567.62845827
 20
500.1981806091
 10
567.628175148
 20
500.2062458625
 10
567.6278920259
 20
500.2142217091
  0
LINE
  5
10B
330
1F
100
AcDbEntity
  8
0
  6
CONTINUOUS
 62
     7
100
AcDbLine
 10
654.9543888654
 20
467.3679646185
 30
0.0
 11
566.116184124
 21
467.3679646185
 31
0.0
  0
LINE
  5
10C
330
1F
100
AcDbEntity
  8
0
  6
CONTINUOUS
 62
     7
100
AcDbLine
 10
491.1161885943
 20
467.3679646185
 30
0.0
 11
122.2779901113
 21
467.3679646185
 31
0.0
  0
LINE
  5
10D
330
1F
100
AcDbEntity
  8
0
  6
CONTINUOUS
 62
     7
100
AcDbLine
 10
664.6161825742
 20
470.0679656199
 30
0.0
 11
566.116184124
 21
470.0679656199
 31
0.0
  0
LINE
  5
10E
330
1F
100
AcDbEntity
  8
0
  6
CONTINUOUS
 62
     7
100
AcDbLine
 10
491.1161885943
 20
470.0679656199
 30
0.0
 11
112.6161964025
 21
470.0679656199
 31
0.0
  0
ARC
  5
10F
330
1F
100
AcDbEntity
  8
0
  6
CONTINUOUS
 62
     7
100
AcDbCircle
 10
664.6161894884
 20
451.0079648426
 30
0.0
 40
19.06
100
AcDbArc
 50
270.0
 51
90.0
  0
ARC
  5
110
330
1F
100
AcDbEntity
  8
0
  6
CONTINUOUS
 62
     7
100
AcDbCircle
 10
112.6161894884
 20
451.0079648426
 30
0.0
 40
19.06
100
AcDbArc
 50
90.0
 51
270.0
  0
LINE
  5
111
330
1F
100
AcDbEntity
  8
0
  6
CONTINUOUS
 62
     7
100
AcDbLine
 10
112.6161964025
 20
431.9479640654
 30
0.0
 11
664.6161825742
 21
431.9479640654
 31
0.0
  0
LINE
  5
112
330
1F
100
AcDbEntity
  8
0
  6
CONTINUOUS
 62
     7
100
AcDbLine
 10
122.2779901113
 20
434.6479650667
 30
0.0
 11
654.9543888654
 21
434.6479650667
 31
0.0
  0
LINE
  5
113
330
1F
100
AcDbEntity
  8
0
  6
CONTINUOUS
 62
     7
100
AcDbLine
 10
628.616184124
 20
491.5579658082
 30
0.0
 11
632.5496436443
 21
491.5579658082
 31
0.0
  0
LINE
  5
114
330
1F
100
AcDbEntity
  8
0
  6
CONTINUOUS
 62
     7
100
AcDbLine
 10
624.6827395048
 20
491.5579658082
 30
0.0
 11
628.616184124
 21
491.5579658082
 31
0.0
  0
LINE
  5
115
330
1F
100
AcDbEntity
  8
0
  6
CONTINUOUS
 62
     7
100
AcDbLine
 10
628.616184124
 20
492.0579630962
 30
0.0
 11
638.6161894884
 21
492.0579630962
 31
0.0
  0
LINE
  5
116
330
1F
100
AcDbEntity
  8
0
  6
CONTINUOUS
 62
     7
100
AcDbLine
 10
618.6161936607
 20
492.0579630962
 30
0.0
 11
628.616184124
 21
492.0579630962
 31
0.0
  0
LINE
  5
117
330
1F
100
AcDbEntity
  8
0
  6
CONTINUOUS
 62
     7
100
AcDbLine
 10
638.6161894884
 20
501.0579664341
 30
0.0
 11
618.6161936607
 21
501.0579664341
 31
0.0
  0
LINE
  5
118
330
1F
100
AcDbEntity
  8
0
  6
CONTINUOUS
 62
     7
100
AcDbLine
 10
638.1161959257
 20
501.5579637221
 30
0.0
 11
619.1161872234
 21
501.5579637221
 31
0.0
  0
LINE
  5
119
330
1F
100
AcDbEntity
  8
0
  6
CONTINUOUS
 62
     7
100
AcDbLine
 10
148.6161948528
 20
491.5579658082
 30
0.0
 11
152.549639472
 21
491.5579658082
 31
0.0
  0
LINE
  5
11A
330
1F
100
AcDbEntity
  8
0
  6
CONTINUOUS
 62
     7
100
AcDbLine
 10
144.6827353325
 20
491.5579658082
 30
0.0
 11
148.6161948528
 21
491.5579658082
 31
0.0
  0
LINE
  5
11B
330
1F
100
AcDbEntity
  8
0
  6
CONTINUOUS
 62
     7
100
AcDbLine
 10
148.6161948528
 20
492.0579630962
 30
0.0
 11
158.6161853161
 21
492.0579630962
 31
0.0
  0
LINE
  5
11C
330
1F
100
AcDbEntity
  8
0
  6
CONTINUOUS
 62
     7
100
AcDbLine
 10
138.6161894884
 20
492.0579630962
 30
0.0
 11
148.6161948528
 21
492.0579630962
 31
0.0
  0
LINE
  5
11D
330
1F
100
AcDbEntity
  8
0
  6
CONTINUOUS
 62
     7
100
AcDbLine
 10
158.6161853161
 20
501.0579664341
 30
0.0
 11
138.6161894884
 21
501.0579664341
 31
0.0
  0
LINE
  5
11E
330
1F
100
AcDbEntity
  8
0
  6
CONTINUOUS
 62
     7
100
AcDbLine
 10
158.1161917534
 20
501.5579637221
 30
0.0
 11
139.1161830511
 21
501.5579637221
 31
0.0
  0
LINE
  5
11F
330
1F
100
AcDbEntity
  8
0
  6
CONTINUOUS
 62
     7
100
AcDbLine
 10
594.6161897268
 20
455.0079650326
 30
0.0
 11
182.61618925
 21
455.0079650326
 31
0.0
  0
LINE
  5
120
330
1F
100
AcDbEntity
  8
0
  6
CONTINUOUS
 62
     7
100
AcDbLine
 10
594.6161897268
 20
447.0079646526
 30
0.0
 11
182.61618925
 21
447.0079646526
 31
0.0
  0
LINE
  5
121
330
1F
100
AcDbEntity
  8
0
  6
CONTINUOUS
 62
     7
100
AcDbLine
 10
597.6161958065
 20
471.0079643956
 30
0.0
 11
566.116184124
 21
471.0079643956
 31
0.0
  0
LINE
  5
122
330
1F
100
AcDbEntity
  8
0
  6
CONTINUOUS
 62
     7
100
AcDbLine
 10
491.1161885943
 20
471.0079643956
 30
0.0
 11
179.6161831703
 21
471.0079643956
 31
0.0
  0
LINE
  5
123
330
1F
100
AcDbEntity
  8
0
  6
CONTINUOUS
 62
     7
100
AcDbLine
 10
597.6161958065
 20
431.0079652897
 30
0.0
 11
179.6161831703
 21
431.0079652897
 31
0.0
  0
LINE
  5
124
330
1F
100
AcDbEntity
  8
0
  6
CONTINUOUS
 62
     7
100
AcDbLine
 10
500.4189686265
 20
467.0079656026
 30
0.0
 11
496.8134166088
 21
467.0079656026
 31
0.0
  0
LINE
  5
125
330
1F
100
AcDbEntity
  8
0
  6
CONTINUOUS
 62
     7
100
AcDbLine
 10
501.7161892142
 20
463.0079649469
 30
0.0
 11
495.5161885705
 21
463.0079649469
 31
0.0
  0
LINE
  5
126
330
1F
100
AcDbEntity
  8
0
  6
CONTINUOUS
 62
     7
100
AcDbLine
 10
561.7161841478
 20
463.0079649469
 30
0.0
 11
555.5161835041
 21
463.0079649469
 31
0.0
  0
LINE
  5
127
330
1F
100
AcDbEntity
  8
0
  6
CONTINUOUS
 62
     7
100
AcDbLine
 10
560.4189635601
 20
467.0079656026
 30
0.0
 11
556.813418993
 21
467.0079656026
 31
0.0
  0
LINE
  5
128
330
1F
100
AcDbEntity
  8
0
  6
CONTINUOUS
 62
     7
100
AcDbLine
 10
531.7161829557
 20
463.0079649469
 30
0.0
 11
525.516182312
 21
463.0079649469
 31
0.0
  0
LINE
  5
129
330
1F
100
AcDbEntity
  8
0
  6
CONTINUOUS
 62
     7
100
AcDbLine
 10
530.418962368
 20
467.0079656026
 30
0.0
 11
526.8134178009
 21
467.0079656026
 31
0.0
  0
LINE
  5
12A
330
1F
100
AcDbEntity
  8
0
  6
CONTINUOUS
 62
     7
100
AcDbLine
 10
558.6161912765
 20
511.0079635015
 30
0.0
 11
561.7161841478
 21
511.0079635015
 31
0.0
  0
LINE
  5
12B
330
1F
100
AcDbEntity
  8
0
  6
CONTINUOUS
 62
     7
100
AcDbLine
 10
555.5161835041
 20
511.0079635015
 30
0.0
 11
558.6161912765
 21
511.0079635015
 31
0.0
  0
LINE
  5
12C
330
1F
100
AcDbEntity
  8
0
  6
CONTINUOUS
 62
     7
100
AcDbLine
 10
558.6161912765
 20
507.0079665712
 30
0.0
 11
560.4189635601
 21
507.0079665712
 31
0.0
  0
LINE
  5
12D
330
1F
100
AcDbEntity
  8
0
  6
CONTINUOUS
 62
     7
100
AcDbLine
 10
556.813418993
 20
507.0079665712
 30
0.0
 11
558.6161912765
 21
507.0079665712
 31
0.0
  0
LINE
  5
12E
330
1F
100
AcDbEntity
  8
0
  6
CONTINUOUS
 62
     7
100
AcDbLine
 10
528.6161900844
 20
511.0079635015
 30
0.0
 11
531.7161829557
 21
511.0079635015
 31
0.0
  0
LINE
  5
12F
330
1F
100
AcDbEntity
  8
0
  6
CONTINUOUS
 62
     7
100
AcDbLine
 10
525.516182312
 20
511.0079635015
 30
0.0
 11
528.6161900844
 21
511.0079635015
 31
0.0
  0
LINE
  5
130
330
1F
100
AcDbEntity
  8
0
  6
CONTINUOUS
 62
     7
100
AcDbLine
 10
528.6161900844
 20
507.0079665712
 30
0.0
 11
530.418962368
 21
507.0079665712
 31
0.0
  0
LINE
  5
131
330
1F
100
AcDbEntity
  8
0
  6
CONTINUOUS
 62
     7
100
AcDbLine
 10
526.8134178009
 20
507.0079665712
 30
0.0
 11
528.6161900844
 21
507.0079665712
 31
0.0
  0
LINE
  5
132
330
1F
100
AcDbEntity
  8
0
  6
CONTINUOUS
 62
     7
100
AcDbLine
 10
498.6161888923
 20
511.0079635015
 30
0.0
 11
501.7161892142
 21
511.0079635015
 31
0.0
  0
LINE
  5
133
330
1F
100
AcDbEntity
  8
0
  6
CONTINUOUS
 62
     7
100
AcDbLine
 10
495.5161885705
 20
511.0079635015
 30
0.0
 11
498.6161888923
 21
511.0079635015
 31
0.0
  0
LINE
  5
134
330
1F
100
AcDbEntity
  8
0
  6
CONTINUOUS
 62
     7
100
AcDbLine
 10
498.6161888923
 20
507.0079665712
 30
0.0
 11
500.4189686265
 21
507.0079665712
 31
0.0
  0
LINE
  5
135
330
1F
100
AcDbEntity
  8
0
  6
CONTINUOUS
 62
     7
100
AcDbLine
 10
496.8134166088
 20
507.0079665712
 30
0.0
 11
498.6161888923
 21
507.0079665712
 31
0.0
  0
LINE
  5
136
330
1F
100
AcDbEntity
  8
0
  6
CONTINUOUS
 62
     7
100
AcDbLine
 10
562.6161844816
 20
507.0079665712
 30
0.0
 11
562.6161844816
 21
511.0079635015
 31
0.0
  0
LINE
  5
137
330
1F
100
AcDbEntity
  8
0
  6
CONTINUOUS
 62
     7
100
AcDbLine
 10
567.3661829319
 20
511.0079635015
 30
0.0
 11
567.3661829319
 21
501.0079655877
 31
0.0
  0
LINE
  5
138
330
1F
100
AcDbEntity
  8
0
  6
CONTINUOUS
 62
     7
100
AcDbLine
 10
489.8661897864
 20
501.0079655877
 30
0.0
 11
567.3661829319
 21
501.0079655877
 31
0.0
  0
LINE
  5
139
330
1F
100
AcDbEntity
  8
0
  6
CONTINUOUS
 62
     7
100
AcDbLine
 10
489.8661897864
 20
511.0079635015
 30
0.0
 11
489.8661897864
 21
501.0079655877
 31
0.0
  0
LINE
  5
13A
330
1F
100
AcDbEntity
  8
0
  6
CONTINUOUS
 62
     7
100
AcDbLine
 10
524.6161968794
 20
507.0079665712
 30
0.0
 11
524.6161968794
 21
511.0079635015
 31
0.0
  0
LINE
  5
13B
330
1F
100
AcDbEntity
  8
0
  6
CONTINUOUS
 62
     7
100
AcDbLine
 10
532.6161832895
 20
507.0079665712
 30
0.0
 11
530.418962368
 21
507.0079665712
 31
0.0
  0
LINE
  5
13C
330
1F
100
AcDbEntity
  8
0
  6
CONTINUOUS
 62
     7
100
AcDbLine
 10
526.8134178009
 20
507.0079665712
 30
0.0
 11
524.6161968794
 21
507.0079665712
 31
0.0
  0
LINE
  5
13D
330
1F
100
AcDbEntity
  8
0
  6
CONTINUOUS
 62
     7
100
AcDbLine
 10
532.6161832895
 20
507.0079665712
 30
0.0
 11
532.6161832895
 21
511.0079635015
 31
0.0
  0
LINE
  5
13E
330
1F
100
AcDbEntity
  8
0
  6
CONTINUOUS
 62
     7
100
AcDbLine
 10
554.6161831703
 20
507.0079665712
 30
0.0
 11
554.6161831703
 21
511.0079635015
 31
0.0
  0
LINE
  5
13F
330
1F
100
AcDbEntity
  8
0
  6
CONTINUOUS
 62
     7
100
AcDbLine
 10
562.6161844816
 20
507.0079665712
 30
0.0
 11
560.4189635601
 21
507.0079665712
 31
0.0
  0
LINE
  5
140
330
1F
100
AcDbEntity
  8
0
  6
CONTINUOUS
 62
     7
100
AcDbLine
 10
556.813418993
 20
507.0079665712
 30
0.0
 11
554.6161831703
 21
507.0079665712
 31
0.0
  0
LINE
  5
141
330
1F
100
AcDbEntity
  8
0
  6
CONTINUOUS
 62
     7
100
AcDbLine
 10
502.616189548
 20
507.0079665712
 30
0.0
 11
500.4189686265
 21
507.0079665712
 31
0.0
  0
LINE
  5
142
330
1F
100
AcDbEntity
  8
0
  6
CONTINUOUS
 62
     7
100
AcDbLine
 10
496.8134166088
 20
507.0079665712
 30
0.0
 11
494.6161882367
 21
507.0079665712
 31
0.0
  0
LINE
  5
143
330
1F
100
AcDbEntity
  8
0
  6
CONTINUOUS
 62
     7
100
AcDbLine
 10
494.6161882367
 20
507.0079665712
 30
0.0
 11
494.6161882367
 21
511.0079635015
 31
0.0
  0
LINE
  5
144
330
1F
100
AcDbEntity
  8
0
  6
CONTINUOUS
 62
     7
100
AcDbLine
 10
502.616189548
 20
507.0079665712
 30
0.0
 11
502.616189548
 21
511.0079635015
 31
0.0
  0
LINE
  5
145
330
1F
100
AcDbEntity
  8
0
  6
CONTINUOUS
 62
     7
100
AcDbLine
 10
562.6161844816
 20
511.0079635015
 30
0.0
 11
567.3661829319
 21
511.0079635015
 31
0.0
  0
LINE
  5
146
330
1F
100
AcDbEntity
  8
0
  6
CONTINUOUS
 62
     7
100
AcDbLine
 10
532.6161832895
 20
511.0079635015
 30
0.0
 11
554.6161831703
 21
511.0079635015
 31
0.0
  0
LINE
  5
147
330
1F
100
AcDbEntity
  8
0
  6
CONTINUOUS
 62
     7
100
AcDbLine
 10
502.616189548
 20
511.0079635015
 30
0.0
 11
524.6161968794
 21
511.0079635015
 31
0.0
  0
LINE
  5
148
330
1F
100
AcDbEntity
  8
0
  6
CONTINUOUS
 62
     7
100
AcDbLine
 10
489.8661897864
 20
511.0079635015
 30
0.0
 11
494.6161882367
 21
511.0079635015
 31
0.0
  0
LINE
  5
149
330
1F
100
AcDbEntity
  8
0
  6
CONTINUOUS
 62
     7
100
AcDbLine
 10
502.616189548
 20
511.0079635015
 30
0.0
 11
501.7161892142
 21
511.0079635015
 31
0.0
  0
LINE
  5
14A
330
1F
100
AcDbEntity
  8
0
  6
CONTINUOUS
 62
     7
100
AcDbLine
 10
495.5161885705
 20
511.0079635015
 30
0.0
 11
494.6161882367
 21
511.0079635015
 31
0.0
  0
LINE
  5
14B
330
1F
100
AcDbEntity
  8
0
  6
CONTINUOUS
 62
     7
100
AcDbLine
 10
532.6161832895
 20
511.0079635015
 30
0.0
 11
531.7161829557
 21
511.0079635015
 31
0.0
  0
LINE
  5
14C
330
1F
100
AcDbEntity
  8
0
  6
CONTINUOUS
 62
     7
100
AcDbLine
 10
525.516182312
 20
511.0079635015
 30
0.0
 11
524.6161968794
 21
511.0079635015
 31
0.0
  0
LINE
  5
14D
330
1F
100
AcDbEntity
  8
0
  6
CONTINUOUS
 62
     7
100
AcDbLine
 10
562.6161844816
 20
511.0079635015
 30
0.0
 11
561.7161841478
 21
511.0079635015
 31
0.0
  0
LINE
  5
14E
330
1F
100
AcDbEntity
  8
0
  6
CONTINUOUS
 62
     7
100
AcDbLine
 10
555.5161835041
 20
511.0079635015
 30
0.0
 11
554.6161831703
 21
511.0079635015
 31
0.0
  0
LINE
  5
14F
330
1F
100
AcDbEntity
  8
0
  6
CONTINUOUS
 62
     7
100
AcDbLine
 10
491.1161885943
 20
471.0079643956
 30
0.0
 11
491.1161885943
 21
501.0079655877
 31
0.0
  0
LINE
  5
150
330
1F
100
AcDbEntity
  8
0
  6
CONTINUOUS
 62
     7
100
AcDbLine
 10
491.1161885943
 20
501.0079655877
 30
0.0
 11
566.116184124
 21
501.0079655877
 31
0.0
  0
LINE
  5
151
330
1F
100
AcDbEntity
  8
0
  6
CONTINUOUS
 62
     7
100
AcDbLine
 10
566.116184124
 20
471.0079643956
 30
0.0
 11
566.116184124
 21
501.0079655877
 31
0.0
  0
LINE
  5
152
330
1F
100
AcDbEntity
  8
0
  6
CONTINUOUS
 62
     7
100
AcDbLine
 10
491.1161885943
 20
471.0079643956
 30
0.0
 11
566.116184124
 21
471.0079643956
 31
0.0
  0
LINE
  5
153
330
1F
100
AcDbEntity
  8
0
  6
CONTINUOUS
 62
     7
100
AcDbLine
 10
533.1161917534
 20
467.0079656026
 30
0.0
 11
533.1161917534
 21
463.0079649469
 31
0.0
  0
LINE
  5
154
330
1F
100
AcDbEntity
  8
0
  6
CONTINUOUS
 62
     7
100
AcDbLine
 10
533.1161917534
 20
467.0079656026
 30
0.0
 11
530.418962368
 21
467.0079656026
 31
0.0
  0
LINE
  5
155
330
1F
100
AcDbEntity
  8
0
  6
CONTINUOUS
 62
     7
100
AcDbLine
 10
526.8134178009
 20
467.0079656026
 30
0.0
 11
524.1161884155
 21
467.0079656026
 31
0.0
  0
LINE
  5
156
330
1F
100
AcDbEntity
  8
0
  6
CONTINUOUS
 62
     7
100
AcDbLine
 10
524.1161884155
 20
467.0079656026
 30
0.0
 11
524.1161884155
 21
463.0079649469
 31
0.0
  0
LINE
  5
157
330
1F
100
AcDbEntity
  8
0
  6
CONTINUOUS
 62
     7
100
AcDbLine
 10
503.1161905613
 20
467.0079656026
 30
0.0
 11
503.1161905613
 21
463.0079649469
 31
0.0
  0
LINE
  5
158
330
1F
100
AcDbEntity
  8
0
  6
CONTINUOUS
 62
     7
100
AcDbLine
 10
503.1161905613
 20
467.0079656026
 30
0.0
 11
500.4189686265
 21
467.0079656026
 31
0.0
  0
LINE
  5
159
330
1F
100
AcDbEntity
  8
0
  6
CONTINUOUS
 62
     7
100
AcDbLine
 10
496.8134166088
 20
467.0079656026
 30
0.0
 11
494.1161872234
 21
467.0079656026
 31
0.0
  0
LINE
  5
15A
330
1F
100
AcDbEntity
  8
0
  6
CONTINUOUS
 62
     7
100
AcDbLine
 10
494.1161872234
 20
467.0079656026
 30
0.0
 11
494.1161872234
 21
463.0079649469
 31
0.0
  0
LINE
  5
15B
330
1F
100
AcDbEntity
  8
0
  6
CONTINUOUS
 62
     7
100
AcDbLine
 10
491.1161885943
 20
471.0079643956
 30
0.0
 11
491.1161885943
 21
463.0079649469
 31
0.0
  0
LINE
  5
15C
330
1F
100
AcDbEntity
  8
0
  6
CONTINUOUS
 62
     7
100
AcDbLine
 10
566.116184124
 20
471.0079643956
 30
0.0
 11
566.116184124
 21
463.0079649469
 31
0.0
  0
LINE
  5
15D
330
1F
100
AcDbEntity
  8
0
  6
CONTINUOUS
 62
     7
100
AcDbLine
 10
563.1161929455
 20
467.0079656026
 30
0.0
 11
563.1161929455
 21
463.0079649469
 31
0.0
  0
LINE
  5
15E
330
1F
100
AcDbEntity
  8
0
  6
CONTINUOUS
 62
     7
100
AcDbLine
 10
554.1161896076
 20
467.0079656026
 30
0.0
 11
554.1161896076
 21
463.0079649469
 31
0.0
  0
LINE
  5
15F
330
1F
100
AcDbEntity
  8
0
  6
CONTINUOUS
 62
     7
100
AcDbLine
 10
494.1161872234
 20
463.0079649469
 30
0.0
 11
491.1161885943
 21
463.0079649469
 31
0.0
  0
LINE
  5
160
330
1F
100
AcDbEntity
  8
0
  6
CONTINUOUS
 62
     7
100
AcDbLine
 10
524.1161884155
 20
463.0079649469
 30
0.0
 11
503.1161905613
 21
463.0079649469
 31
0.0
  0
LINE
  5
161
330
1F
100
AcDbEntity
  8
0
  6
CONTINUOUS
 62
     7
100
AcDbLine
 10
554.1161896076
 20
463.0079649469
 30
0.0
 11
533.1161917534
 21
463.0079649469
 31
0.0
  0
LINE
  5
162
330
1F
100
AcDbEntity
  8
0
  6
CONTINUOUS
 62
     7
100
AcDbLine
 10
566.116184124
 20
463.0079649469
 30
0.0
 11
563.1161929455
 21
463.0079649469
 31
0.0
  0
LINE
  5
163
330
1F
100
AcDbEntity
  8
0
  6
CONTINUOUS
 62
     7
100
AcDbLine
 10
563.1161929455
 20
467.0079656026
 30
0.0
 11
560.4189635601
 21
467.0079656026
 31
0.0
  0
LINE
  5
164
330
1F
100
AcDbEntity
  8
0
  6
CONTINUOUS
 62
     7
100
AcDbLine
 10
556.813418993
 20
467.0079656026
 30
0.0
 11
554.1161896076
 21
467.0079656026
 31
0.0
  0
LINE
  5
165
330
1F
100
AcDbEntity
  8
0
  6
CONTINUOUS
 62
     7
100
AcDbLine
 10
494.1161872234
 20
463.0079649469
 30
0.0
 11
495.5161885705
 21
463.0079649469
 31
0.0
  0
LINE
  5
166
330
1F
100
AcDbEntity
  8
0
  6
CONTINUOUS
 62
     7
100
AcDbLine
 10
501.7161892142
 20
463.0079649469
 30
0.0
 11
503.1161905613
 21
463.0079649469
 31
0.0
  0
LINE
  5
167
330
1F
100
AcDbEntity
  8
0
  6
CONTINUOUS
 62
     7
100
AcDbLine
 10
554.1161896076
 20
463.0079649469
 30
0.0
 11
555.5161835041
 21
463.0079649469
 31
0.0
  0
LINE
  5
168
330
1F
100
AcDbEntity
  8
0
  6
CONTINUOUS
 62
     7
100
AcDbLine
 10
561.7161841478
 20
463.0079649469
 30
0.0
 11
563.1161929455
 21
463.0079649469
 31
0.0
  0
LINE
  5
169
330
1F
100
AcDbEntity
  8
0
  6
CONTINUOUS
 62
     7
100
AcDbLine
 10
524.1161884155
 20
463.0079649469
 30
0.0
 11
525.516182312
 21
463.0079649469
 31
0.0
  0
LINE
  5
16A
330
1F
100
AcDbEntity
  8
0
  6
CONTINUOUS
 62
     7
100
AcDbLine
 10
531.7161829557
 20
463.0079649469
 30
0.0
 11
533.1161917534
 21
463.0079649469
 31
0.0
  0
LWPOLYLINE
  5
16B
330
1F
100
AcDbEntity
  8
0
  6
CONTINUOUS
 62
     7
100
AcDbPolyline
 90
        3
 70
   128
 43
0.0
 10
104.1161866274
 20
433.2855332723
 10
105.1422507848
 20
433.466455721
 10
105.1523537721
 20
433.4701549342
  0
ARC
  5
16C
330
1F
100
AcDbEntity
  8
0
  6
CONTINUOUS
 62
     7
100
AcDbCircle
 10
104.1161894884
 20
436.2855329783
 30
0.0
 40
3.0
100
AcDbArc
 50
189.7944513466
 51
270.0
  0
ARC
  5
16D
330
1F
100
AcDbEntity
  8
0
  6
CONTINUOUS
 62
     7
100
AcDbCircle
 10
104.1161894884
 20
465.730396707
 30
0.0
 40
3.000000000000024
100
AcDbArc
 50
69.7944513464
 51
170.2055486534
  0
ARC
  5
16E
330
1F
100
AcDbEntity
  8
0
  6
CONTINUOUS
 62
     7
100
AcDbCircle
 10
121.1161894884
 20
436.2855329783
 30
0.0
 40
3.000000000000034
100
AcDbArc
 50
326.9168178042
 51
351.8554868995
  0
ARC
  5
16F
330
1F
100
AcDbEntity
  8
0
  6
CONTINUOUS
 62
     7
100
AcDbCircle
 10
121.1161894884
 20
465.730396707
 30
0.0
 40
2.99999999999999
100
AcDbArc
 50
8.1445130993
 51
33.0831821958
  0
CIRCLE
  5
170
330
1F
100
AcDbEntity
  8
0
  6
CONTINUOUS
 62
     7
100
AcDbCircle
 10
112.6161894884
 20
451.0079648426
 30
0.0
 40
5.500000000000014
  0
CIRCLE
  5
171
330
1F
100
AcDbEntity
  8
0
  6
CONTINUOUS
 62
     7
100
AcDbCircle
 10
112.6161894884
 20
451.0079648426
 30
0.0
 40
6.000000000000014
  0
CIRCLE
  5
172
330
1F
100
AcDbEntity
  8
0
  6
CONTINUOUS
 62
     7
100
AcDbCircle
 10
664.6161894884
 20
451.0079648426
 30
0.0
 40
19.0
  0
CIRCLE
  5
173
330
1F
100
AcDbEntity
  8
0
  6
CONTINUOUS
 62
     7
100
AcDbCircle
 10
664.6161894884
 20
451.0079648426
 30
0.0
 40
18.86602540378453
  0
CIRCLE
  5
174
330
1F
100
AcDbEntity
  8
0
  6
CONTINUOUS
 62
     7
100
AcDbCircle
 10
664.6161894884
 20
451.0079648426
 30
0.0
 40
17.12500000000011
  0
LINE
  5
175
330
1F
100
AcDbEntity
  8
0
  6
CONTINUOUS
 62
     7
100
AcDbLine
 10
662.1161849584
 20
458.0786789848
 30
0.0
 11
662.1161849584
 21
459.2079648829
 31
0.0
  0
LINE
  5
176
330
1F
100
AcDbEntity
  8
0
  6
CONTINUOUS
 62
     7
100
AcDbLine
 10
667.1161801901
 20
459.2079648829
 30
0.0
 11
667.1161801901
 21
458.0254431894
 31
0.0
  0
LINE
  5
177
330
1F
100
AcDbEntity
  8
0
  6
CONTINUOUS
 62
     7
100
AcDbLine
 10
662.1161849584
 20
459.2079648829
 30
0.0
 11
667.1161801901
 21
459.2079648829
 31
0.0
  0
CIRCLE
  5
178
330
1F
100
AcDbEntity
  8
0
  6
CONTINUOUS
 62
     7
100
AcDbCircle
 10
112.6161894884
 20
451.0079648426
 30
0.0
 40
18.86602540378442
  0
CIRCLE
  5
179
330
1F
100
AcDbEntity
  8
0
  6
CONTINUOUS
 62
     7
100
AcDbCircle
 10
112.6161894884
 20
451.0079648426
 30
0.0
 40
17.125
  0
CIRCLE
  5
17A
330
1F
100
AcDbEntity
  8
0
  6
CONTINUOUS
 62
     7
100
AcDbCircle
 10
112.6161894884
 20
451.0079648426
 30
0.0
 40
19.00000000000003
  0
LINE
  5
17B
330
1F
100
AcDbEntity
  8
0
  6
CONTINUOUS
 62
     7
100
AcDbLine
 10
110.1161987867
 20
458.1275105557
 30
0.0
 11
110.1161987867
 21
459.2079648829
 31
0.0
  0
LINE
  5
17C
330
1F
100
AcDbEntity
  8
0
  6
CONTINUOUS
 62
     7
100
AcDbLine
 10
115.1161940183
 20
459.2079648829
 30
0.0
 11
115.1161940183
 21
458.1275105557
 31
0.0
  0
LINE
  5
17D
330
1F
100
AcDbEntity
  8
0
  6
CONTINUOUS
 62
     7
100
AcDbLine
 10
110.1161987867
 20
459.2079648829
 30
0.0
 11
115.1161940183
 21
459.2079648829
 31
0.0
  0
LINE
  5
17E
330
1F
100
AcDbEntity
  8
0
  6
CONTINUOUS
 62
     7
100
AcDbLine
 10
664.6161825742
 20
458.757964716
 30
0.0
 11
662.1161849584
 21
458.757964716
 31
0.0
  0
LINE
  5
17F
330
1F
100
AcDbEntity
  8
0
  6
CONTINUOUS
 62
     7
100
AcDbLine
 10
662.1161849584
 20
458.757964716
 30
0.0
 11
662.3661966409
 21
459.0079652226
 31
0.0
  0
LINE
  5
180
330
1F
100
AcDbEntity
  8
0
  6
CONTINUOUS
 62
     7
100
AcDbLine
 10
662.3661966409
 20
459.0079652226
 30
0.0
 11
664.6161825742
 21
459.0079652226
 31
0.0
  0
LINE
  5
181
330
1F
100
AcDbEntity
  8
0
  6
CONTINUOUS
 62
     7
100
AcDbLine
 10
667.1161801901
 20
458.757964716
 30
0.0
 11
664.6161825742
 21
458.757964716
 31
0.0
  0
LINE
  5
182
330
1F
100
AcDbEntity
  8
0
  6
CONTINUOUS
 62
     7
100
AcDbLine
 10
664.6161825742
 20
459.0079652226
 30
0.0
 11
666.8661983099
 21
459.0079652226
 31
0.0
  0
LINE
  5
183
330
1F
100
AcDbEntity
  8
0
  6
CONTINUOUS
 62
     7
100
AcDbLine
 10
667.1161801901
 20
458.757964716
 30
0.0
 11
666.8661983099
 21
459.0079652226
 31
0.0
  0
LINE
  5
184
330
1F
100
AcDbEntity
  8
0
  6
CONTINUOUS
 62
     7
100
AcDbLine
 10
112.6161964025
 20
459.0079652226
 30
0.0
 11
114.8661823358
 21
459.0079652226
 31
0.0
  0
LINE
  5
185
330
1F
100
AcDbEntity
  8
0
  6
CONTINUOUS
 62
     7
100
AcDbLine
 10
114.8661823358
 20
459.0079652226
 30
0.0
 11
115.1161940183
 21
458.757964716
 31
0.0
  0
LINE
  5
186
330
1F
100
AcDbEntity
  8
0
  6
CONTINUOUS
 62
     7
100
AcDbLine
 10
115.1161940183
 20
458.757964716
 30
0.0
 11
112.6161964025
 21
458.757964716
 31
0.0
  0
LINE
  5
187
330
1F
100
AcDbEntity
  8
0
  6
CONTINUOUS
 62
     7
100
AcDbLine
 10
110.3661806669
 20
459.0079652226
 30
0.0
 11
112.6161964025
 21
459.0079652226
 31
0.0
  0
LINE
  5
188
330
1F
100
AcDbEntity
  8
0
  6
CONTINUOUS
 62
     7
100
AcDbLine
 10
112.6161964025
 20
458.757964716
 30
0.0
 11
110.1161987867
 21
458.757964716
 31
0.0
  0
LINE
  5
189
330
1F
100
AcDbEntity
  8
0
  6
CONTINUOUS
 62
     7
100
AcDbLine
 10
110.3661806669
 20
459.0079652226
 30
0.0
 11
110.1161987867
 21
458.757964716
 31
0.0
  0
CIRCLE
  5
18A
330
1F
100
AcDbEntity
  8
0
  6
CONTINUOUS
 62
     7
100
AcDbCircle
 10
147.6161894884
 20
451.0079648426
 30
0.0
 40
8.000000000000016
  0
LINE
  5
18B
330
1F
100
AcDbEntity
  8
0
  6
CONTINUOUS
 62
     7
100
AcDbLine
 10
145.1161952104
 20
449.5645891257
 30
0.0
 11
147.6161928262
 21
448.1212134088
 31
0.0
  0
LINE
  5
18C
330
1F
100
AcDbEntity
  8
0
  6
CONTINUOUS
 62
     7
100
AcDbLine
 10
147.6161928262
 20
448.1212134088
 30
0.0
 11
150.1161904421
 21
449.5645891257
 31
0.0
  0
LINE
  5
18D
330
1F
100
AcDbEntity
  8
0
  6
CONTINUOUS
 62
     7
100
AcDbLine
 10
150.1161904421
 20
449.5645891257
 30
0.0
 11
150.1161904421
 21
452.4513405595
 31
0.0
  0
LINE
  5
18E
330
1F
100
AcDbEntity
  8
0
  6
CONTINUOUS
 62
     7
100
AcDbLine
 10
150.1161904421
 20
452.4513405595
 30
0.0
 11
147.6161928262
 21
453.8947162765
 31
0.0
  0
LINE
  5
18F
330
1F
100
AcDbEntity
  8
0
  6
CONTINUOUS
 62
     7
100
AcDbLine
 10
147.6161928262
 20
453.8947162765
 30
0.0
 11
145.1161952104
 21
452.4513405595
 31
0.0
  0
LINE
  5
190
330
1F
100
AcDbEntity
  8
0
  6
CONTINUOUS
 62
     7
100
AcDbLine
 10
145.1161952104
 20
452.4513405595
 30
0.0
 11
145.1161952104
 21
449.5645891257
 31
0.0
  0
LINE
  5
191
330
1F
100
AcDbEntity
  8
0
  6
CONTINUOUS
 62
     7
100
AcDbLine
 10
170.1161862697
 20
449.5645891257
 30
0.0
 11
172.6161838855
 21
448.1212134088
 31
0.0
  0
LINE
  5
192
330
1F
100
AcDbEntity
  8
0
  6
CONTINUOUS
 62
     7
100
AcDbLine
 10
172.6161838855
 20
448.1212134088
 30
0.0
 11
175.1161964025
 21
449.5645891257
 31
0.0
  0
LINE
  5
193
330
1F
100
AcDbEntity
  8
0
  6
CONTINUOUS
 62
     7
100
AcDbLine
 10
175.1161964025
 20
449.5645891257
 30
0.0
 11
175.1161964025
 21
452.4513405595
 31
0.0
  0
LINE
  5
194
330
1F
100
AcDbEntity
  8
0
  6
CONTINUOUS
 62
     7
100
AcDbLine
 10
175.1161964025
 20
452.4513405595
 30
0.0
 11
172.6161838855
 21
453.8947162765
 31
0.0
  0
LINE
  5
195
330
1F
100
AcDbEntity
  8
0
  6
CONTINUOUS
 62
     7
100
AcDbLine
 10
172.6161838855
 20
453.8947162765
 30
0.0
 11
170.1161862697
 21
452.4513405595
 31
0.0
  0
LINE
  5
196
330
1F
100
AcDbEntity
  8
0
  6
CONTINUOUS
 62
     7
100
AcDbLine
 10
170.1161862697
 20
452.4513405595
 30
0.0
 11
170.1161862697
 21
449.5645891257
 31
0.0
  0
CIRCLE
  5
197
330
1F
100
AcDbEntity
  8
0
  6
CONTINUOUS
 62
     7
100
AcDbCircle
 10
172.6161894884
 20
451.0079648426
 30
0.0
 40
8.00000000000003
  0
LINE
  5
198
330
1F
100
AcDbEntity
  8
0
  6
CONTINUOUS
 62
     7
100
AcDbLine
 10
627.1161885347
 20
452.4513405595
 30
0.0
 11
627.1161885347
 21
449.5645891257
 31
0.0
  0
LINE
  5
199
330
1F
100
AcDbEntity
  8
0
  6
CONTINUOUS
 62
     7
100
AcDbLine
 10
627.1161885347
 20
449.5645891257
 30
0.0
 11
629.6161861505
 21
448.1212134088
 31
0.0
  0
LINE
  5
19A
330
1F
100
AcDbEntity
  8
0
  6
CONTINUOUS
 62
     7
100
AcDbLine
 10
629.6161861505
 20
448.1212134088
 30
0.0
 11
632.1161837663
 21
449.5645891257
 31
0.0
  0
LINE
  5
19B
330
1F
100
AcDbEntity
  8
0
  6
CONTINUOUS
 62
     7
100
AcDbLine
 10
632.1161837663
 20
449.5645891257
 30
0.0
 11
632.1161837663
 21
452.4513405595
 31
0.0
  0
LINE
  5
19C
330
1F
100
AcDbEntity
  8
0
  6
CONTINUOUS
 62
     7
100
AcDbLine
 10
632.1161837663
 20
452.4513405595
 30
0.0
 11
629.6161861505
 21
453.8947162765
 31
0.0
  0
LINE
  5
19D
330
1F
100
AcDbEntity
  8
0
  6
CONTINUOUS
 62
     7
100
AcDbLine
 10
629.6161861505
 20
453.8947162765
 30
0.0
 11
627.1161885347
 21
452.4513405595
 31
0.0
  0
CIRCLE
  5
19E
330
1F
100
AcDbEntity
  8
0
  6
CONTINUOUS
 62
     7
100
AcDbCircle
 10
629.6161894884
 20
451.0079648426
 30
0.0
 40
8.000000000000073
  0
CIRCLE
  5
19F
330
1F
100
AcDbEntity
  8
0
  6
CONTINUOUS
 62
     7
100
AcDbCircle
 10
604.6161894884
 20
451.0079648426
 30
0.0
 40
8.000000000000016
  0
LINE
  5
1A0
330
1F
100
AcDbEntity
  8
0
  6
CONTINUOUS
 62
     7
100
AcDbLine
 10
602.1161825742
 20
452.4513405595
 30
0.0
 11
602.1161825742
 21
449.5645891257
 31
0.0
  0
LINE
  5
1A1
330
1F
100
AcDbEntity
  8
0
  6
CONTINUOUS
 62
     7
100
AcDbLine
 10
602.1161825742
 20
449.5645891257
 30
0.0
 11
604.6161950912
 21
448.1212134088
 31
0.0
  0
LINE
  5
1A2
330
1F
100
AcDbEntity
  8
0
  6
CONTINUOUS
 62
     7
100
AcDbLine
 10
604.6161950912
 20
448.1212134088
 30
0.0
 11
607.116192707
 21
449.5645891257
 31
0.0
  0
LINE
  5
1A3
330
1F
100
AcDbEntity
  8
0
  6
CONTINUOUS
 62
     7
100
AcDbLine
 10
607.116192707
 20
449.5645891257
 30
0.0
 11
607.116192707
 21
452.4513405595
 31
0.0
  0
LINE
  5
1A4
330
1F
100
AcDbEntity
  8
0
  6
CONTINUOUS
 62
     7
100
AcDbLine
 10
607.116192707
 20
452.4513405595
 30
0.0
 11
604.6161950912
 21
453.8947162765
 31
0.0
  0
LINE
  5
1A5
330
1F
100
AcDbEntity
  8
0
  6
CONTINUOUS
 62
     7
100
AcDbLine
 10
604.6161950912
 20
453.8947162765
 30
0.0
 11
602.1161825742
 21
452.4513405595
 31
0.0
  0
LINE
  5
1A6
330
1F
100
AcDbEntity
  8
0
  6
CONTINUOUS
 62
     7
100
AcDbLine
 10
589.1161860313
 20
455.0079650326
 30
0.0
 11
589.1161860313
 21
447.0079646526
 31
0.0
  0
LINE
  5
1A7
330
1F
100
AcDbEntity
  8
0
  6
CONTINUOUS
 62
     7
100
AcDbLine
 10
188.1161929455
 20
447.0079646526
 30
0.0
 11
188.1161929455
 21
455.0079650326
 31
0.0
  0
ARC
  5
1A8
330
1F
100
AcDbEntity
  8
0
  6
CONTINUOUS
 62
     7
100
AcDbCircle
 10
656.1161894884
 20
436.2855329783
 30
0.0
 40
2.999999999999989
100
AcDbArc
 50
188.1445131013
 51
213.0831821958
  0
ARC
  5
1A9
330
1F
100
AcDbEntity
  8
0
  6
CONTINUOUS
 62
     7
100
AcDbCircle
 10
673.1161894884
 20
436.2855329783
 30
0.0
 40
3.0
100
AcDbArc
 50
270.0
 51
350.2055486552
  0
LWPOLYLINE
  5
1AA
330
1F
100
AcDbEntity
  8
0
  6
CONTINUOUS
 62
     7
100
AcDbPolyline
 90
        3
 70
   128
 43
0.0
 10
672.0800252046
 20
433.4701549342
 10
672.0901281919
 20
433.466455721
 10
673.1161923494
 20
433.2855332723
  0
ARC
  5
1AB
330
1F
100
AcDbEntity
  8
0
  6
CONTINUOUS
 62
     7
100
AcDbCircle
 10
656.1161894884
 20
465.730396707
 30
0.0
 40
2.999999999999905
100
AcDbArc
 50
146.9168178042
 51
171.8554868987
  0
ARC
  5
1AC
330
1F
100
AcDbEntity
  8
0
  6
CONTINUOUS
 62
     7
100
AcDbCircle
 10
673.1161894884
 20
465.730396707
 30
0.0
 40
3.000000000000028
100
AcDbArc
 50
9.7944513463
 51
110.2055486537
  0
LINE
  5
1AD
330
1F
100
AcDbEntity
  8
0
  6
CONTINUOUS
 62
     7
100
AcDbLine
 10
671.6802568521
 20
468.6459682962
 30
0.0
 11
672.3443121996
 21
468.567269676
 31
0.0
  0
LINE
  5
1AE
330
1F
100
AcDbEntity
  8
0
  6
CONTINUOUS
 62
     7
100
AcDbLine
 10
675.9488434877
 20
466.5271638042
 30
0.0
 11
676.35913206
 21
465.9446159458
 31
0.0
  0
ARC
  5
1AF
330
1F
100
AcDbEntity
  8
0
  6
CONTINUOUS
 62
     7
100
AcDbCircle
 10
664.6161894884
 20
451.0079648426
 30
0.0
 40
20.0
100
AcDbArc
 50
270.0000000001
 51
90.0
  0
LINE
  5
1B0
330
1F
100
AcDbEntity
  8
0
  6
CONTINUOUS
 62
     7
100
AcDbLine
 10
676.35913206
 20
436.0713137394
 30
0.0
 11
675.974384078
 21
435.556232751
 31
0.0
  0
LINE
  5
1B1
330
1F
100
AcDbEntity
  8
0
  6
CONTINUOUS
 62
     7
100
AcDbLine
 10
673.0989666071
 20
433.4979623637
 30
0.0
 11
671.6802568521
 21
433.369961389
 31
0.0
  0
LWPOLYLINE
  5
1B2
330
1F
100
AcDbEntity
  8
0
  6
CONTINUOUS
 62
     7
100
AcDbPolyline
 90
        3
 70
   128
 43
0.0
 10
653.3089132394
 20
434.6479650667
 10
653.042271861
 20
435.2302596054
 10
652.8732628908
 20
436.0713137394
  0
LWPOLYLINE
  5
1B3
330
1F
100
AcDbEntity
  8
0
  6
CONTINUOUS
 62
     7
100
AcDbPolyline
 90
        3
 70
   128
 43
0.0
 10
652.8732628908
 20
465.9446159458
 10
653.042271861
 20
466.7856700799
 10
653.3089132394
 20
467.3679646185
  0
LINE
  5
1B4
330
1F
100
AcDbEntity
  8
0
  6
CONTINUOUS
 62
     7
100
AcDbLine
 10
595.6161917534
 20
434.6479650667
 30
0.0
 11
595.6161917534
 21
467.3679646185
 31
0.0
  0
CIRCLE
  5
1B5
330
1F
100
AcDbEntity
  8
0
  6
CONTINUOUS
 62
     7
100
AcDbCircle
 10
629.6161894884
 20
451.0079648426
 30
0.0
 40
8.5
  0
CIRCLE
  5
1B6
330
1F
100
AcDbEntity
  8
0
  6
CONTINUOUS
 62
     7
100
AcDbCircle
 10
604.6161894884
 20
451.0079648426
 30
0.0
 40
8.5
  0
LINE
  5
1B7
330
1F
100
AcDbEntity
  8
0
  6
CONTINUOUS
 62
     7
100
AcDbLine
 10
664.6161825742
 20
431.0079652897
 30
0.0
 11
597.6161958065
 21
431.0079652897
 31
0.0
  0
LINE
  5
1B8
330
1F
100
AcDbEntity
  8
0
  6
CONTINUOUS
 62
     7
100
AcDbLine
 10
598.0055482473
 20
431.9479640654
 30
0.0
 11
597.6161958065
 21
431.0079652897
 31
0.0
  0
LINE
  5
1B9
330
1F
100
AcDbEntity
  8
0
  6
CONTINUOUS
 62
     7
100
AcDbLine
 10
597.6161958065
 20
471.0079643956
 30
0.0
 11
598.0055482473
 21
470.0679656199
 31
0.0
  0
LINE
  5
1BA
330
1F
100
AcDbEntity
  8
0
  6
CONTINUOUS
 62
     7
100
AcDbLine
 10
597.6161958065
 20
471.0079643956
 30
0.0
 11
664.6161825742
 21
471.0079643956
 31
0.0
  0
LINE
  5
1BB
330
1F
100
AcDbEntity
  8
0
  6
CONTINUOUS
 62
     7
100
AcDbLine
 10
594.6161897268
 20
434.6479650667
 30
0.0
 11
594.6161897268
 21
467.3679646185
 31
0.0
  0
LINE
  5
1BC
330
1F
100
AcDbEntity
  8
0
  6
CONTINUOUS
 62
     7
100
AcDbLine
 10
596.6761858549
 20
470.0679656199
 30
0.0
 11
597.6161958065
 21
471.0079643956
 31
0.0
  0
LINE
  5
1BD
330
1F
100
AcDbEntity
  8
0
  6
CONTINUOUS
 62
     7
100
AcDbLine
 10
597.6161958065
 20
431.0079652897
 30
0.0
 11
596.6761858549
 21
431.9479640654
 31
0.0
  0
ARC
  5
1BE
330
1F
100
AcDbEntity
  8
0
  6
CONTINUOUS
 62
     7
100
AcDbCircle
 10
112.6161894884
 20
451.0079648426
 30
0.0
 40
20.0
100
AcDbArc
 50
90.0000000001
 51
270.0
  0
LINE
  5
1BF
330
1F
100
AcDbEntity
  8
0
  6
CONTINUOUS
 62
     7
100
AcDbLine
 10
100.8732469167
 20
465.9446159458
 30
0.0
 11
101.2331397619
 21
466.4264030835
 31
0.0
  0
LINE
  5
1C0
330
1F
100
AcDbEntity
  8
0
  6
CONTINUOUS
 62
     7
100
AcDbLine
 10
104.9139947977
 20
468.588392072
 30
0.0
 11
105.5521221246
 21
468.6459682962
 31
0.0
  0
LINE
  5
1C1
330
1F
100
AcDbEntity
  8
0
  6
CONTINUOUS
 62
     7
100
AcDbLine
 10
105.5521221246
 20
433.369961389
 30
0.0
 11
104.9079449262
 21
433.4463037631
 31
0.0
  0
LINE
  5
1C2
330
1F
100
AcDbEntity
  8
0
  6
CONTINUOUS
 62
     7
100
AcDbLine
 10
101.2870223608
 20
435.483808451
 30
0.0
 11
100.8732469167
 21
436.0713137394
 31
0.0
  0
LWPOLYLINE
  5
1C3
330
1F
100
AcDbEntity
  8
0
  6
CONTINUOUS
 62
     7
100
AcDbPolyline
 90
        3
 70
   128
 43
0.0
 10
123.9234657373
 20
467.3679646185
 10
124.1901071157
 20
466.7856700799
 10
124.359116086
 20
465.9446159458
  0
LWPOLYLINE
  5
1C4
330
1F
100
AcDbEntity
  8
0
  6
CONTINUOUS
 62
     7
100
AcDbPolyline
 90
        3
 70
   128
 43
0.0
 10
124.359116086
 20
436.0713137394
 10
124.1901071157
 20
435.2302596054
 10
123.9234657373
 20
434.6479650667
  0
LINE
  5
1C5
330
1F
100
AcDbEntity
  8
0
  6
CONTINUOUS
 62
     7
100
AcDbLine
 10
181.6161872234
 20
467.3679646185
 30
0.0
 11
181.6161872234
 21
434.6479650667
 31
0.0
  0
CIRCLE
  5
1C6
330
1F
100
AcDbEntity
  8
0
  6
CONTINUOUS
 62
     7
100
AcDbCircle
 10
147.6161894884
 20
451.0079648426
 30
0.0
 40
8.5
  0
CIRCLE
  5
1C7
330
1F
100
AcDbEntity
  8
0
  6
CONTINUOUS
 62
     7
100
AcDbCircle
 10
172.6161894884
 20
451.0079648426
 30
0.0
 40
8.500000000000028
  0
LINE
  5
1C8
330
1F
100
AcDbEntity
  8
0
  6
CONTINUOUS
 62
     7
100
AcDbLine
 10
112.6161964025
 20
471.0079643956
 30
0.0
 11
179.6161831703
 21
471.0079643956
 31
0.0
  0
LINE
  5
1C9
330
1F
100
AcDbEntity
  8
0
  6
CONTINUOUS
 62
     7
100
AcDbLine
 10
179.2268307295
 20
470.0679656199
 30
0.0
 11
179.6161831703
 21
471.0079643956
 31
0.0
  0
LINE
  5
1CA
330
1F
100
AcDbEntity
  8
0
  6
CONTINUOUS
 62
     7
100
AcDbLine
 10
179.6161831703
 20
431.0079652897
 30
0.0
 11
179.2268307295
 21
431.9479640654
 31
0.0
  0
LINE
  5
1CB
330
1F
100
AcDbEntity
  8
0
  6
CONTINUOUS
 62
     7
100
AcDbLine
 10
179.6161831703
 20
431.0079652897
 30
0.0
 11
112.6161964025
 21
431.0079652897
 31
0.0
  0
LINE
  5
1CC
330
1F
100
AcDbEntity
  8
0
  6
CONTINUOUS
 62
     7
100
AcDbLine
 10
182.61618925
 20
467.3679646185
 30
0.0
 11
182.61618925
 21
434.6479650667
 31
0.0
  0
LINE
  5
1CD
330
1F
100
AcDbEntity
  8
0
  6
CONTINUOUS
 62
     7
100
AcDbLine
 10
180.5561931219
 20
431.9479640654
 30
0.0
 11
179.6161831703
 21
431.0079652897
 31
0.0
  0
LINE
  5
1CE
330
1F
100
AcDbEntity
  8
0
  6
CONTINUOUS
 62
     7
100
AcDbLine
 10
179.6161831703
 20
471.0079643956
 30
0.0
 11
180.5561931219
 21
470.0679656199
 31
0.0
  0
CIRCLE
  5
1CF
330
1F
100
AcDbEntity
  8
0
  6
CONTINUOUS
 62
     7
100
AcDbCircle
 10
664.6161894884
 20
451.0079648426
 30
0.0
 40
5.5
  0
CIRCLE
  5
1D0
330
1F
100
AcDbEntity
  8
0
  6
CONTINUOUS
 62
     7
100
AcDbCircle
 10
664.6161894884
 20
451.0079648426
 30
0.0
 40
6.0
  0
LINE
  5
1D1
330
1F
100
AcDbEntity
  8
0
  6
CONTINUOUS
 62
     7
100
AcDbLine
 10
670.6011147585
 20
450.582964837
 30
0.0
 11
673.6562104311
 21
450.582964837
 31
0.0
  0
ARC
  5
1D2
330
1F
100
AcDbEntity
  8
0
  6
CONTINUOUS
 62
     7
100
AcDbCircle
 10
664.6161894884
 20
451.0079648426
 30
0.0
 40
9.049999999999718
100
AcDbArc
 50
337.117673691
 51
357.3083242478
  0
LINE
  5
1D3
330
1F
100
AcDbEntity
  8
0
  6
CONTINUOUS
 62
     7
100
AcDbLine
 10
672.954008111
 20
447.4889648227
 30
0.0
 11
670.6021280374
 21
446.6329485259
 31
0.0
  0
ARC
  5
1D4
330
1F
100
AcDbEntity
  8
0
  6
CONTINUOUS
 62
     7
100
AcDbCircle
 10
664.5411894884
 20
451.0079648426
 30
0.0
 40
7.475000000000231
100
AcDbArc
 50
35.82322788
 51
324.1767721205
  0
LINE
  5
1D5
330
1F
100
AcDbEntity
  8
0
  6
CONTINUOUS
 62
     7
100
AcDbLine
 10
670.6021280374
 20
455.3829811594
 30
0.0
 11
672.954008111
 21
454.5269648625
 31
0.0
  0
ARC
  5
1D6
330
1F
100
AcDbEntity
  8
0
  6
CONTINUOUS
 62
     7
100
AcDbCircle
 10
664.6161894884
 20
451.0079648426
 30
0.0
 40
9.04999999999902
100
AcDbArc
 50
2.6916757522
 51
22.882326309
  0
LINE
  5
1D7
330
1F
100
AcDbEntity
  8
0
  6
CONTINUOUS
 62
     7
100
AcDbLine
 10
673.6562104311
 20
451.4329648483
 30
0.0
 11
670.6011147585
 21
451.4329648483
 31
0.0
  0
CIRCLE
  5
1D8
330
1F
100
AcDbEntity
  8
0
  6
CONTINUOUS
 62
     7
100
AcDbCircle
 10
671.6784766533
 20
453.2179648426
 30
0.0
 40
0.8500000000000227
  0
CIRCLE
  5
1D9
330
1F
100
AcDbEntity
  8
0
  6
CONTINUOUS
 62
     7
100
AcDbCircle
 10
671.6784766533
 20
448.7979648426
 30
0.0
 40
0.8499999999999659
  0
LINE
  5
1DA
330
1F
100
AcDbEntity
  8
0
  6
CONTINUOUS
 62
     7
100
AcDbLine
 10
112.1911854829
 20
445.023035918
 30
0.0
 11
112.1911854829
 21
441.9679500243
 31
0.0
  0
ARC
  5
1DB
330
1F
100
AcDbEntity
  8
0
  6
CONTINUOUS
 62
     7
100
AcDbCircle
 10
112.6161894884
 20
451.0079648426
 30
0.0
 40
9.049999999999775
100
AcDbArc
 50
247.117673691
 51
267.3083242478
  0
LINE
  5
1DC
330
1F
100
AcDbEntity
  8
0
  6
CONTINUOUS
 62
     7
100
AcDbLine
 10
109.0971977796
 20
442.6701514131
 30
0.0
 11
108.2411856737
 21
445.0220361432
 31
0.0
  0
ARC
  5
1DD
330
1F
100
AcDbEntity
  8
0
  6
CONTINUOUS
 62
     7
100
AcDbCircle
 10
112.6161894884
 20
451.0829648426
 30
0.0
 40
7.475000000000427
100
AcDbArc
 50
305.82322788
 51
234.1767721205
  0
LINE
  5
1DE
330
1F
100
AcDbEntity
  8
0
  6
CONTINUOUS
 62
     7
100
AcDbLine
 10
116.9912071314
 20
445.0220361432
 30
0.0
 11
116.1351950254
 21
442.6701514131
 31
0.0
  0
ARC
  5
1DF
330
1F
100
AcDbEntity
  8
0
  6
CONTINUOUS
 62
     7
100
AcDbCircle
 10
112.6161894884
 20
451.0079648426
 30
0.0
 40
9.049999999998962
100
AcDbArc
 50
272.6916757522
 51
292.882326309
  0
LINE
  5
1E0
330
1F
100
AcDbEntity
  8
0
  6
CONTINUOUS
 62
     7
100
AcDbLine
 10
113.0411775198
 20
441.9679500243
 30
0.0
 11
113.0411775198
 21
445.023035918
 31
0.0
  0
CIRCLE
  5
1E1
330
1F
100
AcDbEntity
  8
0
  6
CONTINUOUS
 62
     7
100
AcDbCircle
 10
114.8261894884
 20
443.9456776777
 30
0.0
 40
0.8499999999999659
  0
CIRCLE
  5
1E2
330
1F
100
AcDbEntity
  8
0
  6
CONTINUOUS
 62
     7
100
AcDbCircle
 10
110.4061894884
 20
443.9456776777
 30
0.0
 40
0.8499999999999659
  0
DIMENSION
  5
1E3
330
1F
100
AcDbEntity
  8
OPISY
100
AcDbDimension
  2
_D
 10
704.7971367846
 20
511.0079648426
 30
0.0
 11
704.7971367846
 21
501.2829648426
 31
0.0
 70
   160
  1
<>
  3
SLDDIMSTYLE0
100
AcDbAlignedDimension
 13
638.6161894884
 23
491.5579648426
 33
0.0
 14
567.3661894884
 24
511.0079648426
 34
0.0
 50
90.0
100
AcDbRotatedDimension
  0
DIMENSION
  5
1F0
330
1F
100
AcDbEntity
  8
OPISY
100
AcDbDimension
  2
_D_1
 10
704.7971367846
 20
471.0079648426
 30
0.0
 11
704.7971367846
 21
451.0079648426
 31
0.0
 70
   160
  1
<>
  3
SLDDIMSTYLE1
100
AcDbAlignedDimension
 13
664.6161894884
 23
431.0079648426
 33
0.0
 14
664.6161894884
 24
471.0079648426
 34
0.0
 50
90.0
100
AcDbRotatedDimension
  0
DIMENSION
  5
1FB
330
1F
100
AcDbEntity
  8
OPISY
100
AcDbDimension
  2
_D_2
 10
704.7971367846
 20
471.0079648426
 30
0.0
 11
704.7971367846
 21
481.2829648426
 31
0.0
 70
   160
  1
<>
  3
SLDDIMSTYLE1
100
AcDbAlignedDimension
 13
638.6161894884
 23
491.5579648426
 33
0.0
 14
664.6161894884
 24
471.0079648426
 34
0.0
 50
90.0
100
AcDbRotatedDimension
  0
DIMENSION
  5
205
330
1F
100
AcDbEntity
  8
OPISY
100
AcDbDimension
  2
_D_3
 10
158.6161894883
 20
516.2550836919
 30
0.0
 11
148.6161894884
 21
516.2550836919
 31
0.0
 70
   160
  1
%%c<>
  3
SLDDIMSTYLE2
100
AcDbAlignedDimension
 13
138.6161894884
 23
501.0579648426
 33
0.0
 14
158.6161894883
 24
501.0579648426
 34
0.0
100
AcDbRotatedDimension
  0
LINE
  5
213
330
1F
100
AcDbEntity
  8
0
  6
CONTINUOUS
 62
     7
100
AcDbLine
 10
496.1161894884
 20
264.8675120291
 30
0.0
 11
561.1161894884
 21
264.8675120291
 31
0.0
  0
LINE
  5
214
330
1F
100
AcDbEntity
  8
0
  6
CONTINUOUS
 62
     7
100
AcDbLine
 10
496.1161894884
 20
264.8675120291
 30
0.0
 11
496.1161894884
 21
222.8675120291
 31
0.0
  0
LINE
  5
215
330
1F
100
AcDbEntity
  8
0
  6
CONTINUOUS
 62
     7
100
AcDbLine
 10
496.1161894884
 20
222.8675120291
 30
0.0
 11
561.1161894884
 21
222.8675120291
 31
0.0
  0
LINE
  5
216
330
1F
100
AcDbEntity
  8
0
  6
CONTINUOUS
 62
     7
100
AcDbLine
 10
561.1161894884
 20
264.8675120291
 30
0.0
 11
561.1161894884
 21
222.8675120291
 31
0.0
  0
LINE
  5
217
330
1F
100
AcDbEntity
  8
0
  6
CENTERX2
 62
     7
100
AcDbLine
 10
496.1161894884
 20
264.8675120291
 30
0.0
 11
561.1161894884
 21
222.8675120291
 31
0.0
  0
LINE
  5
218
330
1F
100
AcDbEntity
  8
0
  6
CENTERX2
 62
     7
100
AcDbLine
 10
496.1161894884
 20
222.8675120291
 30
0.0
 11
561.1161894884
 21
264.8675120291
 31
0.0
  0
LINE
  5
219
330
1F
100
AcDbEntity
  8
0
  6
CONTINUOUS
 62
     7
100
AcDbLine
 10
528.6161894884
 20
264.8675120291
 30
0.0
 11
528.6161894884
 21
222.8675120291
 31
0.0
  0
POINT
  5
21A
330
1F
100
AcDbEntity
  8
0
  6
CONTINUOUS
 62
     7
100
AcDbPoint
 10
528.6161894884
 20
243.8675120291
 30
0.0
  0
ARC
  5
21B
330
1F
100
AcDbEntity
  8
0
  6
CONTINUOUS
 62
     7
100
AcDbCircle
 10
136.9608814523
 20
235.9525120291
 30
0.0
 40
0.5999999999999943
100
AcDbArc
 50
90.0
 51
180.0
  0
ARC
  5
21C
330
1F
100
AcDbEntity
  8
0
  6
CONTINUOUS
 62
     7
100
AcDbCircle
 10
136.9608814523
 20
248.7825120291
 30
0.0
 40
0.5999999999999943
100
AcDbArc
 50
180.0
 51
270.0
  0
ARC
  5
21D
330
1F
100
AcDbEntity
  8
0
  6
CONTINUOUS
 62
     7
100
AcDbCircle
 10
137.3608814523
 20
237.9675120291
 30
0.0
 40
0.4000000000000057
100
AcDbArc
 50
90.0
 51
180.0
  0
ARC
  5
21E
330
1F
100
AcDbEntity
  8
0
  6
CONTINUOUS
 62
     7
100
AcDbCircle
 10
137.3608814523
 20
246.7675120291
 30
0.0
 40
0.4000000000000057
100
AcDbArc
 50
180.0
 51
270.0
  0
LINE
  5
21F
330
1F
100
AcDbEntity
  8
0
  6
CONTINUOUS
 62
     7
100
AcDbLine
 10
137.3608814523
 20
238.3675120291
 30
0.0
 11
138.6161894884
 21
238.3675120291
 31
0.0
  0
LINE
  5
220
330
1F
100
AcDbEntity
  8
0
  6
CONTINUOUS
 62
     7
100
AcDbLine
 10
138.6161894884
 20
246.3675120291
 30
0.0
 11
137.3608814523
 21
246.3675120291
 31
0.0
  0
LINE
  5
221
330
1F
100
AcDbEntity
  8
0
  6
CONTINUOUS
 62
     7
100
AcDbLine
 10
131.3335689615
 20
249.3398206495
 30
0.0
 11
131.0608814523
 21
248.8675120291
 31
0.0
  0
LINE
  5
222
330
1F
100
AcDbEntity
  8
0
  6
CONTINUOUS
 62
     7
100
AcDbLine
 10
131.0608814523
 20
235.8675120291
 30
0.0
 11
131.3335689645
 21
235.3952034035
 31
0.0
  0
ARC
  5
223
330
1F
100
AcDbEntity
  8
0
  6
CONTINUOUS
 62
     7
100
AcDbCircle
 10
641.1510543191
 20
248.7825120291
 30
0.0
 40
0.6000000000000227
100
AcDbArc
 50
270.0
 51
0.0
  0
ARC
  5
224
330
1F
100
AcDbEntity
  8
0
  6
CONTINUOUS
 62
     7
100
AcDbCircle
 10
641.1510543191
 20
235.9525120291
 30
0.0
 40
0.6000000000000227
100
AcDbArc
 50
0.0
 51
90.0
  0
ARC
  5
225
330
1F
100
AcDbEntity
  8
0
  6
CONTINUOUS
 62
     7
100
AcDbCircle
 10
640.7510543191
 20
246.7675120291
 30
0.0
 40
0.4000000000000057
100
AcDbArc
 50
270.0
 51
0.0
  0
ARC
  5
226
330
1F
100
AcDbEntity
  8
0
  6
CONTINUOUS
 62
     7
100
AcDbCircle
 10
640.7510543191
 20
237.9675120291
 30
0.0
 40
0.4000000000000057
100
AcDbArc
 50
0.0
 51
90.0
  0
LINE
  5
227
330
1F
100
AcDbEntity
  8
0
  6
CONTINUOUS
 62
     7
100
AcDbLine
 10
646.9671677958
 20
235.7222163086
 30
0.0
 11
647.0510547993
 21
235.8675128607
 31
0.0
  0
LINE
  5
228
330
1F
100
AcDbEntity
  8
0
  6
CONTINUOUS
 62
     7
100
AcDbLine
 10
640.7510543191
 20
246.3675120291
 30
0.0
 11
638.6161894884
 21
246.3675120291
 31
0.0
  0
LINE
  5
229
330
1F
100
AcDbEntity
  8
0
  6
CONTINUOUS
 62
     7
100
AcDbLine
 10
638.6161894884
 20
238.3675120291
 30
0.0
 11
640.7510543191
 21
238.3675120291
 31
0.0
  0
LINE
  5
22A
330
1F
100
AcDbEntity
  8
0
  6
CONTINUOUS
 62
     7
100
AcDbLine
 10
647.0510547993
 20
248.8675111974
 30
0.0
 11
646.9671677958
 21
249.0128077496
 31
0.0
  0
LINE
  5
22B
330
1F
100
AcDbEntity
  8
0
  6
CONTINUOUS
 62
     7
100
AcDbLine
 10
567.3661894884
 20
239.5175120291
 30
0.0
 11
567.7152148116
 21
239.5175120291
 31
0.0
  0
LINE
  5
22C
330
1F
100
AcDbEntity
  8
0
  6
CONTINUOUS
 62
     7
100
AcDbLine
 10
567.7152148116
 20
245.2175120291
 30
0.0
 11
567.3661894884
 21
245.2175120291
 31
0.0
  0
LINE
  5
22D
330
1F
100
AcDbEntity
  8
0
  6
CONTINUOUS
 62
     7
100
AcDbLine
 10
683.6761894884
 20
188.8675120291
 30
0.0
 11
683.6761894884
 21
204.8675120291
 31
0.0
  0
LINE
  5
22E
330
1F
100
AcDbEntity
  8
0
  6
CONTINUOUS
 62
     7
100
AcDbLine
 10
93.5561894884
 20
204.8675120291
 30
0.0
 11
93.5561894884
 21
188.8675120291
 31
0.0
  0
LINE
  5
22F
330
1F
100
AcDbEntity
  8
0
  6
CONTINUOUS
 62
     7
100
AcDbLine
 10
118.5161894884
 20
270.3675120291
 30
0.0
 11
118.1161894884
 21
270.7675120291
 31
0.0
  0
LINE
  5
230
330
1F
100
AcDbEntity
  8
0
  6
CONTINUOUS
 62
     7
100
AcDbLine
 10
107.1161894884
 20
270.7675120291
 30
0.0
 11
106.7161894884
 21
270.3675120291
 31
0.0
  0
LINE
  5
231
330
1F
100
AcDbEntity
  8
0
  6
CONTINUOUS
 62
     7
100
AcDbLine
 10
106.6161894884
 20
185.9010056781
 30
0.0
 11
106.6161894884
 21
185.7675120291
 31
0.0
  0
LINE
  5
232
330
1F
100
AcDbEntity
  8
0
  6
CONTINUOUS
 62
     7
100
AcDbLine
 10
118.6161894884
 20
185.7675120291
 30
0.0
 11
118.6161894884
 21
185.9010056781
 31
0.0
  0
LINE
  5
233
330
1F
100
AcDbEntity
  8
0
  6
CONTINUOUS
 62
     7
100
AcDbLine
 10
106.6161894884
 20
184.6675120291
 30
0.0
 11
106.6161894884
 21
183.7675120291
 31
0.0
  0
LINE
  5
234
330
1F
100
AcDbEntity
  8
0
  6
CONTINUOUS
 62
     7
100
AcDbLine
 10
118.6161894884
 20
183.7675120291
 30
0.0
 11
118.6161894884
 21
184.6675120291
 31
0.0
  0
LINE
  5
235
330
1F
100
AcDbEntity
  8
0
  6
CONTINUOUS
 62
     7
100
AcDbLine
 10
106.6161894884
 20
183.7675120291
 30
0.0
 11
107.1161894884
 21
183.2675120291
 31
0.0
  0
LINE
  5
236
330
1F
100
AcDbEntity
  8
0
  6
CONTINUOUS
 62
     7
100
AcDbLine
 10
118.1161894884
 20
183.2675120291
 30
0.0
 11
118.6161894884
 21
183.7675120291
 31
0.0
  0
LINE
  5
237
330
1F
100
AcDbEntity
  8
0
  6
CONTINUOUS
 62
     7
100
AcDbLine
 10
106.8661894884
 20
184.7675120291
 30
0.0
 11
106.8661894884
 21
184.6675120291
 31
0.0
  0
LINE
  5
238
330
1F
100
AcDbEntity
  8
0
  6
CONTINUOUS
 62
     7
100
AcDbLine
 10
118.3661894884
 20
184.6675120291
 30
0.0
 11
118.3661894884
 21
184.7675120291
 31
0.0
  0
LINE
  5
239
330
1F
100
AcDbEntity
  8
0
  6
CONTINUOUS
 62
     7
100
AcDbLine
 10
683.6161894884
 20
207.33401838
 30
0.0
 11
683.4822148922
 21
207.83401838
 31
0.0
  0
LINE
  5
23A
330
1F
100
AcDbEntity
  8
0
  6
CONTINUOUS
 62
     7
100
AcDbLine
 10
645.7501640846
 20
207.83401838
 30
0.0
 11
645.6161894884
 21
207.33401838
 31
0.0
  0
LINE
  5
23B
330
1F
100
AcDbEntity
  8
0
  6
CONTINUOUS
 62
     7
100
AcDbLine
 10
645.6161894884
 20
207.33401838
 30
0.0
 11
647.3572148922
 21
206.8675120291
 31
0.0
  0
LINE
  5
23C
330
1F
100
AcDbEntity
  8
0
  6
CONTINUOUS
 62
     7
100
AcDbLine
 10
681.8751640846
 20
206.8675120291
 30
0.0
 11
683.6161894884
 21
207.33401838
 31
0.0
  0
LINE
  5
23D
330
1F
100
AcDbEntity
  8
0
  6
CONTINUOUS
 62
     7
100
AcDbLine
 10
645.6161894884
 20
186.4010056781
 30
0.0
 11
645.7501640846
 21
185.9010056781
 31
0.0
  0
LINE
  5
23E
330
1F
100
AcDbEntity
  8
0
  6
CONTINUOUS
 62
     7
100
AcDbLine
 10
683.4822148922
 20
185.9010056781
 30
0.0
 11
683.6161894884
 21
186.4010056781
 31
0.0
  0
LINE
  5
23F
330
1F
100
AcDbEntity
  8
0
  6
CONTINUOUS
 62
     7
100
AcDbLine
 10
683.6161894884
 20
186.4010056781
 30
0.0
 11
681.8751640846
 21
186.8675120291
 31
0.0
  0
LINE
  5
240
330
1F
100
AcDbEntity
  8
0
  6
CONTINUOUS
 62
     7
100
AcDbLine
 10
647.3572148922
 20
186.8675120291
 30
0.0
 11
645.6161894884
 21
186.4010056781
 31
0.0
  0
LINE
  5
241
330
1F
100
AcDbEntity
  8
0
  6
CONTINUOUS
 62
     7
100
AcDbLine
 10
656.551894225
 20
206.8675120291
 30
0.0
 11
656.551894225
 21
204.8675120291
 31
0.0
  0
LINE
  5
242
330
1F
100
AcDbEntity
  8
0
  6
CONTINUOUS
 62
     7
100
AcDbLine
 10
656.551894225
 20
188.8675120291
 30
0.0
 11
656.551894225
 21
186.8675120291
 31
0.0
  0
LINE
  5
243
330
1F
100
AcDbEntity
  8
0
  6
CONTINUOUS
 62
     7
100
AcDbLine
 10
672.6804847517
 20
186.8675120291
 30
0.0
 11
672.6804847517
 21
188.8675120291
 31
0.0
  0
LINE
  5
244
330
1F
100
AcDbEntity
  8
0
  6
CONTINUOUS
 62
     7
100
AcDbLine
 10
672.6804847517
 20
204.8675120291
 30
0.0
 11
672.6804847517
 21
206.8675120291
 31
0.0
  0
LINE
  5
245
330
1F
100
AcDbEntity
  8
0
  6
CONTINUOUS
 62
     7
100
AcDbLine
 10
652.6742461662
 20
206.8675120291
 30
0.0
 11
652.6742461662
 21
204.8675120291
 31
0.0
  0
LINE
  5
246
330
1F
100
AcDbEntity
  8
0
  6
CONTINUOUS
 62
     7
100
AcDbLine
 10
652.6742461662
 20
188.8675120291
 30
0.0
 11
652.6742461662
 21
186.8675120291
 31
0.0
  0
LINE
  5
247
330
1F
100
AcDbEntity
  8
0
  6
CONTINUOUS
 62
     7
100
AcDbLine
 10
676.5581328106
 20
186.8675120291
 30
0.0
 11
676.5581328106
 21
188.8675120291
 31
0.0
  0
LINE
  5
248
330
1F
100
AcDbEntity
  8
0
  6
CONTINUOUS
 62
     7
100
AcDbLine
 10
676.5581328106
 20
204.8675120291
 30
0.0
 11
676.5581328106
 21
206.8675120291
 31
0.0
  0
LINE
  5
249
330
1F
100
AcDbEntity
  8
0
  6
CONTINUOUS
 62
     7
100
AcDbLine
 10
652.6161894884
 20
213.3675120291
 30
0.0
 11
652.6161894884
 21
207.83401838
 31
0.0
  0
LINE
  5
24A
330
1F
100
AcDbEntity
  8
0
  6
CONTINUOUS
 62
     7
100
AcDbLine
 10
676.6161894884
 20
207.83401838
 30
0.0
 11
676.6161894884
 21
213.3675120291
 31
0.0
  0
LINE
  5
24B
330
1F
100
AcDbEntity
  8
0
  6
CONTINUOUS
 62
     7
100
AcDbLine
 10
649.7316577127
 20
206.8675120291
 30
0.0
 11
649.7316577127
 21
204.8675120291
 31
0.0
  0
LINE
  5
24C
330
1F
100
AcDbEntity
  8
0
  6
CONTINUOUS
 62
     7
100
AcDbLine
 10
649.7316577127
 20
188.8675120291
 30
0.0
 11
649.7316577127
 21
186.8675120291
 31
0.0
  0
LINE
  5
24D
330
1F
100
AcDbEntity
  8
0
  6
CONTINUOUS
 62
     7
100
AcDbLine
 10
679.500721264
 20
186.8675120291
 30
0.0
 11
679.500721264
 21
188.8675120291
 31
0.0
  0
LINE
  5
24E
330
1F
100
AcDbEntity
  8
0
  6
CONTINUOUS
 62
     7
100
AcDbLine
 10
679.500721264
 20
204.8675120291
 30
0.0
 11
679.500721264
 21
206.8675120291
 31
0.0
  0
LINE
  5
24F
330
1F
100
AcDbEntity
  8
0
  6
CONTINUOUS
 62
     7
100
AcDbLine
 10
647.9625198809
 20
206.8675120291
 30
0.0
 11
647.9625198809
 21
204.8675120291
 31
0.0
  0
LINE
  5
250
330
1F
100
AcDbEntity
  8
0
  6
CONTINUOUS
 62
     7
100
AcDbLine
 10
647.9625198809
 20
188.8675120291
 30
0.0
 11
647.9625198809
 21
186.8675120291
 31
0.0
  0
LINE
  5
251
330
1F
100
AcDbEntity
  8
0
  6
CONTINUOUS
 62
     7
100
AcDbLine
 10
681.2698590958
 20
186.8675120291
 30
0.0
 11
681.2698590958
 21
188.8675120291
 31
0.0
  0
LINE
  5
252
330
1F
100
AcDbEntity
  8
0
  6
CONTINUOUS
 62
     7
100
AcDbLine
 10
681.2698590958
 20
204.8675120291
 30
0.0
 11
681.2698590958
 21
206.8675120291
 31
0.0
  0
LINE
  5
253
330
1F
100
AcDbEntity
  8
0
  6
CONTINUOUS
 62
     7
100
AcDbLine
 10
647.4911894884
 20
206.8675120291
 30
0.0
 11
647.4911894884
 21
204.8675120291
 31
0.0
  0
LINE
  5
254
330
1F
100
AcDbEntity
  8
0
  6
CONTINUOUS
 62
     7
100
AcDbLine
 10
647.4911894884
 20
188.8675120291
 30
0.0
 11
647.4911894884
 21
186.8675120291
 31
0.0
  0
LINE
  5
255
330
1F
100
AcDbEntity
  8
0
  6
CONTINUOUS
 62
     7
100
AcDbLine
 10
681.7411894884
 20
186.8675120291
 30
0.0
 11
681.7411894884
 21
188.8675120291
 31
0.0
  0
LINE
  5
256
330
1F
100
AcDbEntity
  8
0
  6
CONTINUOUS
 62
     7
100
AcDbLine
 10
681.7411894884
 20
204.8675120291
 30
0.0
 11
681.7411894884
 21
206.8675120291
 31
0.0
  0
LINE
  5
257
330
1F
100
AcDbEntity
  8
0
  6
CONTINUOUS
 62
     7
100
AcDbLine
 10
131.6161894884
 20
207.33401838
 30
0.0
 11
131.4822148922
 21
207.83401838
 31
0.0
  0
LINE
  5
258
330
1F
100
AcDbEntity
  8
0
  6
CONTINUOUS
 62
     7
100
AcDbLine
 10
93.7501640846
 20
207.83401838
 30
0.0
 11
93.6161894884
 21
207.33401838
 31
0.0
  0
LINE
  5
259
330
1F
100
AcDbEntity
  8
0
  6
CONTINUOUS
 62
     7
100
AcDbLine
 10
93.6161894884
 20
207.33401838
 30
0.0
 11
95.3572148922
 21
206.8675120291
 31
0.0
  0
LINE
  5
25A
330
1F
100
AcDbEntity
  8
0
  6
CONTINUOUS
 62
     7
100
AcDbLine
 10
129.8751640846
 20
206.8675120291
 30
0.0
 11
131.6161894884
 21
207.33401838
 31
0.0
  0
LINE
  5
25B
330
1F
100
AcDbEntity
  8
0
  6
CONTINUOUS
 62
     7
100
AcDbLine
 10
131.6161894884
 20
186.4010056781
 30
0.0
 11
129.8751640846
 21
186.8675120291
 31
0.0
  0
LINE
  5
25C
330
1F
100
AcDbEntity
  8
0
  6
CONTINUOUS
 62
     7
100
AcDbLine
 10
95.3572148922
 20
186.8675120291
 30
0.0
 11
93.6161894884
 21
186.4010056781
 31
0.0
  0
LINE
  5
25D
330
1F
100
AcDbEntity
  8
0
  6
CONTINUOUS
 62
     7
100
AcDbLine
 10
93.6161894884
 20
186.4010056781
 30
0.0
 11
93.7501640846
 21
185.9010056781
 31
0.0
  0
LINE
  5
25E
330
1F
100
AcDbEntity
  8
0
  6
CONTINUOUS
 62
     7
100
AcDbLine
 10
131.4822148922
 20
185.9010056781
 30
0.0
 11
131.6161894884
 21
186.4010056781
 31
0.0
  0
LINE
  5
25F
330
1F
100
AcDbEntity
  8
0
  6
CONTINUOUS
 62
     7
100
AcDbLine
 10
104.551894225
 20
206.8675120291
 30
0.0
 11
104.551894225
 21
204.8675120291
 31
0.0
  0
LINE
  5
260
330
1F
100
AcDbEntity
  8
0
  6
CONTINUOUS
 62
     7
100
AcDbLine
 10
104.551894225
 20
188.8675120291
 30
0.0
 11
104.551894225
 21
186.8675120291
 31
0.0
  0
LINE
  5
261
330
1F
100
AcDbEntity
  8
0
  6
CONTINUOUS
 62
     7
100
AcDbLine
 10
120.6804847517
 20
186.8675120291
 30
0.0
 11
120.6804847517
 21
188.8675120291
 31
0.0
  0
LINE
  5
262
330
1F
100
AcDbEntity
  8
0
  6
CONTINUOUS
 62
     7
100
AcDbLine
 10
120.6804847517
 20
204.8675120291
 30
0.0
 11
120.6804847517
 21
206.8675120291
 31
0.0
  0
LINE
  5
263
330
1F
100
AcDbEntity
  8
0
  6
CONTINUOUS
 62
     7
100
AcDbLine
 10
100.6742461662
 20
206.8675120291
 30
0.0
 11
100.6742461662
 21
204.8675120291
 31
0.0
  0
LINE
  5
264
330
1F
100
AcDbEntity
  8
0
  6
CONTINUOUS
 62
     7
100
AcDbLine
 10
100.6742461662
 20
188.8675120291
 30
0.0
 11
100.6742461662
 21
186.8675120291
 31
0.0
  0
LINE
  5
265
330
1F
100
AcDbEntity
  8
0
  6
CONTINUOUS
 62
     7
100
AcDbLine
 10
124.5581328106
 20
186.8675120291
 30
0.0
 11
124.5581328106
 21
188.8675120291
 31
0.0
  0
LINE
  5
266
330
1F
100
AcDbEntity
  8
0
  6
CONTINUOUS
 62
     7
100
AcDbLine
 10
124.5581328106
 20
204.8675120291
 30
0.0
 11
124.5581328106
 21
206.8675120291
 31
0.0
  0
LINE
  5
267
330
1F
100
AcDbEntity
  8
0
  6
CONTINUOUS
 62
     7
100
AcDbLine
 10
100.6161894884
 20
213.3675120291
 30
0.0
 11
100.6161894884
 21
207.83401838
 31
0.0
  0
LINE
  5
268
330
1F
100
AcDbEntity
  8
0
  6
CONTINUOUS
 62
     7
100
AcDbLine
 10
124.6161894884
 20
207.83401838
 30
0.0
 11
124.6161894884
 21
213.3675120291
 31
0.0
  0
LINE
  5
269
330
1F
100
AcDbEntity
  8
0
  6
CONTINUOUS
 62
     7
100
AcDbLine
 10
97.7316577127
 20
206.8675120291
 30
0.0
 11
97.7316577127
 21
204.8675120291
 31
0.0
  0
LINE
  5
26A
330
1F
100
AcDbEntity
  8
0
  6
CONTINUOUS
 62
     7
100
AcDbLine
 10
97.7316577127
 20
188.8675120291
 30
0.0
 11
97.7316577127
 21
186.8675120291
 31
0.0
  0
LINE
  5
26B
330
1F
100
AcDbEntity
  8
0
  6
CONTINUOUS
 62
     7
100
AcDbLine
 10
127.500721264
 20
186.8675120291
 30
0.0
 11
127.500721264
 21
188.8675120291
 31
0.0
  0
LINE
  5
26C
330
1F
100
AcDbEntity
  8
0
  6
CONTINUOUS
 62
     7
100
AcDbLine
 10
127.500721264
 20
204.8675120291
 30
0.0
 11
127.500721264
 21
206.8675120291
 31
0.0
  0
LINE
  5
26D
330
1F
100
AcDbEntity
  8
0
  6
CONTINUOUS
 62
     7
100
AcDbLine
 10
95.9625198809
 20
206.8675120291
 30
0.0
 11
95.9625198809
 21
204.8675120291
 31
0.0
  0
LINE
  5
26E
330
1F
100
AcDbEntity
  8
0
  6
CONTINUOUS
 62
     7
100
AcDbLine
 10
95.9625198809
 20
188.8675120291
 30
0.0
 11
95.9625198809
 21
186.8675120291
 31
0.0
  0
LINE
  5
26F
330
1F
100
AcDbEntity
  8
0
  6
CONTINUOUS
 62
     7
100
AcDbLine
 10
129.2698590958
 20
186.8675120291
 30
0.0
 11
129.2698590958
 21
188.8675120291
 31
0.0
  0
LINE
  5
270
330
1F
100
AcDbEntity
  8
0
  6
CONTINUOUS
 62
     7
100
AcDbLine
 10
129.2698590958
 20
204.8675120291
 30
0.0
 11
129.2698590958
 21
206.8675120291
 31
0.0
  0
LINE
  5
271
330
1F
100
AcDbEntity
  8
0
  6
CONTINUOUS
 62
     7
100
AcDbLine
 10
95.4911894884
 20
206.8675120291
 30
0.0
 11
95.4911894884
 21
204.8675120291
 31
0.0
  0
LINE
  5
272
330
1F
100
AcDbEntity
  8
0
  6
CONTINUOUS
 62
     7
100
AcDbLine
 10
95.4911894884
 20
188.8675120291
 30
0.0
 11
95.4911894884
 21
186.8675120291
 31
0.0
  0
LINE
  5
273
330
1F
100
AcDbEntity
  8
0
  6
CONTINUOUS
 62
     7
100
AcDbLine
 10
129.7411894884
 20
186.8675120291
 30
0.0
 11
129.7411894884
 21
188.8675120291
 31
0.0
  0
LINE
  5
274
330
1F
100
AcDbEntity
  8
0
  6
CONTINUOUS
 62
     7
100
AcDbLine
 10
129.7411894884
 20
204.8675120291
 30
0.0
 11
129.7411894884
 21
206.8675120291
 31
0.0
  0
LINE
  5
275
330
1F
100
AcDbEntity
  8
0
  6
CONTINUOUS
 62
     7
100
AcDbLine
 10
92.6161894884
 20
262.3675120291
 30
0.0
 11
92.6161894884
 21
222.3675120291
 31
0.0
  0
LINE
  5
276
330
1F
100
AcDbEntity
  8
0
  6
CONTINUOUS
 62
     7
100
AcDbLine
 10
684.6161894884
 20
222.3675120291
 30
0.0
 11
684.6161894884
 21
262.3675120291
 31
0.0
  0
LINE
  5
277
330
1F
100
AcDbEntity
  8
0
  6
CONTINUOUS
 62
     7
100
AcDbLine
 10
683.6161894884
 20
214.3675120291
 30
0.0
 11
684.6161894884
 21
215.3675120291
 31
0.0
  0
LINE
  5
278
330
1F
100
AcDbEntity
  8
0
  6
CONTINUOUS
 62
     7
100
AcDbLine
 10
684.6161894884
 20
215.3675120291
 30
0.0
 11
684.6161894884
 21
222.3675120291
 31
0.0
  0
LINE
  5
279
330
1F
100
AcDbEntity
  8
0
  6
CONTINUOUS
 62
     7
100
AcDbLine
 10
684.6161894884
 20
269.3675120291
 30
0.0
 11
683.6161894884
 21
270.3675120291
 31
0.0
  0
LINE
  5
27A
330
1F
100
AcDbEntity
  8
0
  6
CONTINUOUS
 62
     7
100
AcDbLine
 10
684.6161894884
 20
262.3675120291
 30
0.0
 11
684.6161894884
 21
269.3675120291
 31
0.0
  0
LINE
  5
27B
330
1F
100
AcDbEntity
  8
0
  6
CONTINUOUS
 62
     7
100
AcDbLine
 10
93.6161894884
 20
270.3675120291
 30
0.0
 11
92.6161894884
 21
269.3675120291
 31
0.0
  0
LINE
  5
27C
330
1F
100
AcDbEntity
  8
0
  6
CONTINUOUS
 62
     7
100
AcDbLine
 10
92.6161894884
 20
269.3675120291
 30
0.0
 11
92.6161894884
 21
262.3675120291
 31
0.0
  0
LINE
  5
27D
330
1F
100
AcDbEntity
  8
0
  6
CONTINUOUS
 62
     7
100
AcDbLine
 10
92.6161894884
 20
215.3675120291
 30
0.0
 11
93.6161894884
 21
214.3675120291
 31
0.0
  0
LINE
  5
27E
330
1F
100
AcDbEntity
  8
0
  6
CONTINUOUS
 62
     7
100
AcDbLine
 10
92.6161894884
 20
222.3675120291
 30
0.0
 11
92.6161894884
 21
215.3675120291
 31
0.0
  0
LINE
  5
27F
330
1F
100
AcDbEntity
  8
0
  6
CONTINUOUS
 62
     7
100
AcDbLine
 10
670.6161894884
 20
299.7675120291
 30
0.0
 11
670.1161894884
 21
300.2675120291
 31
0.0
  0
LINE
  5
280
330
1F
100
AcDbEntity
  8
0
  6
CONTINUOUS
 62
     7
100
AcDbLine
 10
659.1161894884
 20
300.2675120291
 30
0.0
 11
658.6161894884
 21
299.7675120291
 31
0.0
  0
LINE
  5
281
330
1F
100
AcDbEntity
  8
0
  6
CONTINUOUS
 62
     7
100
AcDbLine
 10
658.6161894884
 20
299.7675120291
 30
0.0
 11
658.6161894884
 21
270.3675120291
 31
0.0
  0
LINE
  5
282
330
1F
100
AcDbEntity
  8
0
  6
CONTINUOUS
 62
     7
100
AcDbLine
 10
670.6161894884
 20
270.3675120291
 30
0.0
 11
670.6161894884
 21
299.7675120291
 31
0.0
  0
LINE
  5
283
330
1F
100
AcDbEntity
  8
0
  6
CONTINUOUS
 62
     7
100
AcDbLine
 10
658.6161894884
 20
185.9010056781
 30
0.0
 11
658.6161894884
 21
185.7675120291
 31
0.0
  0
LINE
  5
284
330
1F
100
AcDbEntity
  8
0
  6
CONTINUOUS
 62
     7
100
AcDbLine
 10
670.6161894884
 20
185.7675120291
 30
0.0
 11
670.6161894884
 21
185.9010056781
 31
0.0
  0
LINE
  5
285
330
1F
100
AcDbEntity
  8
0
  6
CONTINUOUS
 62
     7
100
AcDbLine
 10
658.6161894884
 20
184.6675120291
 30
0.0
 11
658.6161894884
 21
183.7675120291
 31
0.0
  0
LINE
  5
286
330
1F
100
AcDbEntity
  8
0
  6
CONTINUOUS
 62
     7
100
AcDbLine
 10
670.6161894884
 20
183.7675120291
 30
0.0
 11
670.6161894884
 21
184.6675120291
 31
0.0
  0
LINE
  5
287
330
1F
100
AcDbEntity
  8
0
  6
CONTINUOUS
 62
     7
100
AcDbLine
 10
658.6161894884
 20
183.7675120291
 30
0.0
 11
659.1161894884
 21
183.2675120291
 31
0.0
  0
LINE
  5
288
330
1F
100
AcDbEntity
  8
0
  6
CONTINUOUS
 62
     7
100
AcDbLine
 10
670.1161894884
 20
183.2675120291
 30
0.0
 11
670.6161894884
 21
183.7675120291
 31
0.0
  0
LINE
  5
289
330
1F
100
AcDbEntity
  8
0
  6
CONTINUOUS
 62
     7
100
AcDbLine
 10
658.8661894884
 20
184.7675120291
 30
0.0
 11
658.8661894884
 21
184.6675120291
 31
0.0
  0
LINE
  5
28A
330
1F
100
AcDbEntity
  8
0
  6
CONTINUOUS
 62
     7
100
AcDbLine
 10
670.3661894884
 20
184.6675120291
 30
0.0
 11
670.3661894884
 21
184.7675120291
 31
0.0
  0
LINE
  5
28B
330
1F
100
AcDbEntity
  8
0
  6
CONTINUOUS
 62
     7
100
AcDbLine
 10
102.6161894884
 20
214.3675120291
 30
0.0
 11
102.6161894884
 21
213.3675120291
 31
0.0
  0
LINE
  5
28C
330
1F
100
AcDbEntity
  8
0
  6
CONTINUOUS
 62
     7
100
AcDbLine
 10
122.6161894884
 20
213.3675120291
 30
0.0
 11
122.6161894884
 21
214.3675120291
 31
0.0
  0
LINE
  5
28D
330
1F
100
AcDbEntity
  8
0
  6
CONTINUOUS
 62
     7
100
AcDbLine
 10
654.6161894884
 20
214.3675120291
 30
0.0
 11
654.6161894884
 21
213.3675120291
 31
0.0
  0
LINE
  5
28E
330
1F
100
AcDbEntity
  8
0
  6
CONTINUOUS
 62
     7
100
AcDbLine
 10
674.6161894884
 20
213.3675120291
 30
0.0
 11
674.6161894884
 21
214.3675120291
 31
0.0
  0
LINE
  5
28F
330
1F
100
AcDbEntity
  8
0
  6
CONTINUOUS
 62
     7
100
AcDbLine
 10
657.0661894884
 20
185.7675120291
 30
0.0
 11
657.0661894884
 21
184.7675120291
 31
0.0
  0
LINE
  5
290
330
1F
100
AcDbEntity
  8
0
  6
CONTINUOUS
 62
     7
100
AcDbLine
 10
105.1411894884
 20
185.7675120291
 30
0.0
 11
105.1411894884
 21
184.7675120291
 31
0.0
  0
LINE
  5
291
330
1F
100
AcDbEntity
  8
0
  6
CONTINUOUS
 62
     7
100
AcDbLine
 10
120.0911894884
 20
184.7675120291
 30
0.0
 11
120.0911894884
 21
185.7675120291
 31
0.0
  0
LINE
  5
292
330
1F
100
AcDbEntity
  8
0
  6
CONTINUOUS
 62
     7
100
AcDbLine
 10
136.3608814523
 20
244.9330775827
 30
0.0
 11
131.641438097
 21
244.9330777912
 31
0.0
  0
LINE
  5
293
330
1F
100
AcDbEntity
  8
0
  6
CONTINUOUS
 62
     7
100
AcDbLine
 10
131.641438097
 20
244.9330777912
 30
0.0
 11
131.0608812773
 21
247.34592079
 31
0.0
  0
LINE
  5
294
330
1F
100
AcDbEntity
  8
0
  6
CONTINUOUS
 62
     7
100
AcDbLine
 10
131.0608812773
 20
247.34592079
 30
0.0
 11
131.6414380407
 21
249.7587647594
 31
0.0
  0
LINE
  5
295
330
1F
100
AcDbEntity
  8
0
  6
CONTINUOUS
 62
     7
100
AcDbLine
 10
136.3608814523
 20
249.7587647487
 30
0.0
 11
131.6414380407
 21
249.7587647594
 31
0.0
  0
LINE
  5
296
330
1F
100
AcDbEntity
  8
0
  6
CONTINUOUS
 62
     7
100
AcDbLine
 10
136.3608814523
 20
244.9330775827
 30
0.0
 11
136.3608814523
 21
249.7587647487
 31
0.0
  0
LINE
  5
297
330
1F
100
AcDbEntity
  8
0
  6
CONTINUOUS
 62
     7
100
AcDbLine
 10
136.9608814523
 20
241.3565422463
 30
0.0
 11
136.9608814523
 21
236.5525120291
 31
0.0
  0
LINE
  5
298
330
1F
100
AcDbEntity
  8
0
  6
CONTINUOUS
 62
     7
100
AcDbLine
 10
136.9608814523
 20
248.1825120291
 30
0.0
 11
136.9608814523
 21
241.3565422463
 31
0.0
  0
SPLINE
  5
299
330
1F
100
AcDbEntity
  8
0
  6
CONTINUOUS
 62
     7
100
AcDbSpline
210
0.0
220
0.0
230
1.0
 70
     8
 71
     3
 72
     9
 73
     5
 74
     0
 42
0.000000001
 43
0.00000001
 40
0.0
 40
0.0
 40
0.0
 40
0.0
 40
0.4945107866575245
 40
1.0
 40
1.0
 40
1.0
 40
1.0
 10
131.0608810372713
 20
241.2374502230678
 30
0.0
 10
131.0901356877619
 20
241.8566958179417
 30
0.0
 10
131.1492944589759
 20
243.1089346195652
 30
0.0
 10
131.4761939370381
 20
244.320596022053
 30
0.0
 10
131.6414380970457
 20
244.9330777912339
 30
0.0
  0
LWPOLYLINE
  5
29A
330
1F
100
AcDbEntity
  8
0
  6
CONTINUOUS
 62
     7
100
AcDbPolyline
 90
        9
 70
   128
 43
0.0
 10
131.0608812773
 20
247.34592079
 10
131.0608812759
 20
246.7578388928
 10
131.0608812714
 20
246.0946372667
 10
131.060881264
 20
245.3676634782
 10
131.0608812539
 20
244.5893562535
 10
131.0608812412
 20
243.7730326485
 10
131.0608812261
 20
242.93266019
 10
131.0608812089
 20
242.0826178872
 10
131.0608810373
 20
241.2374502231
  0
LINE
  5
29B
330
1F
100
AcDbEntity
  8
0
  6
CONTINUOUS
 62
     7
100
AcDbLine
 10
136.3608814523
 20
237.5418248631
 30
0.0
 11
131.6414380802
 21
237.5418249155
 31
0.0
  0
SPLINE
  5
29C
330
1F
100
AcDbEntity
  8
0
  6
CONTINUOUS
 62
     7
100
AcDbSpline
210
0.0
220
0.0
230
1.0
 70
     8
 71
     3
 72
     9
 73
     5
 74
     0
 42
0.000000001
 43
0.00000001
 40
0.0
 40
0.0
 40
0.0
 40
0.0
 40
0.4954581415117715
 40
0.9999999999999999
 40
0.9999999999999999
 40
0.9999999999999999
 40
0.9999999999999999
 10
131.6414380801999
 20
237.5418249154961
 30
0.0
 10
131.4791736687793
 20
238.1420109244305
 30
0.0
 10
131.1516698943424
 20
239.3533867373361
 30
0.0
 10
131.0913267031185
 20
240.6056373643973
 30
0.0
 10
131.0608810372713
 20
241.2374502230678
 30
0.0
  0
LINE
  5
29D
330
1F
100
AcDbEntity
  8
0
  6
CONTINUOUS
 62
     7
100
AcDbLine
 10
136.3608814523
 20
237.5418248631
 30
0.0
 11
136.3608814523
 21
244.9330775827
 31
0.0
  0
LINE
  5
29E
330
1F
100
AcDbEntity
  8
0
  6
CONTINUOUS
 62
     7
100
AcDbLine
 10
131.0608812122
 20
236.2590421235
 30
0.0
 11
131.6414380802
 21
237.5418249155
 31
0.0
  0
LWPOLYLINE
  5
29F
330
1F
100
AcDbEntity
  8
0
  6
CONTINUOUS
 62
     7
100
AcDbPolyline
 90
        9
 70
   128
 43
0.0
 10
131.0608810373
 20
241.2374502231
 10
131.0608810367
 20
240.4116184756
 10
131.0608810351
 20
239.6192525974
 10
131.0608810323
 20
238.8739101835
 10
131.0608810285
 20
238.1883442448
 10
131.0608810238
 20
237.5742850004
 10
131.0608810182
 20
237.0422391706
 10
131.0608810118
 20
236.6013102038
 10
131.0608812122
 20
236.2590421235
  0
LINE
  5
2A0
330
1F
100
AcDbEntity
  8
0
  6
CONTINUOUS
 62
     7
100
AcDbLine
 10
131.6414379566
 20
234.9762593891
 30
0.0
 11
136.3608814523
 21
234.9762593094
 31
0.0
  0
LINE
  5
2A1
330
1F
100
AcDbEntity
  8
0
  6
CONTINUOUS
 62
     7
100
AcDbLine
 10
131.6414379566
 20
234.9762593891
 30
0.0
 11
131.0608812122
 21
236.2590421235
 31
0.0
  0
LINE
  5
2A2
330
1F
100
AcDbEntity
  8
0
  6
CONTINUOUS
 62
     7
100
AcDbLine
 10
136.3608814523
 20
234.9762593094
 30
0.0
 11
136.3608814523
 21
237.5418248631
 31
0.0
  0
LINE
  5
2A3
330
1F
100
AcDbEntity
  8
0
  6
CONTINUOUS
 62
     7
100
AcDbLine
 10
131.6414380407
 20
249.7587647594
 30
0.0
 11
131.4273337043
 21
249.28568555
 31
0.0
  0
LWPOLYLINE
  5
2A4
330
1F
100
AcDbEntity
  8
0
  6
CONTINUOUS
 62
     7
100
AcDbPolyline
 90
        7
 70
   128
 43
0.0
 10
131.0608814523
 20
248.8675120291
 10
131.0608812305
 20
248.8612656331
 10
131.0608812444
 20
248.7685246401
 10
131.0608812619
 20
248.5662605361
 10
131.0608812826
 20
248.2579341161
 10
131.0608813062
 20
247.8488209312
 10
131.0608812773
 20
247.34592079
  0
LWPOLYLINE
  5
2A5
330
1F
100
AcDbEntity
  8
0
  6
CONTINUOUS
 62
     7
100
AcDbPolyline
 90
        4
 70
   128
 43
0.0
 10
131.0608812122
 20
236.2590421235
 10
131.0608812143
 20
236.0212919476
 10
131.0608812204
 20
235.8921273675
 10
131.0608814523
 20
235.8675120291
  0
LINE
  5
2A6
330
1F
100
AcDbEntity
  8
0
  6
CONTINUOUS
 62
     7
100
AcDbLine
 10
641.7510543191
 20
247.9449347534
 30
0.0
 11
646.4704977232
 21
247.9449347446
 31
0.0
  0
LINE
  5
2A7
330
1F
100
AcDbEntity
  8
0
  6
CONTINUOUS
 62
     7
100
AcDbLine
 10
646.4704977232
 20
247.9449347446
 30
0.0
 11
647.0510544941
 21
244.3757650174
 31
0.0
  0
LINE
  5
2A8
330
1F
100
AcDbEntity
  8
0
  6
CONTINUOUS
 62
     7
100
AcDbLine
 10
647.0510544941
 20
244.3757650174
 30
0.0
 11
646.4704978148
 21
240.8065947533
 31
0.0
  0
LINE
  5
2A9
330
1F
100
AcDbEntity
  8
0
  6
CONTINUOUS
 62
     7
100
AcDbLine
 10
646.4704978148
 20
240.8065947533
 30
0.0
 11
641.7510543191
 21
240.8065950376
 31
0.0
  0
LINE
  5
2AA
330
1F
100
AcDbEntity
  8
0
  6
CONTINUOUS
 62
     7
100
AcDbLine
 10
641.7510543191
 20
247.9449347534
 30
0.0
 11
641.7510543191
 21
240.8065950376
 31
0.0
  0
LWPOLYLINE
  5
2AB
330
1F
100
AcDbEntity
  8
0
  6
CONTINUOUS
 62
     7
100
AcDbPolyline
 90
        9
 70
   128
 43
0.0
 10
647.0510545592
 20
238.0178835944
 10
647.0510545572
 20
238.6855615717
 10
647.051054551
 20
239.4162387483
 10
647.0510545409
 20
240.197413034
 10
647.0510545271
 20
241.0157183188
 10
647.0510545096
 20
241.857153171
 10
647.0510544889
 20
242.7073204057
 10
647.0510544653
 20
243.5516734242
 10
647.0510544941
 20
244.3757650174
  0
LINE
  5
2AC
330
1F
100
AcDbEntity
  8
0
  6
CONTINUOUS
 62
     7
100
AcDbLine
 10
646.4704978148
 20
240.8065947533
 30
0.0
 11
647.0510545592
 21
238.0178835944
 31
0.0
  0
LINE
  5
2AD
330
1F
100
AcDbEntity
  8
0
  6
CONTINUOUS
 62
     7
100
AcDbLine
 10
641.1510543191
 20
236.5525120291
 30
0.0
 11
641.1510543191
 21
248.1825120291
 31
0.0
  0
LINE
  5
2AE
330
1F
100
AcDbEntity
  8
0
  6
CONTINUOUS
 62
     7
100
AcDbLine
 10
647.0510545592
 20
238.0178835944
 30
0.0
 11
646.4704976913
 21
235.2291721992
 31
0.0
  0
LINE
  5
2AF
330
1F
100
AcDbEntity
  8
0
  6
CONTINUOUS
 62
     7
100
AcDbLine
 10
641.7510543191
 20
235.2291723132
 30
0.0
 11
646.4704976913
 21
235.2291721992
 31
0.0
  0
LINE
  5
2B0
330
1F
100
AcDbEntity
  8
0
  6
CONTINUOUS
 62
     7
100
AcDbLine
 10
641.7510543191
 20
240.8065950376
 30
0.0
 11
641.7510543191
 21
235.2291723132
 31
0.0
  0
LINE
  5
2B1
330
1F
100
AcDbEntity
  8
0
  6
CONTINUOUS
 62
     7
100
AcDbLine
 10
647.0510545592
 20
248.7253928425
 30
0.0
 11
646.4704977232
 21
247.9449347446
 31
0.0
  0
LWPOLYLINE
  5
2B2
330
1F
100
AcDbEntity
  8
0
  6
CONTINUOUS
 62
     7
100
AcDbPolyline
 90
        9
 70
   128
 43
0.0
 10
647.0510544941
 20
244.3757650174
 10
647.0510544956
 20
245.1654948335
 10
647.0510545001
 20
245.9073503913
 10
647.0510545074
 20
246.5886383373
 10
647.0510545176
 20
247.1977016466
 10
647.0510545303
 20
247.7241190779
 10
647.0510545454
 20
248.1588834836
 10
647.0510545626
 20
248.4945559246
 10
647.0510545592
 20
248.7253928425
  0
LINE
  5
2B3
330
1F
100
AcDbEntity
  8
0
  6
CONTINUOUS
 62
     7
100
AcDbLine
 10
646.4704976913
 20
249.5058518589
 30
0.0
 11
646.8917087349
 21
249.1234829553
 31
0.0
  0
LINE
  5
2B4
330
1F
100
AcDbEntity
  8
0
  6
CONTINUOUS
 62
     7
100
AcDbLine
 10
646.9377042884
 20
249.0085732915
 30
0.0
 11
647.0510545592
 21
248.7253928425
 31
0.0
  0
LINE
  5
2B5
330
1F
100
AcDbEntity
  8
0
  6
CONTINUOUS
 62
     7
100
AcDbLine
 10
641.7510543191
 20
249.505851745
 30
0.0
 11
646.4704976913
 21
249.5058518589
 31
0.0
  0
LINE
  5
2B6
330
1F
100
AcDbEntity
  8
0
  6
CONTINUOUS
 62
     7
100
AcDbLine
 10
641.7510543191
 20
249.505851745
 30
0.0
 11
641.7510543191
 21
247.9449347534
 31
0.0
  0
SPLINE
  5
2B7
330
1F
100
AcDbEntity
  8
0
  6
CONTINUOUS
 62
     7
100
AcDbSpline
210
0.0
220
0.0
230
1.0
 70
     8
 71
     3
 72
     9
 73
     5
 74
     0
 42
0.000000001
 43
0.00000001
 40
0.0
 40
0.0
 40
0.0
 40
0.0
 40
0.7728304634399675
 40
1.0
 40
1.0
 40
1.0
 40
1.0
 10
646.4704976912618
 20
235.2291721992148
 30
0.0
 10
646.6450004061919
 20
235.3555266799355
 30
0.0
 10
646.8707972959177
 20
235.5190224098506
 30
0.0
 10
646.9253187348096
 20
235.6880523219552
 30
0.0
 10
646.9377043448152
 20
235.7264507687528
 30
0.0
  0
LWPOLYLINE
  5
2B8
330
1F
100
AcDbEntity
  8
0
  6
CONTINUOUS
 62
     7
100
AcDbPolyline
 90
        8
 70
   128
 43
0.0
 10
647.0510547993
 20
235.8675128607
 10
647.0510547364
 20
235.8764008424
 10
647.0510547391
 20
235.9762871461
 10
647.0510547429
 20
236.1855290411
 10
647.0510547476
 20
236.5005463418
 10
647.0510547533
 20
236.9159490168
 10
647.0510547597
 20
237.4246294136
 10
647.0510545592
 20
238.0178835944
  0
LWPOLYLINE
  5
2B9
330
1F
100
AcDbEntity
  8
0
  6
CONTINUOUS
 62
     7
100
AcDbPolyline
 90
        3
 70
   128
 43
0.0
 10
647.0510545592
 20
248.7253928425
 10
647.0510545613
 20
248.8474447716
 10
647.0510547993
 20
248.8675111974
  0
LINE
  5
2BA
330
1F
100
AcDbEntity
  8
0
  6
CONTINUOUS
 62
     7
100
AcDbLine
 10
638.6161894884
 20
251.0149356327
 30
0.0
 11
633.6383468951
 21
251.0149356327
 31
0.0
  0
LINE
  5
2BB
330
1F
100
AcDbEntity
  8
0
  6
CONTINUOUS
 62
     7
100
AcDbLine
 10
623.5940320816
 20
251.0149356327
 30
0.0
 11
567.3661894884
 21
251.0149356327
 31
0.0
  0
LINE
  5
2BC
330
1F
100
AcDbEntity
  8
0
  6
CONTINUOUS
 62
     7
100
AcDbLine
 10
489.8661894884
 20
251.0149356327
 30
0.0
 11
153.6383468951
 21
251.0149356327
 31
0.0
  0
LINE
  5
2BD
330
1F
100
AcDbEntity
  8
0
  6
CONTINUOUS
 62
     7
100
AcDbLine
 10
143.5940320816
 20
251.0149356327
 30
0.0
 11
138.6161894884
 21
251.0149356327
 31
0.0
  0
LINE
  5
2BE
330
1F
100
AcDbEntity
  8
0
  6
CONTINUOUS
 62
     7
100
AcDbLine
 10
138.6161894884
 20
233.7200884255
 30
0.0
 11
143.5940320815
 21
233.7200884255
 31
0.0
  0
LINE
  5
2BF
330
1F
100
AcDbEntity
  8
0
  6
CONTINUOUS
 62
     7
100
AcDbLine
 10
153.6383468953
 20
233.7200884255
 30
0.0
 11
489.8661894884
 21
233.7200884255
 31
0.0
  0
LINE
  5
2C0
330
1F
100
AcDbEntity
  8
0
  6
CONTINUOUS
 62
     7
100
AcDbLine
 10
567.3661894884
 20
233.7200884255
 30
0.0
 11
623.5940320815
 21
233.7200884255
 31
0.0
  0
LINE
  5
2C1
330
1F
100
AcDbEntity
  8
0
  6
CONTINUOUS
 62
     7
100
AcDbLine
 10
633.6383468953
 20
233.7200884255
 30
0.0
 11
638.6161894884
 21
233.7200884255
 31
0.0
  0
LINE
  5
2C2
330
1F
100
AcDbEntity
  8
0
  6
CONTINUOUS
 62
     7
100
AcDbLine
 10
138.6161894884
 20
251.0149356327
 30
0.0
 11
138.6161894884
 21
233.7200884255
 31
0.0
  0
SPLINE
  5
2C3
330
1F
100
AcDbEntity
  8
0
  6
CONTINUOUS
 62
     7
100
AcDbSpline
210
0.0
220
0.0
230
1.0
 70
     8
 71
     3
 72
    26
 73
    22
 74
     0
 42
0.000000001
 43
0.00000001
 40
0.0
 40
0.0
 40
0.0
 40
0.0
 40
0.0261573403963066
 40
0.1168647856527031
 40
0.1627819700205099
 40
0.2094522480057808
 40
0.2546462495464791
 40
0.3001563478610663
 40
0.3461560121517724
 40
0.3928262901370403
 40
0.4380202916777359
 40
0.4835303899923339
 40
0.529530054283041
 40
0.5762003322683126
 40
0.6669077775247412
 40
0.7128249618925036
 40
0.7594952398777766
 40
0.8502026851342002
 40
0.8961198695019642
 40
0.9427901474872439
 40
1.0
 40
1.0
 40
1.0
 40
1.0
 10
567.366189488381
 20
246.8938134576088
 30
0.0
 10
567.4387315714573
 20
246.9143426649987
 30
0.0
 10
567.762832373032
 20
247.0060622888171
 30
0.0
 10
568.2320747147403
 20
247.063500892168
 30
0.0
 10
568.7602887444893
 20
247.0712039681769
 30
0.0
 10
569.1568422700661
 20
247.0418938194021
 30
0.0
 10
569.5481949317822
 20
246.9797580171358
 30
0.0
 10
569.9311698871064
 20
246.8855905813294
 30
0.0
 10
570.308905986203
 20
246.7582175583032
 30
0.0
 10
570.6736086371413
 20
246.5994946534147
 30
0.0
 10
571.0223375293763
 20
246.4112436739618
 30
0.0
 10
571.3525482874036
 20
246.1956450585377
 30
0.0
 10
571.6668474690998
 20
245.9503873410244
 30
0.0
 10
572.0546346589429
 20
245.5907287819399
 30
0.0
 10
572.395341296259
 20
245.1833430208452
 30
0.0
 10
572.6809302929028
 20
244.7384383752384
 30
0.0
 10
572.9276770621588
 20
244.2708796897259
 30
0.0
 10
573.1146128595166
 20
243.7736791789504
 30
0.0
 10
573.2361449483388
 20
243.2593573497439
 30
0.0
 10
573.3022656960736
 20
242.8319165166674
 30
0.0
 10
573.3112445620146
 20
242.5324416649518
 30
0.0
 10
573.3161894883809
 20
242.3675120290744
 30
0.0
  0
ARC
  5
2C4
330
1F
100
AcDbEntity
  8
0
  6
CONTINUOUS
 62
     7
100
AcDbCircle
 10
568.6161894884
 20
242.3675120291
 30
0.0
 40
4.700000000000016
100
AcDbArc
 50
254.576147801
 51
0.0
  0
SPLINE
  5
2C5
330
1F
100
AcDbEntity
  8
0
  6
CONTINUOUS
 62
     7
100
AcDbSpline
210
0.0
220
0.0
230
1.0
 70
     8
 71
     3
 72
    17
 73
    13
 74
     0
 42
0.000000001
 43
0.00000001
 40
0.0
 40
0.0
 40
0.0
 40
0.0
 40
0.1073724500447728
 40
0.2147449000889451
 40
0.3221173501401747
 40
0.429489800191403
 40
0.5368622502426323
 40
0.6442347002938661
 40
0.7516071503451026
 40
0.8589796003963398
 40
0.9663520504475717
 40
1.0
 40
1.0
 40
1.0
 40
1.0
 10
443.916189488381
 20
242.3675120290744
 30
0.0
 10
443.9681546549037
 20
242.8960182769247
 30
0.0
 10
444.072084987949
 20
243.9530307726224
 30
0.0
 10
444.8822755307205
 20
245.3597947194869
 30
0.0
 10
446.0753989692574
 20
246.4291998348437
 30
0.0
 10
447.5651458472465
 20
247.0406866746779
 30
0.0
 10
449.1707531723125
 20
247.1252853254778
 30
0.0
 10
450.7142160685686
 20
246.6735677041498
 30
0.0
 10
452.0222654544636
 20
245.73605186461
 30
0.0
 10
452.9414349073686
 20
244.4199645580274
 30
0.0
 10
453.2883569415328
 20
243.2231888023525
 30
0.0
 10
453.3108278522471
 20
242.5323488128395
 30
0.0
 10
453.3161894883809
 20
242.3675120290744
 30
0.0
  0
ARC
  5
2C6
330
1F
100
AcDbEntity
  8
0
  6
CONTINUOUS
 62
     7
100
AcDbCircle
 10
448.6161894884
 20
242.3675120291
 30
0.0
 40
4.700000000000045
100
AcDbArc
 50
180.0
 51
0.0
  0
SPLINE
  5
2C7
330
1F
100
AcDbEntity
  8
0
  6
CONTINUOUS
 62
     7
100
AcDbSpline
210
0.0
220
0.0
230
1.0
 70
     8
 71
     3
 72
    39
 73
    35
 74
     0
 42
0.000000001
 43
0.00000001
 40
0.0
 40
0.0
 40
0.0
 40
0.0
 40
0.0528919773307364
 40
0.0800300199115773
 40
0.1073676551232751
 40
0.1338724177634962
 40
0.187396021900185
 40
0.2147336571118977
 40
0.2678183652417013
 40
0.2947631810114288
 40
0.3221008162230246
 40
0.3486055788634933
 40
0.3752961738083367
 40
0.4021765702812982
 40
0.4295142054928929
 40
0.4825989136226773
 40
0.5095437293924169
 40
0.5368813646040068
 40
0.5633861272444793
 40
0.5900767221893255
 40
0.6169571186622889
 40
0.6442947538738819
 40
0.6707995165143541
 40
0.697490111459201
 40
0.7243705079321656
 40
0.7517081431437627
 40
0.7782129057842325
 40
0.804903500729077
 40
0.8317838972020392
 40
0.8591215324136346
 40
0.9122062405434295
 40
0.9391510563131535
 40
0.9664886915247494
 40
0.9999999999999999
 40
0.9999999999999999
 40
0.9999999999999999
 40
0.9999999999999999
 10
383.916189488381
 20
242.3675120290744
 30
0.0
 10
383.9281765075623
 20
242.6280724837785
 30
0.0
 10
383.9463138779573
 20
243.0223224141174
 30
0.0
 10
384.0592746162848
 20
243.5395174900283
 30
0.0
 10
384.1743719776916
 20
243.9212535654161
 30
0.0
 10
384.3701210916793
 20
244.4123525744184
 30
0.0
 10
384.6269270616116
 20
244.8773000258442
 30
0.0
 10
385.0163658388926
 20
245.409377187697
 30
0.0
 10
385.3815573941443
 20
245.7950534174268
 30
0.0
 10
385.7903404969584
 20
246.1302339337703
 30
0.0
 10
386.1183969249553
 20
246.3554654222075
 30
0.0
 10
386.4631588426019
 20
246.5515160025773
 30
0.0
 10
386.82103989274
 20
246.7171833298534
 30
0.0
 10
387.1954724020569
 20
246.8535953392129
 30
0.0
 10
387.7054638968808
 20
246.9916292622492
 30
0.0
 10
388.2315145431186
 20
247.0646248272979
 30
0.0
 10
388.7601135577246
 20
247.0709995055288
 30
0.0
 10
389.1569826098425
 20
247.0419400926509
 30
0.0
 10
389.548667034557
 20
246.9796616382706
 30
0.0
 10
389.9316236971938
 20
246.8854553657608
 30
0.0
 10
390.3091969483848
 20
246.7580899591207
 30
0.0
 10
390.6737527649464
 20
246.5994319148739
 30
0.0
 10
391.0227511950777
 20
246.411013768964
 30
0.0
 10
391.3529350989152
 20
246.1953574395264
 30
0.0
 10
391.6670661165932
 20
245.9501927090012
 30
0.0
 10
391.9585542807396
 20
245.6798090141354
 30
0.0
 10
392.2255130663067
 20
245.3864895892062
 30
0.0
 10
392.465696020609
 20
245.0737055894109
 30
0.0
 10
392.6809856978572
 20
244.7383507765792
 30
0.0
 10
392.9275558737829
 20
244.2710991863235
 30
0.0
 10
393.1145395730696
 20
243.7739066748984
 30
0.0
 10
393.2361086459408
 20
243.2595928389178
 30
0.0
 10
393.3022656626911
 20
242.8319164744989
 30
0.0
 10
393.3112445501558
 20
242.5324416500886
 30
0.0
 10
393.3161894883808
 20
242.3675120290744
 30
0.0
  0
ARC
  5
2C8
330
1F
100
AcDbEntity
  8
0
  6
CONTINUOUS
 62
     7
100
AcDbCircle
 10
388.6161894884
 20
242.3675120291
 30
0.0
 40
4.700000000000102
100
AcDbArc
 50
180.0
 51
360.0
  0
SPLINE
  5
2C9
330
1F
100
AcDbEntity
  8
0
  6
CONTINUOUS
 62
     7
100
AcDbSpline
210
0.0
220
0.0
230
1.0
 70
     8
 71
     3
 72
    17
 73
    13
 74
     0
 42
0.000000001
 43
0.00000001
 40
0.0
 40
0.0
 40
0.0
 40
0.0
 40
0.1073724500504531
 40
0.2147449001008325
 40
0.3221173501520788
 40
0.4294898002033184
 40
0.536862250254558
 40
0.6442347003058129
 40
0.751607150357071
 40
0.8589796004083255
 40
0.9663520504595736
 40
1.0
 40
1.0
 40
1.0
 40
1.0
 10
323.916189488381
 20
242.3675120290744
 30
0.0
 10
323.9681546549093
 20
242.8960182769528
 30
0.0
 10
324.0720849879659
 20
243.9530307727094
 30
0.0
 10
324.8822755308103
 20
245.3597947196073
 30
0.0
 10
326.0753989694099
 20
246.4291998349391
 30
0.0
 10
327.5651458474222
 20
247.0406866747175
 30
0.0
 10
329.1707531724912
 20
247.1252853254569
 30
0.0
 10
330.7142160687304
 20
246.673567704071
 30
0.0
 10
332.0222654545901
 20
245.7360518644819
 30
0.0
 10
332.9414349074465
 20
244.4199645578648
 30
0.0
 10
333.2883569415461
 20
243.2231888022347
 30
0.0
 10
333.3108278522508
 20
242.5323488127807
 30
0.0
 10
333.3161894883808
 20
242.3675120290744
 30
0.0
  0
ARC
  5
2CA
330
1F
100
AcDbEntity
  8
0
  6
CONTINUOUS
 62
     7
100
AcDbCircle
 10
328.6161894884
 20
242.3675120291
 30
0.0
 40
4.700000000000045
100
AcDbArc
 50
180.0
 51
0.0
  0
SPLINE
  5
2CB
330
1F
100
AcDbEntity
  8
0
  6
CONTINUOUS
 62
     7
100
AcDbSpline
210
0.0
220
0.0
230
1.0
 70
     8
 71
     3
 72
    17
 73
    13
 74
     0
 42
0.000000001
 43
0.00000001
 40
0.0
 40
0.0
 40
0.0
 40
0.0
 40
0.1073724500437721
 40
0.2147449000868501
 40
0.3221173501380762
 40
0.4294898001892988
 40
0.5368622502405249
 40
0.6442347002917568
 40
0.7516071503429932
 40
0.8589796003942274
 40
0.9663520504454586
 40
0.9999999999999999
 40
0.9999999999999999
 40
0.9999999999999999
 40
0.9999999999999999
 10
263.9161894883809
 20
242.3675120290744
 30
0.0
 10
263.9681546549028
 20
242.8960182769198
 30
0.0
 10
264.072084987946
 20
243.953030772607
 30
0.0
 10
264.8822755307046
 20
245.3597947194657
 30
0.0
 10
266.0753989692304
 20
246.4291998348269
 30
0.0
 10
267.5651458472155
 20
247.040686674671
 30
0.0
 10
269.1707531722809
 20
247.1252853254815
 30
0.0
 10
270.7142160685399
 20
246.6735677041638
 30
0.0
 10
272.0222654544414
 20
245.7360518646325
 30
0.0
 10
272.9414349073548
 20
244.4199645580561
 30
0.0
 10
273.2883569415305
 20
243.2231888023733
 30
0.0
 10
273.3108278522463
 20
242.5323488128499
 30
0.0
 10
273.3161894883807
 20
242.3675120290744
 30
0.0
  0
ARC
  5
2CC
330
1F
100
AcDbEntity
  8
0
  6
CONTINUOUS
 62
     7
100
AcDbCircle
 10
268.6161894884
 20
242.3675120291
 30
0.0
 40
4.700000000000102
100
AcDbArc
 50
180.0
 51
0.0
  0
SPLINE
  5
2CD
330
1F
100
AcDbEntity
  8
0
  6
CONTINUOUS
 62
     7
100
AcDbSpline
210
0.0
220
0.0
230
1.0
 70
     8
 71
     3
 72
    17
 73
    13
 74
     0
 42
0.000000001
 43
0.00000001
 40
0.0
 40
0.0
 40
0.0
 40
0.0
 40
0.1073724500379805
 40
0.2147449000747282
 40
0.3221173501259371
 40
0.4294898001771508
 40
0.5368622502283609
 40
0.644234700279573
 40
0.7516071503307886
 40
0.8589796003820018
 40
0.9663520504332095
 40
1.0
 40
1.0
 40
1.0
 40
1.0
 10
203.9161894883809
 20
242.3675120290744
 30
0.0
 10
203.968154654897
 20
242.8960182768911
 30
0.0
 10
204.0720849879286
 20
243.9530307725184
 30
0.0
 10
204.882275530613
 20
245.3597947193431
 30
0.0
 10
206.0753989690749
 20
246.4291998347296
 30
0.0
 10
207.5651458470364
 20
247.0406866746307
 30
0.0
 10
209.1707531720986
 20
247.1252853255029
 30
0.0
 10
210.7142160683749
 20
246.6735677042443
 30
0.0
 10
212.0222654543125
 20
245.7360518647633
 30
0.0
 10
212.9414349072753
 20
244.4199645582219
 30
0.0
 10
213.2883569415168
 20
243.2231888024936
 30
0.0
 10
213.3108278522427
 20
242.5323488129099
 30
0.0
 10
213.3161894883808
 20
242.3675120290744
 30
0.0
  0
ARC
  5
2CE
330
1F
100
AcDbEntity
  8
0
  6
CONTINUOUS
 62
     7
100
AcDbCircle
 10
208.6161894884
 20
242.3675120291
 30
0.0
 40
4.699999999999989
100
AcDbArc
 50
180.0
 51
0.0
  0
LINE
  5
2CF
330
1F
100
AcDbEntity
  8
0
  6
CONTINUOUS
 62
     7
100
AcDbLine
 10
638.6161894884
 20
233.7200884255
 30
0.0
 11
638.6161894884
 21
251.0149356327
 31
0.0
  0
LINE
  5
2D0
330
1F
100
AcDbEntity
  8
0
  6
CONTINUOUS
 62
     7
100
AcDbLine
 10
638.6161894884
 20
251.1675120291
 30
0.0
 11
633.365926323
 21
251.1675120291
 31
0.0
  0
LINE
  5
2D1
330
1F
100
AcDbEntity
  8
0
  6
CONTINUOUS
 62
     7
100
AcDbLine
 10
623.8664526537
 20
251.1675120291
 30
0.0
 11
567.3661894884
 21
251.1675120291
 31
0.0
  0
LINE
  5
2D2
330
1F
100
AcDbEntity
  8
0
  6
CONTINUOUS
 62
     7
100
AcDbLine
 10
489.8661894884
 20
251.1675120291
 30
0.0
 11
153.365926323
 21
251.1675120291
 31
0.0
  0
LINE
  5
2D3
330
1F
100
AcDbEntity
  8
0
  6
CONTINUOUS
 62
     7
100
AcDbLine
 10
143.8664526537
 20
251.1675120291
 30
0.0
 11
138.6161894884
 21
251.1675120291
 31
0.0
  0
LINE
  5
2D4
330
1F
100
AcDbEntity
  8
0
  6
CONTINUOUS
 62
     7
100
AcDbLine
 10
138.6161894884
 20
251.1675120291
 30
0.0
 11
138.6161894884
 21
251.0149356327
 31
0.0
  0
LINE
  5
2D5
330
1F
100
AcDbEntity
  8
0
  6
CONTINUOUS
 62
     7
100
AcDbLine
 10
638.6161894884
 20
251.1675120291
 30
0.0
 11
638.6161894884
 21
251.0149356327
 31
0.0
  0
LINE
  5
2D6
330
1F
100
AcDbEntity
  8
0
  6
CONTINUOUS
 62
     7
100
AcDbLine
 10
138.6161894884
 20
233.5675120291
 30
0.0
 11
143.8664526536
 21
233.5675120291
 31
0.0
  0
LINE
  5
2D7
330
1F
100
AcDbEntity
  8
0
  6
CONTINUOUS
 62
     7
100
AcDbLine
 10
153.3659263232
 20
233.5675120291
 30
0.0
 11
489.8661894884
 21
233.5675120291
 31
0.0
  0
LINE
  5
2D8
330
1F
100
AcDbEntity
  8
0
  6
CONTINUOUS
 62
     7
100
AcDbLine
 10
567.3661894884
 20
233.5675120291
 30
0.0
 11
623.8664526536
 21
233.5675120291
 31
0.0
  0
LINE
  5
2D9
330
1F
100
AcDbEntity
  8
0
  6
CONTINUOUS
 62
     7
100
AcDbLine
 10
633.3659263232
 20
233.5675120291
 30
0.0
 11
638.6161894884
 21
233.5675120291
 31
0.0
  0
LINE
  5
2DA
330
1F
100
AcDbEntity
  8
0
  6
CONTINUOUS
 62
     7
100
AcDbLine
 10
138.6161894884
 20
233.5675120291
 30
0.0
 11
138.6161894884
 21
233.7200884255
 31
0.0
  0
LINE
  5
2DB
330
1F
100
AcDbEntity
  8
0
  6
CONTINUOUS
 62
     7
100
AcDbLine
 10
638.6161894884
 20
233.7200884255
 30
0.0
 11
638.6161894884
 21
233.5675120291
 31
0.0
  0
LINE
  5
2DC
330
1F
100
AcDbEntity
  8
0
  6
CONTINUOUS
 62
     7
100
AcDbLine
 10
638.6161894884
 20
232.3675120291
 30
0.0
 11
567.3661894884
 21
232.3675120291
 31
0.0
  0
LINE
  5
2DD
330
1F
100
AcDbEntity
  8
0
  6
CONTINUOUS
 62
     7
100
AcDbLine
 10
489.8661894884
 20
232.3675120291
 30
0.0
 11
138.6161894884
 21
232.3675120291
 31
0.0
  0
LINE
  5
2DE
330
1F
100
AcDbEntity
  8
0
  6
CONTINUOUS
 62
     7
100
AcDbLine
 10
138.6161894884
 20
233.5675120291
 30
0.0
 11
138.6161894884
 21
232.3675120291
 31
0.0
  0
LINE
  5
2DF
330
1F
100
AcDbEntity
  8
0
  6
CONTINUOUS
 62
     7
100
AcDbLine
 10
638.6161894884
 20
232.3675120291
 30
0.0
 11
638.6161894884
 21
233.5675120291
 31
0.0
  0
LINE
  5
2E0
330
1F
100
AcDbEntity
  8
0
  6
CONTINUOUS
 62
     7
100
AcDbLine
 10
138.6161894884
 20
252.3675120291
 30
0.0
 11
489.8661894884
 21
252.3675120291
 31
0.0
  0
LINE
  5
2E1
330
1F
100
AcDbEntity
  8
0
  6
CONTINUOUS
 62
     7
100
AcDbLine
 10
567.3661894884
 20
252.3675120291
 30
0.0
 11
638.6161894884
 21
252.3675120291
 31
0.0
  0
LINE
  5
2E2
330
1F
100
AcDbEntity
  8
0
  6
CONTINUOUS
 62
     7
100
AcDbLine
 10
138.6161894884
 20
252.3675120291
 30
0.0
 11
138.6161894884
 21
251.1675120291
 31
0.0
  0
LINE
  5
2E3
330
1F
100
AcDbEntity
  8
0
  6
CONTINUOUS
 62
     7
100
AcDbLine
 10
638.6161894884
 20
251.1675120291
 30
0.0
 11
638.6161894884
 21
252.3675120291
 31
0.0
  0
ARC
  5
2E4
330
1F
100
AcDbEntity
  8
0
  6
CONTINUOUS
 62
     7
100
AcDbCircle
 10
620.7677807443
 20
242.7214244606
 30
0.0
 40
53.14949745567541
100
AcDbArc
 50
178.7862176636
 51
178.9101463927
  0
LINE
  5
2E5
330
1F
100
AcDbEntity
  8
0
  6
CONTINUOUS
 62
     7
100
AcDbLine
 10
567.630209137
 20
243.8472856767
 30
0.0
 11
567.7129039156
 21
245.2167427104
 31
0.0
  0
ARC
  5
2E6
330
1F
100
AcDbEntity
  8
0
  6
CONTINUOUS
 62
     7
100
AcDbCircle
 10
567.7152148116
 20
245.2135925759
 30
0.0
 40
0.0039068642119
100
AcDbArc
 50
53.7367321396
 51
126.2632678606
  0
LINE
  5
2E7
330
1F
100
AcDbEntity
  8
0
  6
CONTINUOUS
 62
     7
100
AcDbLine
 10
567.7175257076
 20
245.2167427104
 30
0.0
 11
567.8002204862
 21
243.8472856774
 31
0.0
  0
ARC
  5
2E8
330
1F
100
AcDbEntity
  8
0
  6
CONTINUOUS
 62
     7
100
AcDbCircle
 10
514.6626788287
 20
242.7214250496
 30
0.0
 40
53.14946750017377
100
AcDbArc
 50
1.0898535865
 51
1.2137823863
  0
LINE
  5
2E9
330
1F
100
AcDbEntity
  8
0
  6
CONTINUOUS
 62
     7
100
AcDbLine
 10
567.8025313822
 20
243.732348459
 30
0.0
 11
567.8025313822
 21
241.0026755991
 31
0.0
  0
ARC
  5
2EA
330
1F
100
AcDbEntity
  8
0
  6
CONTINUOUS
 62
     7
100
AcDbCircle
 10
514.6626488447
 20
242.0135995982
 30
0.0
 40
53.14949748990332
100
AcDbArc
 50
358.7862176637
 51
358.9101463928
  0
LINE
  5
2EB
330
1F
100
AcDbEntity
  8
0
  6
CONTINUOUS
 62
     7
100
AcDbLine
 10
567.8002204862
 20
240.8877383814
 30
0.0
 11
567.7175257076
 21
239.5182813477
 31
0.0
  0
ARC
  5
2EC
330
1F
100
AcDbEntity
  8
0
  6
CONTINUOUS
 62
     7
100
AcDbCircle
 10
567.7152148116
 20
239.5214314822
 30
0.0
 40
0.0039068642135729
100
AcDbArc
 50
233.7367321576
 51
306.2632678424
  0
LINE
  5
2ED
330
1F
100
AcDbEntity
  8
0
  6
CONTINUOUS
 62
     7
100
AcDbLine
 10
567.7129039156
 20
239.5182813477
 30
0.0
 11
567.630209137
 21
240.8877383821
 31
0.0
  0
ARC
  5
2EE
330
1F
100
AcDbEntity
  8
0
  6
CONTINUOUS
 62
     7
100
AcDbCircle
 10
620.767755885
 20
242.0135990863
 30
0.0
 40
53.14947259117582
100
AcDbArc
 50
181.0898535659
 51
181.2137823524
  0
LINE
  5
2EF
330
1F
100
AcDbEntity
  8
0
  6
CONTINUOUS
 62
     7
100
AcDbLine
 10
567.627898241
 20
241.0026755991
 30
0.0
 11
567.627898241
 21
243.732348459
 31
0.0
  0
LWPOLYLINE
  5
2F0
330
1F
100
AcDbEntity
  8
0
  6
CONTINUOUS
 62
     7
100
AcDbPolyline
 90
       17
 70
   128
 43
0.0
 10
567.7152148116
 20
244.117512029
 10
567.7385868652
 20
243.9843012109
 10
567.7584007355
 20
243.6049488961
 10
567.7716399403
 20
243.0372080357
 10
567.7762889308
 20
242.3675120291
 10
567.7716399403
 20
241.6978160224
 10
567.7584007355
 20
241.130075162
 10
567.7385868652
 20
240.7507228472
 10
567.7152148116
 20
240.6175120291
 10
567.691842758
 20
240.7507228472
 10
567.6720288877
 20
241.130075162
 10
567.6587896829
 20
241.6978160224
 10
567.6541406924
 20
242.3675120291
 10
567.6587896829
 20
243.0372080357
 10
567.6720288877
 20
243.6049488961
 10
567.691842758
 20
243.9843012109
 10
567.7152148116
 20
244.117512029
  0
LINE
  5
2F1
330
1F
100
AcDbEntity
  8
0
  6
CONTINUOUS
 62
     7
100
AcDbLine
 10
567.627898241
 20
243.732348459
 30
0.0
 11
567.3661894884
 21
243.732348459
 31
0.0
  0
LINE
  5
2F2
330
1F
100
AcDbEntity
  8
0
  6
CONTINUOUS
 62
     7
100
AcDbLine
 10
567.3661894884
 20
243.8472856767
 30
0.0
 11
567.630209137
 21
243.8472856767
 31
0.0
  0
LINE
  5
2F3
330
1F
100
AcDbEntity
  8
0
  6
CONTINUOUS
 62
     7
100
AcDbLine
 10
567.3661894884
 20
241.0026755991
 30
0.0
 11
567.627898241
 21
241.0026755991
 31
0.0
  0
LINE
  5
2F4
330
1F
100
AcDbEntity
  8
0
  6
CONTINUOUS
 62
     7
100
AcDbLine
 10
567.630209137
 20
240.8877383821
 30
0.0
 11
567.3661894884
 21
240.8877383821
 31
0.0
  0
LINE
  5
2F5
330
1F
100
AcDbEntity
  8
0
  6
CONTINUOUS
 62
     7
100
AcDbLine
 10
567.3661894884
 20
239.5182813477
 30
0.0
 11
567.7129039156
 21
239.5182813477
 31
0.0
  0
LINE
  5
2F6
330
1F
100
AcDbEntity
  8
0
  6
CONTINUOUS
 62
     7
100
AcDbLine
 10
567.7129039156
 20
245.2167427104
 30
0.0
 11
567.3661894884
 21
245.2167427104
 31
0.0
  0
LINE
  5
2F7
330
1F
100
AcDbEntity
  8
0
  6
CONTINUOUS
 62
     7
100
AcDbLine
 10
551.1078817425
 20
215.0354152631
 30
0.0
 11
551.1853410076
 21
215.4436041704
 31
0.0
  0
LINE
  5
2F8
330
1F
100
AcDbEntity
  8
0
  6
CONTINUOUS
 62
     7
100
AcDbLine
 10
526.2651258993
 20
264.0175120291
 30
0.0
 11
530.9672530775
 21
264.0175120291
 31
0.0
  0
LINE
  5
2F9
330
1F
100
AcDbEntity
  8
0
  6
CONTINUOUS
 62
     7
100
AcDbLine
 10
530.7812529978
 20
263.6175120291
 30
0.0
 11
526.4511259789
 21
263.6175120291
 31
0.0
  0
LINE
  5
2FA
330
1F
100
AcDbEntity
  8
0
  6
CONTINUOUS
 62
     7
100
AcDbLine
 10
526.8308323812
 20
221.1175120291
 30
0.0
 11
530.4015465955
 21
221.1175120291
 31
0.0
  0
LINE
  5
2FB
330
1F
100
AcDbEntity
  8
0
  6
CONTINUOUS
 62
     7
100
AcDbLine
 10
529.8919245706
 20
220.7175120291
 30
0.0
 11
527.3404544062
 21
220.7175120291
 31
0.0
  0
LINE
  5
2FC
330
1F
100
AcDbEntity
  8
0
  6
CONTINUOUS
 62
     7
100
AcDbLine
 10
498.3830531302
 20
263.8133160182
 30
0.0
 11
493.8493258465
 21
263.8133160182
 31
0.0
  0
LINE
  5
2FD
330
1F
100
AcDbEntity
  8
0
  6
CONTINUOUS
 62
     7
100
AcDbLine
 10
494.5465249268
 20
220.9217080399
 30
0.0
 11
497.6858540499
 21
220.9217080399
 31
0.0
  0
LINE
  5
2FE
330
1F
100
AcDbEntity
  8
0
  6
CONTINUOUS
 62
     7
100
AcDbLine
 10
493.8473792275
 20
263.8175120291
 30
0.0
 11
498.3849997493
 21
263.8175120291
 31
0.0
  0
LINE
  5
2FF
330
1F
100
AcDbEntity
  8
0
  6
CONTINUOUS
 62
     7
100
AcDbLine
 10
497.6806382731
 20
220.9175120291
 30
0.0
 11
494.5517407037
 21
220.9175120291
 31
0.0
  0
LINE
  5
300
330
1F
100
AcDbEntity
  8
0
  6
CONTINUOUS
 62
     7
100
AcDbLine
 10
563.3830531302
 20
263.8133160182
 30
0.0
 11
558.8493258465
 21
263.8133160182
 31
0.0
  0
LINE
  5
301
330
1F
100
AcDbEntity
  8
0
  6
CONTINUOUS
 62
     7
100
AcDbLine
 10
559.5465249268
 20
220.9217080399
 30
0.0
 11
562.6858540499
 21
220.9217080399
 31
0.0
  0
LINE
  5
302
330
1F
100
AcDbEntity
  8
0
  6
CONTINUOUS
 62
     7
100
AcDbLine
 10
558.8473792275
 20
263.8175120291
 30
0.0
 11
563.3849997493
 21
263.8175120291
 31
0.0
  0
LINE
  5
303
330
1F
100
AcDbEntity
  8
0
  6
CONTINUOUS
 62
     7
100
AcDbLine
 10
562.6806382731
 20
220.9175120291
 30
0.0
 11
559.5517407037
 21
220.9175120291
 31
0.0
  0
LINE
  5
304
330
1F
100
AcDbEntity
  8
0
  6
CONTINUOUS
 62
     7
100
AcDbLine
 10
664.6161894884
 20
188.8675120291
 30
0.0
 11
567.3661894884
 21
188.8675120291
 31
0.0
  0
LINE
  5
305
330
1F
100
AcDbEntity
  8
0
  6
CONTINUOUS
 62
     7
100
AcDbLine
 10
489.8661894884
 20
188.8675120291
 30
0.0
 11
112.6161894884
 21
188.8675120291
 31
0.0
  0
LINE
  5
306
330
1F
100
AcDbEntity
  8
0
  6
CONTINUOUS
 62
     7
100
AcDbLine
 10
664.6161894884
 20
204.8675120291
 30
0.0
 11
567.3661894884
 21
204.8675120291
 31
0.0
  0
LINE
  5
307
330
1F
100
AcDbEntity
  8
0
  6
CONTINUOUS
 62
     7
100
AcDbLine
 10
489.8661894884
 20
204.8675120291
 30
0.0
 11
112.6161894884
 21
204.8675120291
 31
0.0
  0
LINE
  5
308
330
1F
100
AcDbEntity
  8
0
  6
CONTINUOUS
 62
     7
100
AcDbLine
 10
683.6761894884
 20
188.8675120291
 30
0.0
 11
664.6161894884
 21
188.8675120291
 31
0.0
  0
LINE
  5
309
330
1F
100
AcDbEntity
  8
0
  6
CONTINUOUS
 62
     7
100
AcDbLine
 10
683.6761894884
 20
204.8675120291
 30
0.0
 11
664.6161894884
 21
204.8675120291
 31
0.0
  0
LINE
  5
30A
330
1F
100
AcDbEntity
  8
0
  6
CONTINUOUS
 62
     7
100
AcDbLine
 10
112.6161894884
 20
188.8675120291
 30
0.0
 11
93.5561894884
 21
188.8675120291
 31
0.0
  0
LINE
  5
30B
330
1F
100
AcDbEntity
  8
0
  6
CONTINUOUS
 62
     7
100
AcDbLine
 10
112.6161894884
 20
204.8675120291
 30
0.0
 11
93.5561894884
 21
204.8675120291
 31
0.0
  0
CIRCLE
  5
30C
330
1F
100
AcDbEntity
  8
0
  6
CONTINUOUS
 62
     7
100
AcDbCircle
 10
148.6161894884
 20
242.3675120291
 30
0.0
 40
9.49999999999963
  0
CIRCLE
  5
30D
330
1F
100
AcDbEntity
  8
0
  6
CONTINUOUS
 62
     7
100
AcDbCircle
 10
148.6161894884
 20
242.3675120291
 30
0.0
 40
5.0
  0
CIRCLE
  5
30E
330
1F
100
AcDbEntity
  8
0
  6
CONTINUOUS
 62
     7
100
AcDbCircle
 10
148.6161894884
 20
242.367512029
 30
0.0
 40
9.99999999995623
  0
CIRCLE
  5
30F
330
1F
100
AcDbEntity
  8
0
  6
CONTINUOUS
 62
     7
100
AcDbCircle
 10
628.6161894884
 20
242.3675120291
 30
0.0
 40
9.49999999999963
  0
CIRCLE
  5
310
330
1F
100
AcDbEntity
  8
0
  6
CONTINUOUS
 62
     7
100
AcDbCircle
 10
628.6161894884
 20
242.3675120291
 30
0.0
 40
5.0
  0
CIRCLE
  5
311
330
1F
100
AcDbEntity
  8
0
  6
CONTINUOUS
 62
     7
100
AcDbCircle
 10
628.6161894884
 20
242.367512029
 30
0.0
 40
9.99999999995623
  0
LINE
  5
312
330
1F
100
AcDbEntity
  8
0
  6
CONTINUOUS
 62
     7
100
AcDbLine
 10
138.6161894884
 20
252.3675120291
 30
0.0
 11
138.6161894884
 21
258.3675120291
 31
0.0
  0
LINE
  5
313
330
1F
100
AcDbEntity
  8
0
  6
CONTINUOUS
 62
     7
100
AcDbLine
 10
638.6161894884
 20
258.3675120291
 30
0.0
 11
638.6161894884
 21
252.3675120291
 31
0.0
  0
LINE
  5
314
330
1F
100
AcDbEntity
  8
0
  6
CONTINUOUS
 62
     7
100
AcDbLine
 10
594.6161894884
 20
262.3675120291
 30
0.0
 11
567.3661894884
 21
262.3675120291
 31
0.0
  0
LINE
  5
315
330
1F
100
AcDbEntity
  8
0
  6
CONTINUOUS
 62
     7
100
AcDbLine
 10
489.8661894884
 20
262.3675120291
 30
0.0
 11
182.6161894884
 21
262.3675120291
 31
0.0
  0
LINE
  5
316
330
1F
100
AcDbEntity
  8
0
  6
CONTINUOUS
 62
     7
100
AcDbLine
 10
138.6161894884
 20
258.3675120291
 30
0.0
 11
138.6161894884
 21
262.3675120291
 31
0.0
  0
LINE
  5
317
330
1F
100
AcDbEntity
  8
0
  6
CONTINUOUS
 62
     7
100
AcDbLine
 10
638.6161894884
 20
262.3675120291
 30
0.0
 11
638.6161894884
 21
258.3675120291
 31
0.0
  0
LINE
  5
318
330
1F
100
AcDbEntity
  8
0
  6
CONTINUOUS
 62
     7
100
AcDbLine
 10
138.6161894884
 20
226.3675120294
 30
0.0
 11
138.6161894884
 21
232.3675120291
 31
0.0
  0
LINE
  5
319
330
1F
100
AcDbEntity
  8
0
  6
CONTINUOUS
 62
     7
100
AcDbLine
 10
638.6161894884
 20
232.3675120291
 30
0.0
 11
638.6161894884
 21
226.3675120294
 31
0.0
  0
LINE
  5
31A
330
1F
100
AcDbEntity
  8
0
  6
CONTINUOUS
 62
     7
100
AcDbLine
 10
594.6161894884
 20
222.3675120291
 30
0.0
 11
567.3661894884
 21
222.3675120291
 31
0.0
  0
LINE
  5
31B
330
1F
100
AcDbEntity
  8
0
  6
CONTINUOUS
 62
     7
100
AcDbLine
 10
489.8661894884
 20
222.3675120291
 30
0.0
 11
182.6161894884
 21
222.3675120291
 31
0.0
  0
LINE
  5
31C
330
1F
100
AcDbEntity
  8
0
  6
CONTINUOUS
 62
     7
100
AcDbLine
 10
138.6161894884
 20
222.3675120291
 30
0.0
 11
138.6161894884
 21
226.3675120294
 31
0.0
  0
LINE
  5
31D
330
1F
100
AcDbEntity
  8
0
  6
CONTINUOUS
 62
     7
100
AcDbLine
 10
638.6161894884
 20
226.3675120294
 30
0.0
 11
638.6161894884
 21
222.3675120291
 31
0.0
  0
CIRCLE
  5
31E
330
1F
100
AcDbEntity
  8
0
  6
CONTINUOUS
 62
     7
100
AcDbCircle
 10
148.6161894884
 20
242.3675120291
 30
0.0
 40
4.249999999999972
  0
LINE
  5
31F
330
1F
100
AcDbEntity
  8
0
  6
CONTINUOUS
 62
     7
100
AcDbLine
 10
147.46148895
 20
240.3675120291
 30
0.0
 11
146.3067884116
 21
242.3675120291
 31
0.0
  0
LINE
  5
320
330
1F
100
AcDbEntity
  8
0
  6
CONTINUOUS
 62
     7
100
AcDbLine
 10
149.7708900268
 20
240.3675120291
 30
0.0
 11
147.46148895
 21
240.3675120291
 31
0.0
  0
LINE
  5
321
330
1F
100
AcDbEntity
  8
0
  6
CONTINUOUS
 62
     7
100
AcDbLine
 10
150.9255905651
 20
242.3675120291
 30
0.0
 11
149.7708900268
 21
240.3675120291
 31
0.0
  0
LINE
  5
322
330
1F
100
AcDbEntity
  8
0
  6
CONTINUOUS
 62
     7
100
AcDbLine
 10
149.7708900268
 20
244.3675120291
 30
0.0
 11
150.9255905651
 21
242.3675120291
 31
0.0
  0
LINE
  5
323
330
1F
100
AcDbEntity
  8
0
  6
CONTINUOUS
 62
     7
100
AcDbLine
 10
147.46148895
 20
244.3675120291
 30
0.0
 11
149.7708900268
 21
244.3675120291
 31
0.0
  0
LINE
  5
324
330
1F
100
AcDbEntity
  8
0
  6
CONTINUOUS
 62
     7
100
AcDbLine
 10
146.3067884116
 20
242.3675120291
 30
0.0
 11
147.46148895
 21
244.3675120291
 31
0.0
  0
LINE
  5
325
330
1F
100
AcDbEntity
  8
0
  6
CONTINUOUS
 62
     7
100
AcDbLine
 10
627.46148895
 20
240.3675120291
 30
0.0
 11
626.3067884116
 21
242.3675120291
 31
0.0
  0
LINE
  5
326
330
1F
100
AcDbEntity
  8
0
  6
CONTINUOUS
 62
     7
100
AcDbLine
 10
629.7708900268
 20
240.3675120291
 30
0.0
 11
627.46148895
 21
240.3675120291
 31
0.0
  0
LINE
  5
327
330
1F
100
AcDbEntity
  8
0
  6
CONTINUOUS
 62
     7
100
AcDbLine
 10
630.9255905651
 20
242.3675120291
 30
0.0
 11
629.7708900268
 21
240.3675120291
 31
0.0
  0
LINE
  5
328
330
1F
100
AcDbEntity
  8
0
  6
CONTINUOUS
 62
     7
100
AcDbLine
 10
629.7708900268
 20
244.3675120291
 30
0.0
 11
630.9255905651
 21
242.3675120291
 31
0.0
  0
LINE
  5
329
330
1F
100
AcDbEntity
  8
0
  6
CONTINUOUS
 62
     7
100
AcDbLine
 10
627.46148895
 20
244.3675120291
 30
0.0
 11
629.7708900268
 21
244.3675120291
 31
0.0
  0
LINE
  5
32A
330
1F
100
AcDbEntity
  8
0
  6
CONTINUOUS
 62
     7
100
AcDbLine
 10
626.3067884116
 20
242.3675120291
 30
0.0
 11
627.46148895
 21
244.3675120291
 31
0.0
  0
CIRCLE
  5
32B
330
1F
100
AcDbEntity
  8
0
  6
CONTINUOUS
 62
     7
100
AcDbCircle
 10
628.6161894884
 20
242.3675120291
 30
0.0
 40
4.25
  0
CIRCLE
  5
32C
330
1F
100
AcDbEntity
  8
0
  6
CONTINUOUS
 62
     7
100
AcDbCircle
 10
548.6161894884
 20
215.8675120291
 30
0.0
 40
2.999999999999954
  0
SPLINE
  5
32D
330
1F
100
AcDbEntity
  8
0
  6
CONTINUOUS
 62
     7
100
AcDbSpline
210
0.0
220
0.0
230
1.0
 70
    24
 71
     3
 72
    10
 73
     6
 74
     0
 42
0.000000001
 43
0.00000001
 40
0.0
 40
0.0
 40
0.0
 40
0.0
 40
0.3682231157549766
 40
0.8735788607303263
 40
1.0
 40
1.0
 40
1.0
 40
1.0
 10
551.2708900267602
 20
214.7335374328588
 30
0.0
 10
550.9910591211333
 20
214.5236642536386
 30
0.0
 10
550.3271834618511
 20
214.025757509177
 30
0.0
 10
549.5311604620989
 20
213.4287402593629
 30
0.0
 10
549.0564753774721
 20
213.0727264458928
 30
0.0
 10
548.9614889500017
 20
213.0014866252899
 30
0.0
  0
SPLINE
  5
32E
330
1F
100
AcDbEntity
  8
0
  6
CONTINUOUS
 62
     7
100
AcDbSpline
210
0.0
220
0.0
230
1.0
 70
    24
 71
     3
 72
    11
 73
     7
 74
     0
 42
0.000000001
 43
0.00000001
 40
0.0
 40
0.0
 40
0.0
 40
0.0
 40
0.2645841206198403
 40
0.5349045111520656
 40
0.7653208126491203
 40
1.0
 40
1.0
 40
1.0
 40
1.0
 10
550.9255905651395
 20
217.5995628366433
 30
0.0
 10
550.9555577491556
 20
217.3508317489461
 30
0.0
 10
551.0161418154979
 20
216.8479770025566
 30
0.0
 10
551.1059095472835
 20
216.1028944630988
 30
0.0
 10
551.191727001645
 20
215.3905996824086
 30
0.0
 10
551.2443416033402
 20
214.9538924128374
 30
0.0
 10
551.2708900267602
 20
214.7335374328588
 30
0.0
  0
SPLINE
  5
32F
330
1F
100
AcDbEntity
  8
0
  6
CONTINUOUS
 62
     7
100
AcDbSpline
210
0.0
220
0.0
230
1.0
 70
    24
 71
     3
 72
    11
 73
     7
 74
     0
 42
0.000000001
 43
0.00000001
 40
0.0
 40
0.0
 40
0.0
 40
0.0
 40
0.264584120619841
 40
0.5349045111520659
 40
0.7653208126491164
 40
1.0
 40
1.0
 40
1.0
 40
1.0
 10
548.2708900267602
 20
218.7335374328588
 30
0.0
 10
548.501281059425
 20
218.6351242316481
 30
0.0
 10
548.967058077383
 20
218.4361641989704
 30
0.0
 10
549.6572023503626
 20
218.141364065408
 30
0.0
 10
550.316976452604
 20
217.8595367706279
 30
0.0
 10
550.7214833429176
 20
217.6867487175205
 30
0.0
 10
550.9255905651395
 20
217.5995628366433
 30
0.0
  0
SPLINE
  5
330
330
1F
100
AcDbEntity
  8
0
  6
CONTINUOUS
 62
     7
100
AcDbSpline
210
0.0
220
0.0
230
1.0
 70
    24
 71
     3
 72
    11
 73
     7
 74
     0
 42
0.000000001
 43
0.00000001
 40
0.0
 40
0.0
 40
0.0
 40
0.0
 40
0.1262147570318383
 40
0.376248427104438
 40
0.6323780076892096
 40
1.0
 40
1.0
 40
1.0
 40
1.0
 10
545.9614889500017
 20
217.0014866252899
 30
0.0
 10
546.0565708382118
 20
217.0727980414475
 30
0.0
 10
546.340011631717
 20
217.2853786365764
 30
0.0
 10
546.8290057036546
 20
217.6521241905297
 30
0.0
 10
547.516095699931
 20
218.167441687737
 30
0.0
 10
547.9909965497175
 20
218.5236173250768
 30
0.0
 10
548.2708900267602
 20
218.7335374328588
 30
0.0
  0
SPLINE
  5
331
330
1F
100
AcDbEntity
  8
0
  6
CONTINUOUS
 62
     7
100
AcDbSpline
210
0.0
220
0.0
230
1.0
 70
    24
 71
     3
 72
     9
 73
     5
 74
     0
 42
0.000000001
 43
0.00000001
 40
0.0
 40
0.0
 40
0.0
 40
0.0
 40
0.5346858623657046
 40
1.0
 40
1.0
 40
1.0
 40
1.0
 10
546.3067884116224
 20
214.1354612215055
 30
0.0
 10
546.2450966172834
 20
214.6475102381794
 30
0.0
 10
546.1297171044117
 20
215.6051735180878
 30
0.0
 10
546.0149102175542
 20
216.5580839359566
 30
0.0
 10
545.9614889500017
 20
217.0014866252899
 30
0.0
  0
SPLINE
  5
332
330
1F
100
AcDbEntity
  8
0
  6
CONTINUOUS
 62
     7
100
AcDbSpline
210
0.0
220
0.0
230
1.0
 70
    24
 71
     3
 72
     9
 73
     5
 74
     0
 42
0.000000001
 43
0.00000001
 40
0.0
 40
0.0
 40
0.0
 40
0.0
 40
0.5346858623657047
 40
1.0
 40
1.0
 40
1.0
 40
1.0
 10
548.9614889500017
 20
213.0014866252899
 30
0.0
 10
548.4871955964098
 20
213.2040844725242
 30
0.0
 10
547.6001451113017
 20
213.5829945232553
 30
0.0
 10
546.7174970384677
 20
213.9600240516417
 30
0.0
 10
546.3067884116224
 20
214.1354612215055
 30
0.0
  0
CIRCLE
  5
333
330
1F
100
AcDbEntity
  8
0
  6
CONTINUOUS
 62
     7
100
AcDbCircle
 10
548.6161894884
 20
215.8675120291
 30
0.0
 40
4.999999999999977
  0
CIRCLE
  5
334
330
1F
100
AcDbEntity
  8
0
  6
CONTINUOUS
 62
     7
100
AcDbCircle
 10
548.6161894884
 20
268.8675120291
 30
0.0
 40
2.999999999999957
  0
SPLINE
  5
335
330
1F
100
AcDbEntity
  8
0
  6
CONTINUOUS
 62
     7
100
AcDbSpline
210
0.0
220
0.0
230
1.0
 70
    24
 71
     3
 72
    10
 73
     6
 74
     0
 42
0.000000001
 43
0.00000001
 40
0.0
 40
0.0
 40
0.0
 40
0.0
 40
0.3682231157549797
 40
0.87357886073033
 40
1.0
 40
1.0
 40
1.0
 40
1.0
 10
550.5048397232723
 20
266.6843185828635
 30
0.0
 10
550.161318656304
 20
266.6183992105288
 30
0.0
 10
549.346343361492
 20
266.4620109564506
 30
0.0
 10
548.3691436858753
 20
266.2744929394893
 30
0.0
 10
547.786419178089
 20
266.1626720426333
 30
0.0
 10
547.6698136200323
 20
266.1402962236896
 30
0.0
  0
SPLINE
  5
336
330
1F
100
AcDbEntity
  8
0
  6
CONTINUOUS
 62
     7
100
AcDbSpline
210
0.0
220
0.0
230
1.0
 70
    24
 71
     3
 72
    11
 73
     7
 74
     0
 42
0.000000001
 43
0.00000001
 40
0.0
 40
0.0
 40
0.0
 40
0.0
 40
0.2645841206198401
 40
0.5349045111520663
 40
0.7653208126491217
 40
1.0
 40
1.0
 40
1.0
 40
1.0
 10
551.4512155916209
 20
269.4115343882484
 30
0.0
 10
551.3690833471566
 20
269.1748500403837
 30
0.0
 10
551.2030382044167
 20
268.6963499509025
 30
0.0
 10
550.9570082375016
 20
267.9873538355009
 30
0.0
 10
550.7218049518972
 20
267.3095574763248
 30
0.0
 10
550.5776020355836
 20
266.8940011569953
 30
0.0
 10
550.5048397232723
 20
266.6843185828635
 30
0.0
  0
SPLINE
  5
337
330
1F
100
AcDbEntity
  8
0
  6
CONTINUOUS
 62
     7
100
AcDbSpline
210
0.0
220
0.0
230
1.0
 70
    24
 71
     3
 72
    11
 73
     7
 74
     0
 42
0.000000001
 43
0.00000001
 40
0.0
 40
0.0
 40
0.0
 40
0.0
 40
0.1262147570318364
 40
0.376248427104437
 40
0.6323780076892076
 40
1.0
 40
1.0
 40
1.0
 40
1.0
 10
546.7275392534896
 20
271.0507054752853
 30
0.0
 10
546.844261999371
 20
271.073103781781
 30
0.0
 10
547.192214573048
 20
271.1398735303191
 30
0.0
 10
547.7925048267524
 20
271.2550651751637
 30
0.0
 10
548.6359780953511
 20
271.4169219979135
 30
0.0
 10
549.2189674769467
 20
271.5287937222643
 30
0.0
 10
549.5625653567296
 20
271.5947278344592
 30
0.0
  0
SPLINE
  5
338
330
1F
100
AcDbEntity
  8
0
  6
CONTINUOUS
 62
     7
100
AcDbSpline
210
0.0
220
0.0
230
1.0
 70
    24
 71
     3
 72
     9
 73
     5
 74
     0
 42
0.000000001
 43
0.00000001
 40
0.0
 40
0.0
 40
0.0
 40
0.0
 40
0.5346858623657047
 40
1.0
 40
1.0
 40
1.0
 40
1.0
 10
545.781163385141
 20
268.3234896699005
 30
0.0
 10
545.9502445217394
 20
268.8107387255301
 30
0.0
 10
546.2664697083384
 20
269.7220197036242
 30
0.0
 10
546.5811254762106
 20
270.6287780140341
 30
0.0
 10
546.7275392534896
 20
271.0507054752853
 30
0.0
  0
SPLINE
  5
339
330
1F
100
AcDbEntity
  8
0
  6
CONTINUOUS
 62
     7
100
AcDbSpline
210
0.0
220
0.0
230
1.0
 70
    24
 71
     3
 72
     9
 73
     5
 74
     0
 42
0.000000001
 43
0.00000001
 40
0.0
 40
0.0
 40
0.0
 40
0.0
 40
0.5346858623657084
 40
1.0
 40
1.0
 40
1.0
 40
1.0
 10
547.6698136200323
 20
266.1402962236896
 30
0.0
 10
547.3323841281863
 20
266.5303493110994
 30
0.0
 10
546.7013042444707
 20
267.2598488450575
 30
0.0
 10
546.0733563964991
 20
267.9857278886871
 30
0.0
 10
545.781163385141
 20
268.3234896699005
 30
0.0
  0
SPLINE
  5
33A
330
1F
100
AcDbEntity
  8
0
  6
CONTINUOUS
 62
     7
100
AcDbSpline
210
0.0
220
0.0
230
1.0
 70
    24
 71
     3
 72
    11
 73
     7
 74
     0
 42
0.000000001
 43
0.00000001
 40
0.0
 40
0.0
 40
0.0
 40
0.0
 40
0.2645841206198404
 40
0.5349045111520699
 40
0.7653208126491191
 40
1.0
 40
1.0
 40
1.0
 40
1.0
 10
549.5625653567296
 20
271.5947278344592
 30
0.0
 10
549.7264738924264
 20
271.4052570503509
 30
0.0
 10
550.0578445542602
 20
271.0222076938225
 30
0.0
 10
550.548838217925
 20
270.454641434681
 30
0.0
 10
551.0182254407619
 20
269.912051234706
 30
0.0
 10
551.3060063118476
 20
269.5793896862139
 30
0.0
 10
551.4512155916209
 20
269.4115343882484
 30
0.0
  0
CIRCLE
  5
33B
330
1F
100
AcDbEntity
  8
0
  6
CONTINUOUS
 62
     7
100
AcDbCircle
 10
548.6161894884
 20
268.8675120291
 30
0.0
 40
4.999999999999955
  0
CIRCLE
  5
33C
330
1F
100
AcDbEntity
  8
0
  6
CONTINUOUS
 62
     7
100
AcDbCircle
 10
508.6161894884
 20
268.8675120291
 30
0.0
 40
3.0
  0
SPLINE
  5
33D
330
1F
100
AcDbEntity
  8
0
  6
CONTINUOUS
 62
     7
100
AcDbSpline
210
0.0
220
0.0
230
1.0
 70
    24
 71
     3
 72
    10
 73
     6
 74
     0
 42
0.000000001
 43
0.00000001
 40
0.0
 40
0.0
 40
0.0
 40
0.0
 40
0.3682231157549755
 40
0.8735788607303241
 40
1.0
 40
1.0
 40
1.0
 40
1.0
 10
510.059565161355
 20
266.3675120290744
 30
0.0
 10
509.7097765293212
 20
266.3675120290744
 30
0.0
 10
508.8799319552185
 20
266.3675120290744
 30
0.0
 10
507.8849032055285
 20
266.3675120290744
 30
0.0
 10
507.291546849745
 20
266.3675120290744
 30
0.0
 10
507.1728138154069
 20
266.3675120290744
 30
0.0
  0
SPLINE
  5
33E
330
1F
100
AcDbEntity
  8
0
  6
CONTINUOUS
 62
     7
100
AcDbSpline
210
0.0
220
0.0
230
1.0
 70
    24
 71
     3
 72
    11
 73
     7
 74
     0
 42
0.000000001
 43
0.00000001
 40
0.0
 40
0.0
 40
0.0
 40
0.0
 40
0.2645841206198389
 40
0.5349045111520646
 40
0.7653208126491196
 40
1.0
 40
1.0
 40
1.0
 40
1.0
 10
511.5029408343291
 20
268.8675120290744
 30
0.0
 10
511.3776759289237
 20
268.650546848507
 30
0.0
 10
511.1244303341639
 20
268.2119126115899
 30
0.0
 10
510.7491949959177
 20
267.5619859409523
 30
0.0
 10
510.3904720909928
 20
266.9406596437834
 30
0.0
 10
510.1705394106062
 20
266.5597250671092
 30
0.0
 10
510.059565161355
 20
266.3675120290744
 30
0.0
  0
SPLINE
  5
33F
330
1F
100
AcDbEntity
  8
0
  6
CONTINUOUS
 62
     7
100
AcDbSpline
210
0.0
220
0.0
230
1.0
 70
    24
 71
     3
 72
    11
 73
     7
 74
     0
 42
0.000000001
 43
0.00000001
 40
0.0
 40
0.0
 40
0.0
 40
0.0
 40
0.1262147570318339
 40
0.3762484271044326
 40
0.6323780076892025
 40
0.9999999999999999
 40
0.9999999999999999
 40
0.9999999999999999
 40
0.9999999999999999
 10
507.1728138154069
 20
271.3675120290744
 30
0.0
 10
507.2916661756694
 20
271.3675120290744
 30
0.0
 10
507.6459671675511
 20
271.3675120290744
 30
0.0
 10
508.257209757473
 20
271.3675120290744
 30
0.0
 10
509.1160722528188
 20
271.3675120290744
 30
0.0
 10
509.7096983150518
 20
271.3675120290744
 30
0.0
 10
510.059565161355
 20
271.3675120290744
 30
0.0
  0
SPLINE
  5
340
330
1F
100
AcDbEntity
  8
0
  6
CONTINUOUS
 62
     7
100
AcDbSpline
210
0.0
220
0.0
230
1.0
 70
    24
 71
     3
 72
     9
 73
     5
 74
     0
 42
0.000000001
 43
0.00000001
 40
0.0
 40
0.0
 40
0.0
 40
0.0
 40
0.5346858623657058
 40
1.0
 40
1.0
 40
1.0
 40
1.0
 10
507.1728138154069
 20
266.3675120290744
 30
0.0
 10
506.9149378408738
 20
266.8141663190169
 30
0.0
 10
506.432643483226
 20
267.6495246506667
 30
0.0
 10
505.9527427419907
 20
268.4807371170762
 30
0.0
 10
505.7294381424329
 20
268.8675120290744
 30
0.0
  0
SPLINE
  5
341
330
1F
100
AcDbEntity
  8
0
  6
CONTINUOUS
 62
     7
100
AcDbSpline
210
0.0
220
0.0
230
1.0
 70
    24
 71
     3
 72
     9
 73
     5
 74
     0
 42
0.000000001
 43
0.00000001
 40
0.0
 40
0.0
 40
0.0
 40
0.0
 40
0.5346858623657036
 40
1.0
 40
1.0
 40
1.0
 40
1.0
 10
505.7294381424329
 20
268.8675120290744
 30
0.0
 10
505.9873141169658
 20
269.3141663190169
 30
0.0
 10
506.4696084746137
 20
270.1495246506667
 30
0.0
 10
506.9495092158489
 20
270.9807371170762
 30
0.0
 10
507.1728138154069
 20
271.3675120290744
 30
0.0
  0
SPLINE
  5
342
330
1F
100
AcDbEntity
  8
0
  6
CONTINUOUS
 62
     7
100
AcDbSpline
210
0.0
220
0.0
230
1.0
 70
    24
 71
     3
 72
    11
 73
     7
 74
     0
 42
0.000000001
 43
0.00000001
 40
0.0
 40
0.0
 40
0.0
 40
0.0
 40
0.2645841206198419
 40
0.5349045111520673
 40
0.7653208126491197
 40
1.0
 40
1.0
 40
1.0
 40
1.0
 10
510.059565161355
 20
271.3675120290744
 30
0.0
 10
510.1848300667604
 20
271.150546848507
 30
0.0
 10
510.4380756615202
 20
270.7119126115899
 30
0.0
 10
510.8133109997664
 20
270.0619859409523
 30
0.0
 10
511.1720339046914
 20
269.4406596437834
 30
0.0
 10
511.3919665850779
 20
269.0597250671092
 30
0.0
 10
511.5029408343291
 20
268.8675120290744
 30
0.0
  0
CIRCLE
  5
343
330
1F
100
AcDbEntity
  8
0
  6
CONTINUOUS
 62
     7
100
AcDbCircle
 10
508.6161894884
 20
268.8675120291
 30
0.0
 40
5.0
  0
CIRCLE
  5
344
330
1F
100
AcDbEntity
  8
0
  6
CONTINUOUS
 62
     7
100
AcDbCircle
 10
508.6161894884
 20
215.8675120291
 30
0.0
 40
2.999999999999992
  0
SPLINE
  5
345
330
1F
100
AcDbEntity
  8
0
  6
CONTINUOUS
 62
     7
100
AcDbSpline
210
0.0
220
0.0
230
1.0
 70
    24
 71
     3
 72
    10
 73
     6
 74
     0
 42
0.000000001
 43
0.00000001
 40
0.0
 40
0.0
 40
0.0
 40
0.0
 40
0.3682231157549738
 40
0.8735788607303238
 40
1.0
 40
1.0
 40
1.0
 40
1.0
 10
510.9310710002373
 20
214.1427926549734
 30
0.0
 10
510.6098373451885
 20
214.0043692972476
 30
0.0
 10
509.8477370902105
 20
213.6759713396868
 30
0.0
 10
508.9339374613231
 20
213.2822043388411
 30
0.0
 10
508.3890197211253
 20
213.0473928796523
 30
0.0
 10
508.2799794519385
 20
213.0004061460054
 30
0.0
  0
SPLINE
  5
346
330
1F
100
AcDbEntity
  8
0
  6
CONTINUOUS
 62
     7
100
AcDbSpline
210
0.0
220
0.0
230
1.0
 70
    24
 71
     3
 72
    11
 73
     7
 74
     0
 42
0.000000001
 43
0.00000001
 40
0.0
 40
0.0
 40
0.0
 40
0.0
 40
0.26458412061984
 40
0.5349045111520666
 40
0.7653208126491209
 40
1.0
 40
1.0
 40
1.0
 40
1.0
 10
511.2672810366797
 20
217.0098985380423
 30
0.0
 10
511.2381026881736
 20
216.7610736797919
 30
0.0
 10
511.1791133950621
 20
216.2580293593199
 30
0.0
 10
511.0917086472141
 20
215.5126659269404
 30
0.0
 10
511.0081501924086
 20
214.8001026141731
 30
0.0
 10
510.9569205812462
 20
214.3632307078342
 30
0.0
 10
510.9310710002373
 20
214.1427926549734
 30
0.0
  0
SPLINE
  5
347
330
1F
100
AcDbEntity
  8
0
  6
CONTINUOUS
 62
     7
100
AcDbSpline
210
0.0
220
0.0
230
1.0
 70
    24
 71
     3
 72
    11
 73
     7
 74
     0
 42
0.000000001
 43
0.00000001
 40
0.0
 40
0.0
 40
0.0
 40
0.0
 40
0.2645841206198389
 40
0.5349045111520675
 40
0.7653208126491191
 40
1.0
 40
1.0
 40
1.0
 40
1.0
 10
508.9523995248235
 20
218.7346179121434
 30
0.0
 10
509.1532989989084
 20
218.5849362919714
 30
0.0
 10
509.559453513111
 20
218.2823279053495
 30
0.0
 10
510.1612548066794
 20
217.833951457112
 30
0.0
 10
510.7365735099381
 20
217.4053060561657
 30
0.0
 10
511.0893008734459
 20
217.1425039583037
 30
0.0
 10
511.2672810366798
 20
217.0098985380423
 30
0.0
  0
SPLINE
  5
348
330
1F
100
AcDbEntity
  8
0
  6
CONTINUOUS
 62
     7
100
AcDbSpline
210
0.0
220
0.0
230
1.0
 70
    24
 71
     3
 72
    11
 73
     7
 74
     0
 42
0.000000001
 43
0.00000001
 40
0.0
 40
0.0
 40
0.0
 40
0.0
 40
0.1262147570318334
 40
0.3762484271044367
 40
0.6323780076892047
 40
1.0
 40
1.0
 40
1.0
 40
1.0
 10
506.3013079765248
 20
217.5922314031754
 30
0.0
 10
506.4104578304704
 20
217.6392653581829
 30
0.0
 10
506.7358354791027
 20
217.7794744114522
 30
0.0
 10
507.2971793116351
 20
218.0213640668996
 30
0.0
 10
508.0859286113479
 20
218.3612454110682
 30
0.0
 10
508.6310940405231
 20
218.5961636023487
 30
0.0
 10
508.9523995248235
 20
218.7346179121434
 30
0.0
  0
SPLINE
  5
349
330
1F
100
AcDbEntity
  8
0
  6
CONTINUOUS
 62
     7
100
AcDbSpline
210
0.0
220
0.0
230
1.0
 70
    24
 71
     3
 72
     9
 73
     5
 74
     0
 42
0.000000001
 43
0.00000001
 40
0.0
 40
0.0
 40
0.0
 40
0.0
 40
0.5346858623657055
 40
1.0
 40
1.0
 40
1.0
 40
1.0
 10
505.9650979400822
 20
214.7251255201064
 30
0.0
 10
506.0251658021218
 20
215.2373675770633
 30
0.0
 10
506.1375081441723
 20
216.1953918919208
 30
0.0
 10
506.2492929336215
 20
217.14866155293
 30
0.0
 10
506.3013079765248
 20
217.5922314031754
 30
0.0
  0
SPLINE
  5
34A
330
1F
100
AcDbEntity
  8
0
  6
CONTINUOUS
 62
     7
100
AcDbSpline
210
0.0
220
0.0
230
1.0
 70
    24
 71
     3
 72
     9
 73
     5
 74
     0
 42
0.000000001
 43
0.00000001
 40
0.0
 40
0.0
 40
0.0
 40
0.0
 40
0.5346858623657065
 40
0.9999999999999999
 40
0.9999999999999999
 40
0.9999999999999999
 40
0.9999999999999999
 10
508.2799794519385
 20
213.0004061460054
 30
0.0
 10
507.8663987487467
 20
213.3085474689611
 30
0.0
 10
507.0928965256622
 20
213.8848509485263
 30
0.0
 10
506.323233177296
 20
214.4582942464506
 30
0.0
 10
505.9650979400822
 20
214.7251255201064
 30
0.0
  0
CIRCLE
  5
34B
330
1F
100
AcDbEntity
  8
0
  6
CONTINUOUS
 62
     7
100
AcDbCircle
 10
508.6161894884
 20
215.8675120291
 30
0.0
 40
5.000000000000016
  0
CIRCLE
  5
34C
330
1F
100
AcDbEntity
  8
0
  6
CONTINUOUS
 62
     7
100
AcDbCircle
 10
558.6161894884
 20
207.3675120291
 30
0.0
 40
1.80000000000004
  0
SPLINE
  5
34D
330
1F
100
AcDbEntity
  8
0
  6
CONTINUOUS
 62
     7
100
AcDbSpline
210
0.0
220
0.0
230
1.0
 70
    24
 71
     3
 72
    10
 73
     6
 74
     0
 42
0.000000001
 43
0.00000001
 40
0.0
 40
0.0
 40
0.0
 40
0.0
 40
0.3682231157549716
 40
0.8735788607303296
 40
1.0
 40
1.0
 40
1.0
 40
1.0
 10
559.4822148921654
 20
205.8675120290744
 30
0.0
 10
559.2723417129451
 20
205.8675120290744
 30
0.0
 10
558.7744349684835
 20
205.8675120290744
 30
0.0
 10
558.1774177186695
 20
205.8675120290744
 30
0.0
 10
557.8214039051993
 20
205.8675120290744
 30
0.0
 10
557.7501640845966
 20
205.8675120290744
 30
0.0
  0
SPLINE
  5
34E
330
1F
100
AcDbEntity
  8
0
  6
CONTINUOUS
 62
     7
100
AcDbSpline
210
0.0
220
0.0
230
1.0
 70
    24
 71
     3
 72
     9
 73
     5
 74
     0
 42
0.000000001
 43
0.00000001
 40
0.0
 40
0.0
 40
0.0
 40
0.0
 40
0.5346452858182242
 40
0.9999999999999999
 40
0.9999999999999999
 40
0.9999999999999999
 40
0.9999999999999999
 10
560.3482402959498
 20
207.3675120290744
 30
0.0
 10
560.1935268805078
 20
207.0995405329161
 30
0.0
 10
559.9041510652784
 20
206.5983269184573
 30
0.0
 10
559.6162097436111
 20
206.0995979197309
 30
0.0
 10
559.4822148921654
 20
205.8675120290744
 30
0.0
  0
SPLINE
  5
34F
330
1F
100
AcDbEntity
  8
0
  6
CONTINUOUS
 62
     7
100
AcDbSpline
210
0.0
220
0.0
230
1.0
 70
    24
 71
     3
 72
    10
 73
     6
 74
     0
 42
0.000000001
 43
0.00000001
 40
0.0
 40
0.0
 40
0.0
 40
0.0
 40
0.1264211392696704
 40
0.6317768842450284
 40
1.0
 40
1.0
 40
1.0
 40
1.0
 10
557.7501640845966
 20
208.8675120290744
 30
0.0
 10
557.8214039051994
 20
208.8675120290744
 30
0.0
 10
558.1774177186695
 20
208.8675120290744
 30
0.0
 10
558.7744349684835
 20
208.8675120290744
 30
0.0
 10
559.2723417129451
 20
208.8675120290744
 30
0.0
 10
559.4822148921654
 20
208.8675120290744
 30
0.0
  0
SPLINE
  5
350
330
1F
100
AcDbEntity
  8
0
  6
CONTINUOUS
 62
     7
100
AcDbSpline
210
0.0
220
0.0
230
1.0
 70
    24
 71
     3
 72
     9
 73
     5
 74
     0
 42
0.000000001
 43
0.00000001
 40
0.0
 40
0.0
 40
0.0
 40
0.0
 40
0.5346452858182165
 40
1.0
 40
1.0
 40
1.0
 40
1.0
 10
557.7501640845966
 20
205.8675120290744
 30
0.0
 10
557.5954506691544
 20
206.1354835252327
 30
0.0
 10
557.306074853925
 20
206.6366971396915
 30
0.0
 10
557.0181335322577
 20
207.1354261384179
 30
0.0
 10
556.8841386808122
 20
207.3675120290744
 30
0.0
  0
SPLINE
  5
351
330
1F
100
AcDbEntity
  8
0
  6
CONTINUOUS
 62
     7
100
AcDbSpline
210
0.0
220
0.0
230
1.0
 70
    24
 71
     3
 72
     9
 73
     5
 74
     0
 42
0.000000001
 43
0.00000001
 40
0.0
 40
0.0
 40
0.0
 40
0.0
 40
0.5346452858182242
 40
0.9999999999999999
 40
0.9999999999999999
 40
0.9999999999999999
 40
0.9999999999999999
 10
556.8841386808122
 20
207.3675120290744
 30
0.0
 10
557.0388520962542
 20
207.6354835252327
 30
0.0
 10
557.3282279114835
 20
208.1366971396914
 30
0.0
 10
557.6161692331509
 20
208.6354261384179
 30
0.0
 10
557.7501640845966
 20
208.8675120290744
 30
0.0
  0
SPLINE
  5
352
330
1F
100
AcDbEntity
  8
0
  6
CONTINUOUS
 62
     7
100
AcDbSpline
210
0.0
220
0.0
230
1.0
 70
    24
 71
     3
 72
     9
 73
     5
 74
     0
 42
0.000000001
 43
0.00000001
 40
0.0
 40
0.0
 40
0.0
 40
0.0
 40
0.5346452858182165
 40
1.0
 40
1.0
 40
1.0
 40
1.0
 10
559.4822148921654
 20
208.8675120290744
 30
0.0
 10
559.6369283076076
 20
208.5995405329161
 30
0.0
 10
559.9263041228369
 20
208.0983269184573
 30
0.0
 10
560.2142454445042
 20
207.5995979197309
 30
0.0
 10
560.3482402959498
 20
207.3675120290744
 30
0.0
  0
CIRCLE
  5
353
330
1F
100
AcDbEntity
  8
0
  6
CONTINUOUS
 62
     7
100
AcDbCircle
 10
558.6161894884
 20
207.3675120291
 30
0.0
 40
3.5
  0
CIRCLE
  5
354
330
1F
100
AcDbEntity
  8
0
  6
CONTINUOUS
 62
     7
100
AcDbCircle
 10
498.6161894884
 20
185.3675120291
 30
0.0
 40
1.799999999999983
  0
SPLINE
  5
355
330
1F
100
AcDbEntity
  8
0
  6
CONTINUOUS
 62
     7
100
AcDbSpline
210
0.0
220
0.0
230
1.0
 70
    24
 71
     3
 72
    10
 73
     6
 74
     0
 42
0.000000001
 43
0.00000001
 40
0.0
 40
0.0
 40
0.0
 40
0.0
 40
0.3682231157549795
 40
0.8735788607303219
 40
1.0
 40
1.0
 40
1.0
 40
1.0
 10
499.4822148921654
 20
183.8675120290744
 30
0.0
 10
499.2723417129451
 20
183.8675120290744
 30
0.0
 10
498.7744349684835
 20
183.8675120290744
 30
0.0
 10
498.1774177186695
 20
183.8675120290743
 30
0.0
 10
497.8214039051994
 20
183.8675120290744
 30
0.0
 10
497.7501640845965
 20
183.8675120290744
 30
0.0
  0
SPLINE
  5
356
330
1F
100
AcDbEntity
  8
0
  6
CONTINUOUS
 62
     7
100
AcDbSpline
210
0.0
220
0.0
230
1.0
 70
    24
 71
     3
 72
     9
 73
     5
 74
     0
 42
0.000000001
 43
0.00000001
 40
0.0
 40
0.0
 40
0.0
 40
0.0
 40
0.5346452858182223
 40
0.9999999999999999
 40
0.9999999999999999
 40
0.9999999999999999
 40
0.9999999999999999
 10
500.3482402959498
 20
185.3675120290744
 30
0.0
 10
500.1935268805076
 20
185.0995405329161
 30
0.0
 10
499.9041510652784
 20
184.5983269184573
 30
0.0
 10
499.616209743611
 20
184.0995979197309
 30
0.0
 10
499.4822148921654
 20
183.8675120290744
 30
0.0
  0
SPLINE
  5
357
330
1F
100
AcDbEntity
  8
0
  6
CONTINUOUS
 62
     7
100
AcDbSpline
210
0.0
220
0.0
230
1.0
 70
    24
 71
     3
 72
    10
 73
     6
 74
     0
 42
0.000000001
 43
0.00000001
 40
0.0
 40
0.0
 40
0.0
 40
0.0
 40
0.1264211392696781
 40
0.6317768842450205
 40
1.0
 40
1.0
 40
1.0
 40
1.0
 10
497.7501640845965
 20
186.8675120290744
 30
0.0
 10
497.8214039051994
 20
186.8675120290744
 30
0.0
 10
498.1774177186695
 20
186.8675120290743
 30
0.0
 10
498.7744349684835
 20
186.8675120290744
 30
0.0
 10
499.2723417129451
 20
186.8675120290744
 30
0.0
 10
499.4822148921654
 20
186.8675120290744
 30
0.0
  0
SPLINE
  5
358
330
1F
100
AcDbEntity
  8
0
  6
CONTINUOUS
 62
     7
100
AcDbSpline
210
0.0
220
0.0
230
1.0
 70
    24
 71
     3
 72
     9
 73
     5
 74
     0
 42
0.000000001
 43
0.00000001
 40
0.0
 40
0.0
 40
0.0
 40
0.0
 40
0.5346452858182223
 40
0.9999999999999999
 40
0.9999999999999999
 40
0.9999999999999999
 40
0.9999999999999999
 10
497.7501640845965
 20
183.8675120290744
 30
0.0
 10
497.5954506691543
 20
184.1354835252327
 30
0.0
 10
497.3060748539251
 20
184.6366971396915
 30
0.0
 10
497.0181335322577
 20
185.1354261384179
 30
0.0
 10
496.8841386808121
 20
185.3675120290744
 30
0.0
  0
SPLINE
  5
359
330
1F
100
AcDbEntity
  8
0
  6
CONTINUOUS
 62
     7
100
AcDbSpline
210
0.0
220
0.0
230
1.0
 70
    24
 71
     3
 72
     9
 73
     5
 74
     0
 42
0.000000001
 43
0.00000001
 40
0.0
 40
0.0
 40
0.0
 40
0.0
 40
0.5346452858182223
 40
0.9999999999999999
 40
0.9999999999999999
 40
0.9999999999999999
 40
0.9999999999999999
 10
499.4822148921654
 20
186.8675120290744
 30
0.0
 10
499.6369283076075
 20
186.5995405329161
 30
0.0
 10
499.9263041228368
 20
186.0983269184573
 30
0.0
 10
500.2142454445042
 20
185.5995979197309
 30
0.0
 10
500.3482402959498
 20
185.3675120290744
 30
0.0
  0
SPLINE
  5
35A
330
1F
100
AcDbEntity
  8
0
  6
CONTINUOUS
 62
     7
100
AcDbSpline
210
0.0
220
0.0
230
1.0
 70
    24
 71
     3
 72
     9
 73
     5
 74
     0
 42
0.000000001
 43
0.00000001
 40
0.0
 40
0.0
 40
0.0
 40
0.0
 40
0.5346452858182223
 40
0.9999999999999999
 40
0.9999999999999999
 40
0.9999999999999999
 40
0.9999999999999999
 10
496.8841386808121
 20
185.3675120290744
 30
0.0
 10
497.0388520962542
 20
185.6354835252327
 30
0.0
 10
497.3282279114835
 20
186.1366971396915
 30
0.0
 10
497.6161692331509
 20
186.6354261384179
 30
0.0
 10
497.7501640845965
 20
186.8675120290744
 30
0.0
  0
CIRCLE
  5
35B
330
1F
100
AcDbEntity
  8
0
  6
CONTINUOUS
 62
     7
100
AcDbCircle
 10
498.6161894884
 20
185.3675120291
 30
0.0
 40
3.5
  0
CIRCLE
  5
35C
330
1F
100
AcDbEntity
  8
0
  6
CONTINUOUS
 62
     7
100
AcDbCircle
 10
498.6161894884
 20
207.3675120291
 30
0.0
 40
1.80000000000004
  0
SPLINE
  5
35D
330
1F
100
AcDbEntity
  8
0
  6
CONTINUOUS
 62
     7
100
AcDbSpline
210
0.0
220
0.0
230
1.0
 70
    24
 71
     3
 72
    10
 73
     6
 74
     0
 42
0.000000001
 43
0.00000001
 40
0.0
 40
0.0
 40
0.0
 40
0.0
 40
0.3682231157549795
 40
0.8735788607303219
 40
1.0
 40
1.0
 40
1.0
 40
1.0
 10
499.4822148921654
 20
205.8675120290744
 30
0.0
 10
499.2723417129451
 20
205.8675120290744
 30
0.0
 10
498.7744349684835
 20
205.8675120290744
 30
0.0
 10
498.1774177186695
 20
205.8675120290744
 30
0.0
 10
497.8214039051994
 20
205.8675120290744
 30
0.0
 10
497.7501640845965
 20
205.8675120290744
 30
0.0
  0
SPLINE
  5
35E
330
1F
100
AcDbEntity
  8
0
  6
CONTINUOUS
 62
     7
100
AcDbSpline
210
0.0
220
0.0
230
1.0
 70
    24
 71
     3
 72
     9
 73
     5
 74
     0
 42
0.000000001
 43
0.00000001
 40
0.0
 40
0.0
 40
0.0
 40
0.0
 40
0.5346452858182223
 40
0.9999999999999999
 40
0.9999999999999999
 40
0.9999999999999999
 40
0.9999999999999999
 10
500.3482402959498
 20
207.3675120290744
 30
0.0
 10
500.1935268805076
 20
207.0995405329161
 30
0.0
 10
499.9041510652784
 20
206.5983269184573
 30
0.0
 10
499.616209743611
 20
206.0995979197309
 30
0.0
 10
499.4822148921654
 20
205.8675120290744
 30
0.0
  0
SPLINE
  5
35F
330
1F
100
AcDbEntity
  8
0
  6
CONTINUOUS
 62
     7
100
AcDbSpline
210
0.0
220
0.0
230
1.0
 70
    24
 71
     3
 72
    10
 73
     6
 74
     0
 42
0.000000001
 43
0.00000001
 40
0.0
 40
0.0
 40
0.0
 40
0.0
 40
0.1264211392696781
 40
0.6317768842450205
 40
1.0
 40
1.0
 40
1.0
 40
1.0
 10
497.7501640845965
 20
208.8675120290744
 30
0.0
 10
497.8214039051994
 20
208.8675120290744
 30
0.0
 10
498.1774177186695
 20
208.8675120290744
 30
0.0
 10
498.7744349684835
 20
208.8675120290744
 30
0.0
 10
499.2723417129451
 20
208.8675120290744
 30
0.0
 10
499.4822148921654
 20
208.8675120290744
 30
0.0
  0
SPLINE
  5
360
330
1F
100
AcDbEntity
  8
0
  6
CONTINUOUS
 62
     7
100
AcDbSpline
210
0.0
220
0.0
230
1.0
 70
    24
 71
     3
 72
     9
 73
     5
 74
     0
 42
0.000000001
 43
0.00000001
 40
0.0
 40
0.0
 40
0.0
 40
0.0
 40
0.5346452858182223
 40
0.9999999999999999
 40
0.9999999999999999
 40
0.9999999999999999
 40
0.9999999999999999
 10
497.7501640845965
 20
205.8675120290744
 30
0.0
 10
497.5954506691543
 20
206.1354835252327
 30
0.0
 10
497.3060748539251
 20
206.6366971396914
 30
0.0
 10
497.0181335322577
 20
207.1354261384179
 30
0.0
 10
496.8841386808121
 20
207.3675120290744
 30
0.0
  0
SPLINE
  5
361
330
1F
100
AcDbEntity
  8
0
  6
CONTINUOUS
 62
     7
100
AcDbSpline
210
0.0
220
0.0
230
1.0
 70
    24
 71
     3
 72
     9
 73
     5
 74
     0
 42
0.000000001
 43
0.00000001
 40
0.0
 40
0.0
 40
0.0
 40
0.0
 40
0.5346452858182223
 40
0.9999999999999999
 40
0.9999999999999999
 40
0.9999999999999999
 40
0.9999999999999999
 10
496.8841386808121
 20
207.3675120290744
 30
0.0
 10
497.0388520962542
 20
207.6354835252327
 30
0.0
 10
497.3282279114835
 20
208.1366971396915
 30
0.0
 10
497.6161692331509
 20
208.6354261384179
 30
0.0
 10
497.7501640845965
 20
208.8675120290744
 30
0.0
  0
SPLINE
  5
362
330
1F
100
AcDbEntity
  8
0
  6
CONTINUOUS
 62
     7
100
AcDbSpline
210
0.0
220
0.0
230
1.0
 70
    24
 71
     3
 72
     9
 73
     5
 74
     0
 42
0.000000001
 43
0.00000001
 40
0.0
 40
0.0
 40
0.0
 40
0.0
 40
0.5346452858182223
 40
0.9999999999999999
 40
0.9999999999999999
 40
0.9999999999999999
 40
0.9999999999999999
 10
499.4822148921654
 20
208.8675120290744
 30
0.0
 10
499.6369283076075
 20
208.5995405329161
 30
0.0
 10
499.9263041228368
 20
208.0983269184573
 30
0.0
 10
500.2142454445042
 20
207.5995979197309
 30
0.0
 10
500.3482402959498
 20
207.3675120290744
 30
0.0
  0
CIRCLE
  5
363
330
1F
100
AcDbEntity
  8
0
  6
CONTINUOUS
 62
     7
100
AcDbCircle
 10
498.6161894884
 20
207.3675120291
 30
0.0
 40
3.5
  0
CIRCLE
  5
364
330
1F
100
AcDbEntity
  8
0
  6
CONTINUOUS
 62
     7
100
AcDbCircle
 10
528.6161894884
 20
185.3675120291
 30
0.0
 40
1.799999999999983
  0
SPLINE
  5
365
330
1F
100
AcDbEntity
  8
0
  6
CONTINUOUS
 62
     7
100
AcDbSpline
210
0.0
220
0.0
230
1.0
 70
    24
 71
     3
 72
    10
 73
     6
 74
     0
 42
0.000000001
 43
0.00000001
 40
0.0
 40
0.0
 40
0.0
 40
0.0
 40
0.3682231157549716
 40
0.8735788607303296
 40
1.0
 40
1.0
 40
1.0
 40
1.0
 10
529.4822148921654
 20
183.8675120290744
 30
0.0
 10
529.2723417129451
 20
183.8675120290744
 30
0.0
 10
528.7744349684835
 20
183.8675120290744
 30
0.0
 10
528.1774177186695
 20
183.8675120290744
 30
0.0
 10
527.8214039051994
 20
183.8675120290744
 30
0.0
 10
527.7501640845965
 20
183.8675120290744
 30
0.0
  0
SPLINE
  5
366
330
1F
100
AcDbEntity
  8
0
  6
CONTINUOUS
 62
     7
100
AcDbSpline
210
0.0
220
0.0
230
1.0
 70
    24
 71
     3
 72
     9
 73
     5
 74
     0
 42
0.000000001
 43
0.00000001
 40
0.0
 40
0.0
 40
0.0
 40
0.0
 40
0.5346452858182242
 40
0.9999999999999999
 40
0.9999999999999999
 40
0.9999999999999999
 40
0.9999999999999999
 10
530.3482402959498
 20
185.3675120290744
 30
0.0
 10
530.1935268805076
 20
185.0995405329161
 30
0.0
 10
529.9041510652784
 20
184.5983269184573
 30
0.0
 10
529.616209743611
 20
184.0995979197309
 30
0.0
 10
529.4822148921654
 20
183.8675120290744
 30
0.0
  0
SPLINE
  5
367
330
1F
100
AcDbEntity
  8
0
  6
CONTINUOUS
 62
     7
100
AcDbSpline
210
0.0
220
0.0
230
1.0
 70
    24
 71
     3
 72
    10
 73
     6
 74
     0
 42
0.000000001
 43
0.00000001
 40
0.0
 40
0.0
 40
0.0
 40
0.0
 40
0.1264211392696704
 40
0.6317768842450284
 40
1.0
 40
1.0
 40
1.0
 40
1.0
 10
527.7501640845965
 20
186.8675120290744
 30
0.0
 10
527.8214039051994
 20
186.8675120290744
 30
0.0
 10
528.1774177186694
 20
186.8675120290744
 30
0.0
 10
528.7744349684835
 20
186.8675120290744
 30
0.0
 10
529.2723417129453
 20
186.8675120290744
 30
0.0
 10
529.4822148921654
 20
186.8675120290744
 30
0.0
  0
SPLINE
  5
368
330
1F
100
AcDbEntity
  8
0
  6
CONTINUOUS
 62
     7
100
AcDbSpline
210
0.0
220
0.0
230
1.0
 70
    24
 71
     3
 72
     9
 73
     5
 74
     0
 42
0.000000001
 43
0.00000001
 40
0.0
 40
0.0
 40
0.0
 40
0.0
 40
0.5346452858182165
 40
1.0
 40
1.0
 40
1.0
 40
1.0
 10
527.7501640845965
 20
183.8675120290744
 30
0.0
 10
527.5954506691544
 20
184.1354835252327
 30
0.0
 10
527.3060748539251
 20
184.6366971396915
 30
0.0
 10
527.0181335322577
 20
185.1354261384179
 30
0.0
 10
526.884138680812
 20
185.3675120290744
 30
0.0
  0
SPLINE
  5
369
330
1F
100
AcDbEntity
  8
0
  6
CONTINUOUS
 62
     7
100
AcDbSpline
210
0.0
220
0.0
230
1.0
 70
    24
 71
     3
 72
     9
 73
     5
 74
     0
 42
0.000000001
 43
0.00000001
 40
0.0
 40
0.0
 40
0.0
 40
0.0
 40
0.5346452858182242
 40
0.9999999999999999
 40
0.9999999999999999
 40
0.9999999999999999
 40
0.9999999999999999
 10
526.884138680812
 20
185.3675120290744
 30
0.0
 10
527.0388520962542
 20
185.6354835252327
 30
0.0
 10
527.3282279114835
 20
186.1366971396915
 30
0.0
 10
527.6161692331509
 20
186.6354261384179
 30
0.0
 10
527.7501640845965
 20
186.8675120290744
 30
0.0
  0
SPLINE
  5
36A
330
1F
100
AcDbEntity
  8
0
  6
CONTINUOUS
 62
     7
100
AcDbSpline
210
0.0
220
0.0
230
1.0
 70
    24
 71
     3
 72
     9
 73
     5
 74
     0
 42
0.000000001
 43
0.00000001
 40
0.0
 40
0.0
 40
0.0
 40
0.0
 40
0.5346452858182165
 40
1.0
 40
1.0
 40
1.0
 40
1.0
 10
529.4822148921654
 20
186.8675120290744
 30
0.0
 10
529.6369283076076
 20
186.5995405329161
 30
0.0
 10
529.9263041228368
 20
186.0983269184573
 30
0.0
 10
530.2142454445043
 20
185.5995979197309
 30
0.0
 10
530.3482402959498
 20
185.3675120290744
 30
0.0
  0
CIRCLE
  5
36B
330
1F
100
AcDbEntity
  8
0
  6
CONTINUOUS
 62
     7
100
AcDbCircle
 10
528.6161894884
 20
185.3675120291
 30
0.0
 40
3.5
  0
CIRCLE
  5
36C
330
1F
100
AcDbEntity
  8
0
  6
CONTINUOUS
 62
     7
100
AcDbCircle
 10
558.6161894884
 20
185.3675120291
 30
0.0
 40
1.799999999999983
  0
SPLINE
  5
36D
330
1F
100
AcDbEntity
  8
0
  6
CONTINUOUS
 62
     7
100
AcDbSpline
210
0.0
220
0.0
230
1.0
 70
    24
 71
     3
 72
    10
 73
     6
 74
     0
 42
0.000000001
 43
0.00000001
 40
0.0
 40
0.0
 40
0.0
 40
0.0
 40
0.3682231157549716
 40
0.8735788607303296
 40
1.0
 40
1.0
 40
1.0
 40
1.0
 10
559.4822148921654
 20
183.8675120290744
 30
0.0
 10
559.2723417129451
 20
183.8675120290744
 30
0.0
 10
558.7744349684835
 20
183.8675120290744
 30
0.0
 10
558.1774177186695
 20
183.8675120290744
 30
0.0
 10
557.8214039051993
 20
183.8675120290744
 30
0.0
 10
557.7501640845966
 20
183.8675120290744
 30
0.0
  0
SPLINE
  5
36E
330
1F
100
AcDbEntity
  8
0
  6
CONTINUOUS
 62
     7
100
AcDbSpline
210
0.0
220
0.0
230
1.0
 70
    24
 71
     3
 72
     9
 73
     5
 74
     0
 42
0.000000001
 43
0.00000001
 40
0.0
 40
0.0
 40
0.0
 40
0.0
 40
0.5346452858182242
 40
0.9999999999999999
 40
0.9999999999999999
 40
0.9999999999999999
 40
0.9999999999999999
 10
560.3482402959498
 20
185.3675120290744
 30
0.0
 10
560.1935268805078
 20
185.0995405329161
 30
0.0
 10
559.9041510652784
 20
184.5983269184573
 30
0.0
 10
559.6162097436111
 20
184.0995979197309
 30
0.0
 10
559.4822148921654
 20
183.8675120290744
 30
0.0
  0
SPLINE
  5
36F
330
1F
100
AcDbEntity
  8
0
  6
CONTINUOUS
 62
     7
100
AcDbSpline
210
0.0
220
0.0
230
1.0
 70
    24
 71
     3
 72
     9
 73
     5
 74
     0
 42
0.000000001
 43
0.00000001
 40
0.0
 40
0.0
 40
0.0
 40
0.0
 40
0.5346452858182165
 40
1.0
 40
1.0
 40
1.0
 40
1.0
 10
559.4822148921654
 20
186.8675120290744
 30
0.0
 10
559.6369283076076
 20
186.5995405329161
 30
0.0
 10
559.9263041228369
 20
186.0983269184573
 30
0.0
 10
560.2142454445042
 20
185.5995979197309
 30
0.0
 10
560.3482402959498
 20
185.3675120290744
 30
0.0
  0
SPLINE
  5
370
330
1F
100
AcDbEntity
  8
0
  6
CONTINUOUS
 62
     7
100
AcDbSpline
210
0.0
220
0.0
230
1.0
 70
    24
 71
     3
 72
    10
 73
     6
 74
     0
 42
0.000000001
 43
0.00000001
 40
0.0
 40
0.0
 40
0.0
 40
0.0
 40
0.1264211392696704
 40
0.6317768842450284
 40
1.0
 40
1.0
 40
1.0
 40
1.0
 10
557.7501640845966
 20
186.8675120290744
 30
0.0
 10
557.8214039051994
 20
186.8675120290744
 30
0.0
 10
558.1774177186695
 20
186.8675120290744
 30
0.0
 10
558.7744349684835
 20
186.8675120290744
 30
0.0
 10
559.2723417129451
 20
186.8675120290744
 30
0.0
 10
559.4822148921654
 20
186.8675120290744
 30
0.0
  0
SPLINE
  5
371
330
1F
100
AcDbEntity
  8
0
  6
CONTINUOUS
 62
     7
100
AcDbSpline
210
0.0
220
0.0
230
1.0
 70
    24
 71
     3
 72
     9
 73
     5
 74
     0
 42
0.000000001
 43
0.00000001
 40
0.0
 40
0.0
 40
0.0
 40
0.0
 40
0.5346452858182242
 40
0.9999999999999999
 40
0.9999999999999999
 40
0.9999999999999999
 40
0.9999999999999999
 10
556.8841386808122
 20
185.3675120290744
 30
0.0
 10
557.0388520962542
 20
185.6354835252327
 30
0.0
 10
557.3282279114835
 20
186.1366971396915
 30
0.0
 10
557.6161692331509
 20
186.6354261384179
 30
0.0
 10
557.7501640845966
 20
186.8675120290744
 30
0.0
  0
SPLINE
  5
372
330
1F
100
AcDbEntity
  8
0
  6
CONTINUOUS
 62
     7
100
AcDbSpline
210
0.0
220
0.0
230
1.0
 70
    24
 71
     3
 72
     9
 73
     5
 74
     0
 42
0.000000001
 43
0.00000001
 40
0.0
 40
0.0
 40
0.0
 40
0.0
 40
0.5346452858182165
 40
1.0
 40
1.0
 40
1.0
 40
1.0
 10
557.7501640845966
 20
183.8675120290744
 30
0.0
 10
557.5954506691544
 20
184.1354835252327
 30
0.0
 10
557.306074853925
 20
184.6366971396915
 30
0.0
 10
557.0181335322577
 20
185.1354261384179
 30
0.0
 10
556.8841386808122
 20
185.3675120290744
 30
0.0
  0
CIRCLE
  5
373
330
1F
100
AcDbEntity
  8
0
  6
CONTINUOUS
 62
     7
100
AcDbCircle
 10
558.6161894884
 20
185.3675120291
 30
0.0
 40
3.5
  0
CIRCLE
  5
374
330
1F
100
AcDbEntity
  8
0
  6
CONTINUOUS
 62
     7
100
AcDbCircle
 10
528.6161894884
 20
207.3675120291
 30
0.0
 40
1.80000000000004
  0
SPLINE
  5
375
330
1F
100
AcDbEntity
  8
0
  6
CONTINUOUS
 62
     7
100
AcDbSpline
210
0.0
220
0.0
230
1.0
 70
    24
 71
     3
 72
    10
 73
     6
 74
     0
 42
0.000000001
 43
0.00000001
 40
0.0
 40
0.0
 40
0.0
 40
0.0
 40
0.3682231157549716
 40
0.8735788607303296
 40
1.0
 40
1.0
 40
1.0
 40
1.0
 10
529.4822148921654
 20
205.8675120290744
 30
0.0
 10
529.2723417129451
 20
205.8675120290744
 30
0.0
 10
528.7744349684835
 20
205.8675120290744
 30
0.0
 10
528.1774177186695
 20
205.8675120290744
 30
0.0
 10
527.8214039051994
 20
205.8675120290744
 30
0.0
 10
527.7501640845965
 20
205.8675120290744
 30
0.0
  0
SPLINE
  5
376
330
1F
100
AcDbEntity
  8
0
  6
CONTINUOUS
 62
     7
100
AcDbSpline
210
0.0
220
0.0
230
1.0
 70
    24
 71
     3
 72
     9
 73
     5
 74
     0
 42
0.000000001
 43
0.00000001
 40
0.0
 40
0.0
 40
0.0
 40
0.0
 40
0.5346452858182242
 40
0.9999999999999999
 40
0.9999999999999999
 40
0.9999999999999999
 40
0.9999999999999999
 10
530.3482402959498
 20
207.3675120290744
 30
0.0
 10
530.1935268805076
 20
207.0995405329161
 30
0.0
 10
529.9041510652784
 20
206.5983269184573
 30
0.0
 10
529.616209743611
 20
206.0995979197309
 30
0.0
 10
529.4822148921654
 20
205.8675120290744
 30
0.0
  0
SPLINE
  5
377
330
1F
100
AcDbEntity
  8
0
  6
CONTINUOUS
 62
     7
100
AcDbSpline
210
0.0
220
0.0
230
1.0
 70
    24
 71
     3
 72
    10
 73
     6
 74
     0
 42
0.000000001
 43
0.00000001
 40
0.0
 40
0.0
 40
0.0
 40
0.0
 40
0.1264211392696704
 40
0.6317768842450284
 40
1.0
 40
1.0
 40
1.0
 40
1.0
 10
527.7501640845965
 20
208.8675120290744
 30
0.0
 10
527.8214039051994
 20
208.8675120290744
 30
0.0
 10
528.1774177186694
 20
208.8675120290744
 30
0.0
 10
528.7744349684835
 20
208.8675120290744
 30
0.0
 10
529.2723417129453
 20
208.8675120290744
 30
0.0
 10
529.4822148921654
 20
208.8675120290744
 30
0.0
  0
SPLINE
  5
378
330
1F
100
AcDbEntity
  8
0
  6
CONTINUOUS
 62
     7
100
AcDbSpline
210
0.0
220
0.0
230
1.0
 70
    24
 71
     3
 72
     9
 73
     5
 74
     0
 42
0.000000001
 43
0.00000001
 40
0.0
 40
0.0
 40
0.0
 40
0.0
 40
0.5346452858182242
 40
0.9999999999999999
 40
0.9999999999999999
 40
0.9999999999999999
 40
0.9999999999999999
 10
526.884138680812
 20
207.3675120290744
 30
0.0
 10
527.0388520962542
 20
207.6354835252327
 30
0.0
 10
527.3282279114835
 20
208.1366971396914
 30
0.0
 10
527.6161692331509
 20
208.6354261384179
 30
0.0
 10
527.7501640845965
 20
208.8675120290744
 30
0.0
  0
SPLINE
  5
379
330
1F
100
AcDbEntity
  8
0
  6
CONTINUOUS
 62
     7
100
AcDbSpline
210
0.0
220
0.0
230
1.0
 70
    24
 71
     3
 72
     9
 73
     5
 74
     0
 42
0.000000001
 43
0.00000001
 40
0.0
 40
0.0
 40
0.0
 40
0.0
 40
0.5346452858182165
 40
1.0
 40
1.0
 40
1.0
 40
1.0
 10
527.7501640845965
 20
205.8675120290744
 30
0.0
 10
527.5954506691544
 20
206.1354835252327
 30
0.0
 10
527.3060748539251
 20
206.6366971396915
 30
0.0
 10
527.0181335322577
 20
207.1354261384179
 30
0.0
 10
526.884138680812
 20
207.3675120290744
 30
0.0
  0
SPLINE
  5
37A
330
1F
100
AcDbEntity
  8
0
  6
CONTINUOUS
 62
     7
100
AcDbSpline
210
0.0
220
0.0
230
1.0
 70
    24
 71
     3
 72
     9
 73
     5
 74
     0
 42
0.000000001
 43
0.00000001
 40
0.0
 40
0.0
 40
0.0
 40
0.0
 40
0.5346452858182165
 40
1.0
 40
1.0
 40
1.0
 40
1.0
 10
529.4822148921654
 20
208.8675120290744
 30
0.0
 10
529.6369283076076
 20
208.5995405329161
 30
0.0
 10
529.9263041228368
 20
208.0983269184573
 30
0.0
 10
530.2142454445043
 20
207.5995979197309
 30
0.0
 10
530.3482402959498
 20
207.3675120290744
 30
0.0
  0
CIRCLE
  5
37B
330
1F
100
AcDbEntity
  8
0
  6
CONTINUOUS
 62
     7
100
AcDbCircle
 10
528.6161894884
 20
207.3675120291
 30
0.0
 40
3.5
  0
CIRCLE
  5
37C
330
1F
100
AcDbEntity
  8
0
  6
CONTINUOUS
 62
     7
100
AcDbCircle
 10
528.6161894884
 20
222.8675120291
 30
0.0
 40
3.024999999999977
  0
CIRCLE
  5
37D
330
1F
100
AcDbEntity
  8
0
  6
CONTINUOUS
 62
     7
100
AcDbCircle
 10
508.6161894884
 20
215.8675120291
 30
0.0
 40
5.5
  0
ARC
  5
37E
330
1F
100
AcDbEntity
  8
0
  6
CONTINUOUS
 62
     7
100
AcDbCircle
 10
508.6161894884
 20
268.8675120291
 30
0.0
 40
5.500000000000057
100
AcDbArc
 50
180.0
 51
0.0
  0
ARC
  5
37F
330
1F
100
AcDbEntity
  8
0
  6
CONTINUOUS
 62
     7
100
AcDbCircle
 10
548.6161894884
 20
268.8675120291
 30
0.0
 40
5.500000000000114
100
AcDbArc
 50
180.0
 51
0.0
  0
ARC
  5
380
330
1F
100
AcDbEntity
  8
0
  6
CONTINUOUS
 62
     7
100
AcDbCircle
 10
557.3661894884
 20
263.8675120291
 30
0.0
 40
10.0
100
AcDbArc
 50
0.0
 51
90.0
  0
LINE
  5
381
330
1F
100
AcDbEntity
  8
0
  6
CONTINUOUS
 62
     7
100
AcDbLine
 10
567.3661894884
 20
182.3675120291
 30
0.0
 11
567.3661894884
 21
263.8675120291
 31
0.0
  0
LINE
  5
382
330
1F
100
AcDbEntity
  8
0
  6
CONTINUOUS
 62
     7
100
AcDbLine
 10
562.6161894884
 20
182.3675120291
 30
0.0
 11
567.3661894884
 21
182.3675120291
 31
0.0
  0
LINE
  5
383
330
1F
100
AcDbEntity
  8
0
  6
CONTINUOUS
 62
     7
100
AcDbLine
 10
562.6161894884
 20
182.3675120291
 30
0.0
 11
562.6161894884
 21
185.3675120291
 31
0.0
  0
ARC
  5
384
330
1F
100
AcDbEntity
  8
0
  6
CONTINUOUS
 62
     7
100
AcDbCircle
 10
558.6161894884
 20
185.3675120291
 30
0.0
 40
4.0
100
AcDbArc
 50
0.0
 51
180.0
  0
LINE
  5
385
330
1F
100
AcDbEntity
  8
0
  6
CONTINUOUS
 62
     7
100
AcDbLine
 10
554.6161894884
 20
185.3675120291
 30
0.0
 11
554.6161894884
 21
182.3675120291
 31
0.0
  0
LINE
  5
386
330
1F
100
AcDbEntity
  8
0
  6
CONTINUOUS
 62
     7
100
AcDbLine
 10
532.6161894884
 20
182.3675120291
 30
0.0
 11
554.6161894884
 21
182.3675120291
 31
0.0
  0
LINE
  5
387
330
1F
100
AcDbEntity
  8
0
  6
CONTINUOUS
 62
     7
100
AcDbLine
 10
532.6161894884
 20
182.3675120291
 30
0.0
 11
532.6161894884
 21
185.3675120291
 31
0.0
  0
ARC
  5
388
330
1F
100
AcDbEntity
  8
0
  6
CONTINUOUS
 62
     7
100
AcDbCircle
 10
528.6161894884
 20
185.3675120291
 30
0.0
 40
4.0
100
AcDbArc
 50
0.0
 51
180.0
  0
LINE
  5
389
330
1F
100
AcDbEntity
  8
0
  6
CONTINUOUS
 62
     7
100
AcDbLine
 10
524.6161894884
 20
185.3675120291
 30
0.0
 11
524.6161894884
 21
182.3675120291
 31
0.0
  0
LINE
  5
38A
330
1F
100
AcDbEntity
  8
0
  6
CONTINUOUS
 62
     7
100
AcDbLine
 10
502.6161894884
 20
182.3675120291
 30
0.0
 11
524.6161894884
 21
182.3675120291
 31
0.0
  0
LINE
  5
38B
330
1F
100
AcDbEntity
  8
0
  6
CONTINUOUS
 62
     7
100
AcDbLine
 10
502.6161894884
 20
182.3675120291
 30
0.0
 11
502.6161894884
 21
185.3675120291
 31
0.0
  0
ARC
  5
38C
330
1F
100
AcDbEntity
  8
0
  6
CONTINUOUS
 62
     7
100
AcDbCircle
 10
498.6161894884
 20
185.3675120291
 30
0.0
 40
4.0
100
AcDbArc
 50
0.0
 51
180.0
  0
LINE
  5
38D
330
1F
100
AcDbEntity
  8
0
  6
CONTINUOUS
 62
     7
100
AcDbLine
 10
494.6161894884
 20
185.3675120291
 30
0.0
 11
494.6161894884
 21
182.3675120291
 31
0.0
  0
LINE
  5
38E
330
1F
100
AcDbEntity
  8
0
  6
CONTINUOUS
 62
     7
100
AcDbLine
 10
489.8661894884
 20
182.3675120291
 30
0.0
 11
494.6161894884
 21
182.3675120291
 31
0.0
  0
LINE
  5
38F
330
1F
100
AcDbEntity
  8
0
  6
CONTINUOUS
 62
     7
100
AcDbLine
 10
489.8661894884
 20
263.8675120291
 30
0.0
 11
489.8661894884
 21
182.3675120291
 31
0.0
  0
CIRCLE
  5
390
330
1F
100
AcDbEntity
  8
0
  6
CONTINUOUS
 62
     7
100
AcDbCircle
 10
558.6161894884
 20
207.3675120291
 30
0.0
 40
4.0
  0
CIRCLE
  5
391
330
1F
100
AcDbEntity
  8
0
  6
CONTINUOUS
 62
     7
100
AcDbCircle
 10
498.6161894884
 20
207.3675120291
 30
0.0
 40
4.0
  0
CIRCLE
  5
392
330
1F
100
AcDbEntity
  8
0
  6
CONTINUOUS
 62
     7
100
AcDbCircle
 10
528.6161894884
 20
207.3675120291
 30
0.0
 40
4.0
  0
CIRCLE
  5
393
330
1F
100
AcDbEntity
  8
0
  6
CONTINUOUS
 62
     7
100
AcDbCircle
 10
548.6161894884
 20
215.8675120291
 30
0.0
 40
5.5
  0
CIRCLE
  5
394
330
1F
100
AcDbEntity
  8
0
  6
CONTINUOUS
 62
     7
100
AcDbCircle
 10
528.6161894884
 20
264.8675120291
 30
0.0
 40
3.024999999999977
  0
CIRCLE
  5
395
330
1F
100
AcDbEntity
  8
0
  6
CONTINUOUS
 62
     7
100
AcDbCircle
 10
496.1161894884
 20
222.8675120291
 30
0.0
 40
3.024999999999977
  0
CIRCLE
  5
396
330
1F
100
AcDbEntity
  8
0
  6
CONTINUOUS
 62
     7
100
AcDbCircle
 10
561.1161894884
 20
222.8675120291
 30
0.0
 40
3.024999999999977
  0
CIRCLE
  5
397
330
1F
100
AcDbEntity
  8
0
  6
CONTINUOUS
 62
     7
100
AcDbCircle
 10
561.1161894884
 20
264.8675120291
 30
0.0
 40
3.024999999999977
  0
CIRCLE
  5
398
330
1F
100
AcDbEntity
  8
0
  6
CONTINUOUS
 62
     7
100
AcDbCircle
 10
496.1161894884
 20
264.8675120291
 30
0.0
 40
3.024999999999977
  0
ARC
  5
399
330
1F
100
AcDbEntity
  8
0
  6
CONTINUOUS
 62
     7
100
AcDbCircle
 10
499.8661894884
 20
263.8675120291
 30
0.0
 40
10.0
100
AcDbArc
 50
90.0
 51
180.0
  0
LINE
  5
39A
330
1F
100
AcDbEntity
  8
0
  6
CONTINUOUS
 62
     7
100
AcDbLine
 10
554.1161894884
 20
268.8675120291
 30
0.0
 11
554.1161894884
 21
273.8675120291
 31
0.0
  0
LINE
  5
39B
330
1F
100
AcDbEntity
  8
0
  6
CONTINUOUS
 62
     7
100
AcDbLine
 10
503.1161894884
 20
273.8675120291
 30
0.0
 11
503.1161894884
 21
268.8675120291
 31
0.0
  0
LINE
  5
39C
330
1F
100
AcDbEntity
  8
0
  6
CONTINUOUS
 62
     7
100
AcDbLine
 10
557.3661894884
 20
273.8675120291
 30
0.0
 11
554.1161894884
 21
273.8675120291
 31
0.0
  0
LINE
  5
39D
330
1F
100
AcDbEntity
  8
0
  6
CONTINUOUS
 62
     7
100
AcDbLine
 10
543.1161894884
 20
273.8675120291
 30
0.0
 11
514.1161894884
 21
273.8675120291
 31
0.0
  0
LINE
  5
39E
330
1F
100
AcDbEntity
  8
0
  6
CONTINUOUS
 62
     7
100
AcDbLine
 10
503.1161894884
 20
273.8675120291
 30
0.0
 11
499.8661894884
 21
273.8675120291
 31
0.0
  0
LINE
  5
39F
330
1F
100
AcDbEntity
  8
0
  6
CONTINUOUS
 62
     7
100
AcDbLine
 10
514.1161894884
 20
268.8675120291
 30
0.0
 11
514.1161894884
 21
273.8675120291
 31
0.0
  0
LINE
  5
3A0
330
1F
100
AcDbEntity
  8
0
  6
CONTINUOUS
 62
     7
100
AcDbLine
 10
543.1161894884
 20
273.8675120291
 30
0.0
 11
543.1161894884
 21
268.8675120291
 31
0.0
  0
CIRCLE
  5
3A1
330
1F
100
AcDbEntity
  8
0
  6
CONTINUOUS
 62
     7
100
AcDbCircle
 10
561.1161894884
 20
264.8675120291
 30
0.0
 40
2.5
  0
CIRCLE
  5
3A2
330
1F
100
AcDbEntity
  8
0
  6
CONTINUOUS
 62
     7
100
AcDbCircle
 10
528.6161894884
 20
264.8675120291
 30
0.0
 40
2.5
  0
CIRCLE
  5
3A3
330
1F
100
AcDbEntity
  8
0
  6
CONTINUOUS
 62
     7
100
AcDbCircle
 10
496.1161894884
 20
264.8675120291
 30
0.0
 40
2.5
  0
CIRCLE
  5
3A4
330
1F
100
AcDbEntity
  8
0
  6
CONTINUOUS
 62
     7
100
AcDbCircle
 10
528.6161894884
 20
222.8675120291
 30
0.0
 40
2.5
  0
CIRCLE
  5
3A5
330
1F
100
AcDbEntity
  8
0
  6
CONTINUOUS
 62
     7
100
AcDbCircle
 10
496.1161894884
 20
222.8675120291
 30
0.0
 40
2.5
  0
CIRCLE
  5
3A6
330
1F
100
AcDbEntity
  8
0
  6
CONTINUOUS
 62
     7
100
AcDbCircle
 10
561.1161894884
 20
222.8675120291
 30
0.0
 40
2.499999999999972
  0
LINE
  5
3A7
330
1F
100
AcDbEntity
  8
0
  6
CONTINUOUS
 62
     7
100
AcDbLine
 10
532.6161894884
 20
182.3675120291
 30
0.0
 11
530.4189651261
 21
182.3675120291
 31
0.0
  0
LINE
  5
3A8
330
1F
100
AcDbEntity
  8
0
  6
CONTINUOUS
 62
     7
100
AcDbLine
 10
526.8134138506
 20
182.3675120291
 30
0.0
 11
524.6161894884
 21
182.3675120291
 31
0.0
  0
LINE
  5
3A9
330
1F
100
AcDbEntity
  8
0
  6
CONTINUOUS
 62
     7
100
AcDbLine
 10
562.6161894884
 20
182.3675120291
 30
0.0
 11
560.4189651261
 21
182.3675120291
 31
0.0
  0
LINE
  5
3AA
330
1F
100
AcDbEntity
  8
0
  6
CONTINUOUS
 62
     7
100
AcDbLine
 10
556.8134138506
 20
182.3675120291
 30
0.0
 11
554.6161894884
 21
182.3675120291
 31
0.0
  0
LINE
  5
3AB
330
1F
100
AcDbEntity
  8
0
  6
CONTINUOUS
 62
     7
100
AcDbLine
 10
502.6161894884
 20
182.3675120291
 30
0.0
 11
500.4189651261
 21
182.3675120291
 31
0.0
  0
LINE
  5
3AC
330
1F
100
AcDbEntity
  8
0
  6
CONTINUOUS
 62
     7
100
AcDbLine
 10
496.8134138506
 20
182.3675120291
 30
0.0
 11
494.6161894884
 21
182.3675120291
 31
0.0
  0
LINE
  5
3AD
330
1F
100
AcDbEntity
  8
0
  6
CONTINUOUS
 62
     7
100
AcDbLine
 10
543.1161894884
 20
273.8675120291
 30
0.0
 11
554.1161894884
 21
273.8675120291
 31
0.0
  0
LINE
  5
3AE
330
1F
100
AcDbEntity
  8
0
  6
CONTINUOUS
 62
     7
100
AcDbLine
 10
503.1161894884
 20
273.8675120291
 30
0.0
 11
514.1161894884
 21
273.8675120291
 31
0.0
  0
LINE
  5
3AF
330
1F
100
AcDbEntity
  8
0
  6
CONTINUOUS
 62
     7
100
AcDbLine
 10
101.1161894884
 20
270.1175120291
 30
0.0
 11
104.8771353675
 21
270.1175120291
 31
0.0
  0
LINE
  5
3B0
330
1F
100
AcDbEntity
  8
0
  6
CONTINUOUS
 62
     7
100
AcDbLine
 10
101.1978003454
 20
270.1821955597
 30
0.0
 11
105.0661401229
 21
270.1821955597
 31
0.0
  0
LINE
  5
3B1
330
1F
100
AcDbEntity
  8
0
  6
CONTINUOUS
 62
     7
100
AcDbLine
 10
104.8783854891
 20
214.6175120291
 30
0.0
 11
101.2231911052
 21
214.6175120291
 31
0.0
  0
LINE
  5
3B2
330
1F
100
AcDbEntity
  8
0
  6
CONTINUOUS
 62
     7
100
AcDbLine
 10
105.0570005697
 20
214.5528284984
 30
0.0
 11
101.1978003454
 21
214.5528284984
 31
0.0
  0
LINE
  5
3B3
330
1F
100
AcDbEntity
  8
0
  6
CONTINUOUS
 62
     7
100
AcDbLine
 10
107.1161894884
 20
270.7675120291
 30
0.0
 11
118.1161894884
 21
270.7675120291
 31
0.0
  0
LINE
  5
3B4
330
1F
100
AcDbEntity
  8
0
  6
CONTINUOUS
 62
     7
100
AcDbLine
 10
106.6161894884
 20
183.7675120291
 30
0.0
 11
118.6161894884
 21
183.7675120291
 31
0.0
  0
LINE
  5
3B5
330
1F
100
AcDbEntity
  8
0
  6
CONTINUOUS
 62
     7
100
AcDbLine
 10
106.6161894884
 20
184.6675120291
 30
0.0
 11
118.6161894884
 21
184.6675120291
 31
0.0
  0
LINE
  5
3B6
330
1F
100
AcDbEntity
  8
0
  6
CONTINUOUS
 62
     7
100
AcDbLine
 10
118.1161894884
 20
183.2675120291
 30
0.0
 11
107.1161894884
 21
183.2675120291
 31
0.0
  0
LINE
  5
3B7
330
1F
100
AcDbEntity
  8
0
  6
CONTINUOUS
 62
     7
100
AcDbLine
 10
569.7708900268
 20
240.3675120291
 30
0.0
 11
567.768806574
 21
240.3675120291
 31
0.0
  0
LINE
  5
3B8
330
1F
100
AcDbEntity
  8
0
  6
CONTINUOUS
 62
     7
100
AcDbLine
 10
570.9255905651
 20
242.3675120291
 30
0.0
 11
569.7708900268
 21
240.3675120291
 31
0.0
  0
LINE
  5
3B9
330
1F
100
AcDbEntity
  8
0
  6
CONTINUOUS
 62
     7
100
AcDbLine
 10
569.7708900268
 20
244.3675120291
 30
0.0
 11
570.9255905651
 21
242.3675120291
 31
0.0
  0
LINE
  5
3BA
330
1F
100
AcDbEntity
  8
0
  6
CONTINUOUS
 62
     7
100
AcDbLine
 10
567.768806574
 20
244.3675120291
 30
0.0
 11
569.7708900268
 21
244.3675120291
 31
0.0
  0
LINE
  5
3BB
330
1F
100
AcDbEntity
  8
0
  6
CONTINUOUS
 62
     7
100
AcDbLine
 10
568.6161894884
 20
238.1175120291
 30
0.0
 11
567.3661894884
 21
238.3054928268
 31
0.0
  0
ARC
  5
3BC
330
1F
100
AcDbEntity
  8
0
  6
CONTINUOUS
 62
     7
100
AcDbCircle
 10
568.6161894884
 20
242.3675120291
 30
0.0
 40
4.250000000000065
100
AcDbArc
 50
270.0
 51
107.1046351766
  0
CIRCLE
  5
3BD
330
1F
100
AcDbEntity
  8
0
  6
CONTINUOUS
 62
     7
100
AcDbCircle
 10
448.6161894884
 20
242.3675120291
 30
0.0
 40
4.250000000000057
  0
LINE
  5
3BE
330
1F
100
AcDbEntity
  8
0
  6
CONTINUOUS
 62
     7
100
AcDbLine
 10
447.46148895
 20
240.3675120291
 30
0.0
 11
446.3067884116
 21
242.3675120291
 31
0.0
  0
LINE
  5
3BF
330
1F
100
AcDbEntity
  8
0
  6
CONTINUOUS
 62
     7
100
AcDbLine
 10
449.7708900268
 20
240.3675120291
 30
0.0
 11
447.46148895
 21
240.3675120291
 31
0.0
  0
LINE
  5
3C0
330
1F
100
AcDbEntity
  8
0
  6
CONTINUOUS
 62
     7
100
AcDbLine
 10
450.9255905651
 20
242.3675120291
 30
0.0
 11
449.7708900268
 21
240.3675120291
 31
0.0
  0
LINE
  5
3C1
330
1F
100
AcDbEntity
  8
0
  6
CONTINUOUS
 62
     7
100
AcDbLine
 10
449.7708900268
 20
244.3675120291
 30
0.0
 11
450.9255905651
 21
242.3675120291
 31
0.0
  0
LINE
  5
3C2
330
1F
100
AcDbEntity
  8
0
  6
CONTINUOUS
 62
     7
100
AcDbLine
 10
447.46148895
 20
244.3675120291
 30
0.0
 11
449.7708900268
 21
244.3675120291
 31
0.0
  0
LINE
  5
3C3
330
1F
100
AcDbEntity
  8
0
  6
CONTINUOUS
 62
     7
100
AcDbLine
 10
446.3067884116
 20
242.3675120291
 30
0.0
 11
447.46148895
 21
244.3675120291
 31
0.0
  0
LINE
  5
3C4
330
1F
100
AcDbEntity
  8
0
  6
CONTINUOUS
 62
     7
100
AcDbLine
 10
327.46148895
 20
240.3675120291
 30
0.0
 11
326.3067884116
 21
242.3675120291
 31
0.0
  0
LINE
  5
3C5
330
1F
100
AcDbEntity
  8
0
  6
CONTINUOUS
 62
     7
100
AcDbLine
 10
329.7708900268
 20
240.3675120291
 30
0.0
 11
327.46148895
 21
240.3675120291
 31
0.0
  0
LINE
  5
3C6
330
1F
100
AcDbEntity
  8
0
  6
CONTINUOUS
 62
     7
100
AcDbLine
 10
330.9255905651
 20
242.3675120291
 30
0.0
 11
329.7708900268
 21
240.3675120291
 31
0.0
  0
LINE
  5
3C7
330
1F
100
AcDbEntity
  8
0
  6
CONTINUOUS
 62
     7
100
AcDbLine
 10
329.7708900268
 20
244.3675120291
 30
0.0
 11
330.9255905651
 21
242.3675120291
 31
0.0
  0
LINE
  5
3C8
330
1F
100
AcDbEntity
  8
0
  6
CONTINUOUS
 62
     7
100
AcDbLine
 10
327.46148895
 20
244.3675120291
 30
0.0
 11
329.7708900268
 21
244.3675120291
 31
0.0
  0
LINE
  5
3C9
330
1F
100
AcDbEntity
  8
0
  6
CONTINUOUS
 62
     7
100
AcDbLine
 10
326.3067884116
 20
242.3675120291
 30
0.0
 11
327.46148895
 21
244.3675120291
 31
0.0
  0
CIRCLE
  5
3CA
330
1F
100
AcDbEntity
  8
0
  6
CONTINUOUS
 62
     7
100
AcDbCircle
 10
328.6161894884
 20
242.3675120291
 30
0.0
 40
4.250000000000057
  0
CIRCLE
  5
3CB
330
1F
100
AcDbEntity
  8
0
  6
CONTINUOUS
 62
     7
100
AcDbCircle
 10
388.6161894884
 20
242.3675120291
 30
0.0
 40
4.250000000000057
  0
LINE
  5
3CC
330
1F
100
AcDbEntity
  8
0
  6
CONTINUOUS
 62
     7
100
AcDbLine
 10
387.46148895
 20
240.3675120291
 30
0.0
 11
386.3067884116
 21
242.3675120291
 31
0.0
  0
LINE
  5
3CD
330
1F
100
AcDbEntity
  8
0
  6
CONTINUOUS
 62
     7
100
AcDbLine
 10
389.7708900268
 20
240.3675120291
 30
0.0
 11
387.46148895
 21
240.3675120291
 31
0.0
  0
LINE
  5
3CE
330
1F
100
AcDbEntity
  8
0
  6
CONTINUOUS
 62
     7
100
AcDbLine
 10
390.9255905651
 20
242.3675120291
 30
0.0
 11
389.7708900268
 21
240.3675120291
 31
0.0
  0
LINE
  5
3CF
330
1F
100
AcDbEntity
  8
0
  6
CONTINUOUS
 62
     7
100
AcDbLine
 10
389.7708900268
 20
244.3675120291
 30
0.0
 11
390.9255905651
 21
242.3675120291
 31
0.0
  0
LINE
  5
3D0
330
1F
100
AcDbEntity
  8
0
  6
CONTINUOUS
 62
     7
100
AcDbLine
 10
387.46148895
 20
244.3675120291
 30
0.0
 11
389.7708900268
 21
244.3675120291
 31
0.0
  0
LINE
  5
3D1
330
1F
100
AcDbEntity
  8
0
  6
CONTINUOUS
 62
     7
100
AcDbLine
 10
386.3067884116
 20
242.3675120291
 30
0.0
 11
387.46148895
 21
244.3675120291
 31
0.0
  0
CIRCLE
  5
3D2
330
1F
100
AcDbEntity
  8
0
  6
CONTINUOUS
 62
     7
100
AcDbCircle
 10
268.6161894884
 20
242.3675120291
 30
0.0
 40
4.250000000000057
  0
LINE
  5
3D3
330
1F
100
AcDbEntity
  8
0
  6
CONTINUOUS
 62
     7
100
AcDbLine
 10
267.46148895
 20
240.3675120291
 30
0.0
 11
266.3067884116
 21
242.3675120291
 31
0.0
  0
LINE
  5
3D4
330
1F
100
AcDbEntity
  8
0
  6
CONTINUOUS
 62
     7
100
AcDbLine
 10
269.7708900268
 20
240.3675120291
 30
0.0
 11
267.46148895
 21
240.3675120291
 31
0.0
  0
LINE
  5
3D5
330
1F
100
AcDbEntity
  8
0
  6
CONTINUOUS
 62
     7
100
AcDbLine
 10
270.9255905651
 20
242.3675120291
 30
0.0
 11
269.7708900268
 21
240.3675120291
 31
0.0
  0
LINE
  5
3D6
330
1F
100
AcDbEntity
  8
0
  6
CONTINUOUS
 62
     7
100
AcDbLine
 10
269.7708900268
 20
244.3675120291
 30
0.0
 11
270.9255905651
 21
242.3675120291
 31
0.0
  0
LINE
  5
3D7
330
1F
100
AcDbEntity
  8
0
  6
CONTINUOUS
 62
     7
100
AcDbLine
 10
267.46148895
 20
244.3675120291
 30
0.0
 11
269.7708900268
 21
244.3675120291
 31
0.0
  0
LINE
  5
3D8
330
1F
100
AcDbEntity
  8
0
  6
CONTINUOUS
 62
     7
100
AcDbLine
 10
266.3067884116
 20
242.3675120291
 30
0.0
 11
267.46148895
 21
244.3675120291
 31
0.0
  0
CIRCLE
  5
3D9
330
1F
100
AcDbEntity
  8
0
  6
CONTINUOUS
 62
     7
100
AcDbCircle
 10
208.6161894884
 20
242.3675120291
 30
0.0
 40
4.250000000000057
  0
LINE
  5
3DA
330
1F
100
AcDbEntity
  8
0
  6
CONTINUOUS
 62
     7
100
AcDbLine
 10
207.46148895
 20
240.3675120291
 30
0.0
 11
206.3067884116
 21
242.3675120291
 31
0.0
  0
LINE
  5
3DB
330
1F
100
AcDbEntity
  8
0
  6
CONTINUOUS
 62
     7
100
AcDbLine
 10
209.7708900268
 20
240.3675120291
 30
0.0
 11
207.46148895
 21
240.3675120291
 31
0.0
  0
LINE
  5
3DC
330
1F
100
AcDbEntity
  8
0
  6
CONTINUOUS
 62
     7
100
AcDbLine
 10
210.9255905651
 20
242.3675120291
 30
0.0
 11
209.7708900268
 21
240.3675120291
 31
0.0
  0
LINE
  5
3DD
330
1F
100
AcDbEntity
  8
0
  6
CONTINUOUS
 62
     7
100
AcDbLine
 10
209.7708900268
 20
244.3675120291
 30
0.0
 11
210.9255905651
 21
242.3675120291
 31
0.0
  0
LINE
  5
3DE
330
1F
100
AcDbEntity
  8
0
  6
CONTINUOUS
 62
     7
100
AcDbLine
 10
207.46148895
 20
244.3675120291
 30
0.0
 11
209.7708900268
 21
244.3675120291
 31
0.0
  0
LINE
  5
3DF
330
1F
100
AcDbEntity
  8
0
  6
CONTINUOUS
 62
     7
100
AcDbLine
 10
206.3067884116
 20
242.3675120291
 30
0.0
 11
207.46148895
 21
244.3675120291
 31
0.0
  0
LINE
  5
3E0
330
1F
100
AcDbEntity
  8
0
  6
CONTINUOUS
 62
     7
100
AcDbLine
 10
664.6161894884
 20
207.83401838
 30
0.0
 11
683.4822148922
 21
207.83401838
 31
0.0
  0
LINE
  5
3E1
330
1F
100
AcDbEntity
  8
0
  6
CONTINUOUS
 62
     7
100
AcDbLine
 10
645.7501640846
 20
207.83401838
 30
0.0
 11
664.6161894884
 21
207.83401838
 31
0.0
  0
LINE
  5
3E2
330
1F
100
AcDbEntity
  8
0
  6
CONTINUOUS
 62
     7
100
AcDbLine
 10
664.6161894884
 20
207.33401838
 30
0.0
 11
683.6161894884
 21
207.33401838
 31
0.0
  0
LINE
  5
3E3
330
1F
100
AcDbEntity
  8
0
  6
CONTINUOUS
 62
     7
100
AcDbLine
 10
645.6161894884
 20
207.33401838
 30
0.0
 11
664.6161894884
 21
207.33401838
 31
0.0
  0
LINE
  5
3E4
330
1F
100
AcDbEntity
  8
0
  6
CONTINUOUS
 62
     7
100
AcDbLine
 10
664.6161894884
 20
206.8675120291
 30
0.0
 11
681.8751640846
 21
206.8675120291
 31
0.0
  0
LINE
  5
3E5
330
1F
100
AcDbEntity
  8
0
  6
CONTINUOUS
 62
     7
100
AcDbLine
 10
647.3572148922
 20
206.8675120291
 30
0.0
 11
664.6161894884
 21
206.8675120291
 31
0.0
  0
LINE
  5
3E6
330
1F
100
AcDbEntity
  8
0
  6
CONTINUOUS
 62
     7
100
AcDbLine
 10
683.6161894884
 20
186.4010056781
 30
0.0
 11
645.6161894884
 21
186.4010056781
 31
0.0
  0
LINE
  5
3E7
330
1F
100
AcDbEntity
  8
0
  6
CONTINUOUS
 62
     7
100
AcDbLine
 10
683.4822148922
 20
185.9010056781
 30
0.0
 11
645.7501640846
 21
185.9010056781
 31
0.0
  0
LINE
  5
3E8
330
1F
100
AcDbEntity
  8
0
  6
CONTINUOUS
 62
     7
100
AcDbLine
 10
681.8751640846
 20
186.8675120291
 30
0.0
 11
647.3572148922
 21
186.8675120291
 31
0.0
  0
LINE
  5
3E9
330
1F
100
AcDbEntity
  8
0
  6
CONTINUOUS
 62
     7
100
AcDbLine
 10
664.6161894884
 20
213.3675120291
 30
0.0
 11
676.6161894884
 21
213.3675120291
 31
0.0
  0
LINE
  5
3EA
330
1F
100
AcDbEntity
  8
0
  6
CONTINUOUS
 62
     7
100
AcDbLine
 10
652.6161894884
 20
213.3675120291
 30
0.0
 11
664.6161894884
 21
213.3675120291
 31
0.0
  0
LINE
  5
3EB
330
1F
100
AcDbEntity
  8
0
  6
CONTINUOUS
 62
     7
100
AcDbLine
 10
112.6161894884
 20
207.83401838
 30
0.0
 11
131.4822148922
 21
207.83401838
 31
0.0
  0
LINE
  5
3EC
330
1F
100
AcDbEntity
  8
0
  6
CONTINUOUS
 62
     7
100
AcDbLine
 10
93.7501640846
 20
207.83401838
 30
0.0
 11
112.6161894884
 21
207.83401838
 31
0.0
  0
LINE
  5
3ED
330
1F
100
AcDbEntity
  8
0
  6
CONTINUOUS
 62
     7
100
AcDbLine
 10
112.6161894884
 20
207.33401838
 30
0.0
 11
131.6161894884
 21
207.33401838
 31
0.0
  0
LINE
  5
3EE
330
1F
100
AcDbEntity
  8
0
  6
CONTINUOUS
 62
     7
100
AcDbLine
 10
93.6161894884
 20
207.33401838
 30
0.0
 11
112.6161894884
 21
207.33401838
 31
0.0
  0
LINE
  5
3EF
330
1F
100
AcDbEntity
  8
0
  6
CONTINUOUS
 62
     7
100
AcDbLine
 10
112.6161894884
 20
206.8675120291
 30
0.0
 11
129.8751640846
 21
206.8675120291
 31
0.0
  0
LINE
  5
3F0
330
1F
100
AcDbEntity
  8
0
  6
CONTINUOUS
 62
     7
100
AcDbLine
 10
95.3572148922
 20
206.8675120291
 30
0.0
 11
112.6161894884
 21
206.8675120291
 31
0.0
  0
LINE
  5
3F1
330
1F
100
AcDbEntity
  8
0
  6
CONTINUOUS
 62
     7
100
AcDbLine
 10
129.8751640846
 20
186.8675120291
 30
0.0
 11
95.3572148922
 21
186.8675120291
 31
0.0
  0
LINE
  5
3F2
330
1F
100
AcDbEntity
  8
0
  6
CONTINUOUS
 62
     7
100
AcDbLine
 10
131.6161894884
 20
186.4010056781
 30
0.0
 11
93.6161894884
 21
186.4010056781
 31
0.0
  0
LINE
  5
3F3
330
1F
100
AcDbEntity
  8
0
  6
CONTINUOUS
 62
     7
100
AcDbLine
 10
131.4822148922
 20
185.9010056781
 30
0.0
 11
93.7501640846
 21
185.9010056781
 31
0.0
  0
LINE
  5
3F4
330
1F
100
AcDbEntity
  8
0
  6
CONTINUOUS
 62
     7
100
AcDbLine
 10
112.6161894884
 20
213.3675120291
 30
0.0
 11
124.6161894884
 21
213.3675120291
 31
0.0
  0
LINE
  5
3F5
330
1F
100
AcDbEntity
  8
0
  6
CONTINUOUS
 62
     7
100
AcDbLine
 10
100.6161894884
 20
213.3675120291
 30
0.0
 11
112.6161894884
 21
213.3675120291
 31
0.0
  0
ARC
  5
3F6
330
1F
100
AcDbEntity
  8
0
  6
CONTINUOUS
 62
     7
100
AcDbCircle
 10
664.6161894884
 20
280.2675120291
 30
0.0
 40
2.5
100
AcDbArc
 50
270.0
 51
0.0
  0
ARC
  5
3F7
330
1F
100
AcDbEntity
  8
0
  6
CONTINUOUS
 62
     7
100
AcDbCircle
 10
664.6161894884
 20
280.2675120291
 30
0.0
 40
2.25
100
AcDbArc
 50
270.0
 51
0.0
  0
ARC
  5
3F8
330
1F
100
AcDbEntity
  8
0
  6
CONTINUOUS
 62
     7
100
AcDbCircle
 10
664.6161894884
 20
280.2675120291
 30
0.0
 40
2.5
100
AcDbArc
 50
180.0
 51
270.0
  0
ARC
  5
3F9
330
1F
100
AcDbEntity
  8
0
  6
CONTINUOUS
 62
     7
100
AcDbCircle
 10
664.6161894884
 20
280.2675120291
 30
0.0
 40
2.25
100
AcDbArc
 50
180.0
 51
270.0
  0
ARC
  5
3FA
330
1F
100
AcDbEntity
  8
0
  6
CONTINUOUS
 62
     7
100
AcDbCircle
 10
664.6161894884
 20
295.2675120291
 30
0.0
 40
2.25
100
AcDbArc
 50
0.0
 51
90.0
  0
LINE
  5
3FB
330
1F
100
AcDbEntity
  8
0
  6
CONTINUOUS
 62
     7
100
AcDbLine
 10
666.8661894884
 20
280.2675120291
 30
0.0
 11
666.8661894884
 21
295.2675120291
 31
0.0
  0
LINE
  5
3FC
330
1F
100
AcDbEntity
  8
0
  6
CONTINUOUS
 62
     7
100
AcDbLine
 10
662.3661894884
 20
295.2675120291
 30
0.0
 11
662.3661894884
 21
280.2675120291
 31
0.0
  0
ARC
  5
3FD
330
1F
100
AcDbEntity
  8
0
  6
CONTINUOUS
 62
     7
100
AcDbCircle
 10
664.6161894884
 20
295.2675120291
 30
0.0
 40
2.25
100
AcDbArc
 50
90.0
 51
180.0
  0
LINE
  5
3FE
330
1F
100
AcDbEntity
  8
0
  6
CONTINUOUS
 62
     7
100
AcDbLine
 10
667.1161894884
 20
295.2675120291
 30
0.0
 11
667.1161894884
 21
280.2675120291
 31
0.0
  0
LINE
  5
3FF
330
1F
100
AcDbEntity
  8
0
  6
CONTINUOUS
 62
     7
100
AcDbLine
 10
662.1161894884
 20
280.2675120291
 30
0.0
 11
662.1161894884
 21
295.2675120291
 31
0.0
  0
ARC
  5
400
330
1F
100
AcDbEntity
  8
0
  6
CONTINUOUS
 62
     7
100
AcDbCircle
 10
664.6161894884
 20
295.2675120291
 30
0.0
 40
2.5
100
AcDbArc
 50
0.0
 51
90.0
  0
ARC
  5
401
330
1F
100
AcDbEntity
  8
0
  6
CONTINUOUS
 62
     7
100
AcDbCircle
 10
664.6161894884
 20
295.2675120291
 30
0.0
 40
2.5
100
AcDbArc
 50
90.0
 51
180.0
  0
LINE
  5
402
330
1F
100
AcDbEntity
  8
0
  6
CONTINUOUS
 62
     7
100
AcDbLine
 10
672.3483042198
 20
270.1175120291
 30
0.0
 11
676.0091878716
 21
270.1175120291
 31
0.0
  0
LINE
  5
403
330
1F
100
AcDbEntity
  8
0
  6
CONTINUOUS
 62
     7
100
AcDbLine
 10
672.1578097855
 20
270.1821955597
 30
0.0
 11
676.0345786314
 21
270.1821955597
 31
0.0
  0
LINE
  5
404
330
1F
100
AcDbEntity
  8
0
  6
CONTINUOUS
 62
     7
100
AcDbLine
 10
676.1161894884
 20
214.6175120291
 30
0.0
 11
672.3495998244
 21
214.6175120291
 31
0.0
  0
LINE
  5
405
330
1F
100
AcDbEntity
  8
0
  6
CONTINUOUS
 62
     7
100
AcDbLine
 10
676.0345786314
 20
214.5528284984
 30
0.0
 11
672.1620647755
 21
214.5528284984
 31
0.0
  0
LINE
  5
406
330
1F
100
AcDbEntity
  8
0
  6
CONTINUOUS
 62
     7
100
AcDbLine
 10
128.6161894884
 20
262.3675120291
 30
0.0
 11
128.6161894884
 21
222.3675120291
 31
0.0
  0
LINE
  5
407
330
1F
100
AcDbEntity
  8
0
  6
CONTINUOUS
 62
     7
100
AcDbLine
 10
112.616260339
 20
222.3675120291
 30
0.0
 11
92.6161894884
 21
222.3675120291
 31
0.0
  0
LINE
  5
408
330
1F
100
AcDbEntity
  8
0
  6
CONTINUOUS
 62
     7
100
AcDbLine
 10
92.6161894884
 20
262.3675120291
 30
0.0
 11
112.6161894884
 21
262.3675120291
 31
0.0
  0
LINE
  5
409
330
1F
100
AcDbEntity
  8
0
  6
CONTINUOUS
 62
     7
100
AcDbLine
 10
648.6161891031
 20
222.3675120291
 30
0.0
 11
648.6161891031
 21
262.3675120291
 31
0.0
  0
LINE
  5
40A
330
1F
100
AcDbEntity
  8
0
  6
CONTINUOUS
 62
     7
100
AcDbLine
 10
684.6161894884
 20
222.3675120291
 30
0.0
 11
664.6161894884
 21
222.3675120291
 31
0.0
  0
LINE
  5
40B
330
1F
100
AcDbEntity
  8
0
  6
CONTINUOUS
 62
     7
100
AcDbLine
 10
664.6161894884
 20
262.3675120291
 30
0.0
 11
684.6161894884
 21
262.3675120291
 31
0.0
  0
LINE
  5
40C
330
1F
100
AcDbEntity
  8
0
  6
CONTINUOUS
 62
     7
100
AcDbLine
 10
664.6161894884
 20
215.3675120291
 30
0.0
 11
684.6161894884
 21
215.3675120291
 31
0.0
  0
LINE
  5
40D
330
1F
100
AcDbEntity
  8
0
  6
CONTINUOUS
 62
     7
100
AcDbLine
 10
683.6161894884
 20
214.3675120291
 30
0.0
 11
676.3591218355
 21
214.3675120291
 31
0.0
  0
SPLINE
  5
40E
330
1F
100
AcDbEntity
  8
0
  6
CONTINUOUS
 62
     7
100
AcDbSpline
210
0.0
220
0.0
230
1.0
 70
     8
 71
     3
 72
    21
 73
    17
 74
     0
 42
0.000000001
 43
0.00000001
 40
0.0
 40
0.0
 40
0.0
 40
0.0
 40
0.0758474788475481
 40
0.1521943578792622
 40
0.2304510218200749
 40
0.3095475960894751
 40
0.3625859487493967
 40
0.470391576700902
 40
0.5253280345454636
 40
0.5783729976318699
 40
0.6862422506306891
 40
0.7411366858202978
 40
0.804851401094728
 40
0.869003400203385
 40
0.9343364835341295
 40
1.0
 40
1.0
 40
1.0
 40
1.0
 10
671.6802424353984
 20
214.3675120290744
 30
0.0
 10
671.8188350601819
 20
214.4221797451734
 30
0.0
 10
672.0969328408361
 20
214.5318751243056
 30
0.0
 10
672.5259150385641
 20
214.6750076917733
 30
0.0
 10
672.9635522477168
 20
214.7986204591429
 30
0.0
 10
673.3569264866361
 20
214.8854242940572
 30
0.0
 10
673.7994078057593
 20
214.9581478737524
 30
0.0
 10
674.1877507497865
 20
214.9926993769209
 30
0.0
 10
674.5556400194693
 20
214.9935340174425
 30
0.0
 10
674.9078452114962
 20
214.9722079575744
 30
0.0
 10
675.2333896655584
 20
214.9182538163098
 30
0.0
 10
675.5408378350303
 20
214.8308366453589
 30
0.0
 10
675.7691334858229
 20
214.7437018995152
 30
0.0
 10
675.9871975862
 20
214.6344715344427
 30
0.0
 10
676.1862460185524
 20
214.5097725518764
 30
0.0
 10
676.3013997397804
 20
214.4150118798779
 30
0.0
 10
676.3591218354817
 20
214.3675120290744
 30
0.0
  0
LINE
  5
40F
330
1F
100
AcDbEntity
  8
0
  6
CONTINUOUS
 62
     7
100
AcDbLine
 10
671.6802424354
 20
214.3675120291
 30
0.0
 11
664.6161894884
 21
214.3675120291
 31
0.0
  0
LINE
  5
410
330
1F
100
AcDbEntity
  8
0
  6
CONTINUOUS
 62
     7
100
AcDbLine
 10
598.0304030508
 20
214.3675120291
 30
0.0
 11
664.6161894884
 21
214.3675120291
 31
0.0
  0
LINE
  5
411
330
1F
100
AcDbEntity
  8
0
  6
CONTINUOUS
 62
     7
100
AcDbLine
 10
597.6161894884
 20
215.3675120291
 30
0.0
 11
598.0304030508
 21
214.3675120291
 31
0.0
  0
LINE
  5
412
330
1F
100
AcDbEntity
  8
0
  6
CONTINUOUS
 62
     7
100
AcDbLine
 10
597.6161894884
 20
215.3675120291
 30
0.0
 11
664.6161894884
 21
215.3675120291
 31
0.0
  0
LINE
  5
413
330
1F
100
AcDbEntity
  8
0
  6
CONTINUOUS
 62
     7
100
AcDbLine
 10
597.6161894884
 20
222.3675120291
 30
0.0
 11
597.6161894884
 21
215.3675120291
 31
0.0
  0
LINE
  5
414
330
1F
100
AcDbEntity
  8
0
  6
CONTINUOUS
 62
     7
100
AcDbLine
 10
597.6161894884
 20
222.3675120291
 30
0.0
 11
664.6161894884
 21
222.3675120291
 31
0.0
  0
LINE
  5
415
330
1F
100
AcDbEntity
  8
0
  6
CONTINUOUS
 62
     7
100
AcDbLine
 10
594.6161894884
 20
215.3675120291
 30
0.0
 11
597.6161894884
 21
215.3675120291
 31
0.0
  0
LINE
  5
416
330
1F
100
AcDbEntity
  8
0
  6
CONTINUOUS
 62
     7
100
AcDbLine
 10
594.6161894884
 20
222.3675120291
 30
0.0
 11
594.6161894884
 21
215.3675120291
 31
0.0
  0
LINE
  5
417
330
1F
100
AcDbEntity
  8
0
  6
CONTINUOUS
 62
     7
100
AcDbLine
 10
594.6161894884
 20
222.3675120291
 30
0.0
 11
597.6161894884
 21
222.3675120291
 31
0.0
  0
LINE
  5
418
330
1F
100
AcDbEntity
  8
0
  6
CONTINUOUS
 62
     7
100
AcDbLine
 10
595.6161894884
 20
214.3675120291
 30
0.0
 11
598.0304030508
 21
214.3675120291
 31
0.0
  0
LINE
  5
419
330
1F
100
AcDbEntity
  8
0
  6
CONTINUOUS
 62
     7
100
AcDbLine
 10
594.6161894884
 20
215.3675120291
 30
0.0
 11
595.6161894884
 21
214.3675120291
 31
0.0
  0
LINE
  5
41A
330
1F
100
AcDbEntity
  8
0
  6
CONTINUOUS
 62
     7
100
AcDbLine
 10
676.3591218355
 20
214.3675120291
 30
0.0
 11
671.6555730551
 21
214.3675120291
 31
0.0
  0
LINE
  5
41B
330
1F
100
AcDbEntity
  8
0
  6
CONTINUOUS
 62
     7
100
AcDbLine
 10
684.6161894884
 20
269.3675120291
 30
0.0
 11
664.6161894884
 21
269.3675120291
 31
0.0
  0
LINE
  5
41C
330
1F
100
AcDbEntity
  8
0
  6
CONTINUOUS
 62
     7
100
AcDbLine
 10
664.6161894884
 20
270.3675120291
 30
0.0
 11
671.6802424354
 21
270.3675120291
 31
0.0
  0
SPLINE
  5
41D
330
1F
100
AcDbEntity
  8
0
  6
CONTINUOUS
 62
     7
100
AcDbSpline
210
0.0
220
0.0
230
1.0
 70
     8
 71
     3
 72
    21
 73
    17
 74
     0
 42
0.000000001
 43
0.00000001
 40
0.0
 40
0.0
 40
0.0
 40
0.0
 40
0.1206531034031739
 40
0.2697259267286464
 40
0.3094025195989843
 40
0.3447033896251728
 40
0.4160625087677843
 40
0.4886514050529325
 40
0.5252941844306133
 40
0.5605902009825876
 40
0.6319880753762067
 40
0.7045993288122365
 40
0.7412100197701287
 40
0.869215365732768
 40
0.9562107439557433
 40
1.0
 40
1.0
 40
1.0
 40
1.0
 10
676.3591218354817
 20
270.3675120290744
 30
0.0
 10
676.249917904434
 20
270.2819770973062
 30
0.0
 10
676.0057871637122
 20
270.09075956466
 30
0.0
 10
675.6327505649213
 20
269.9296218043307
 30
0.0
 10
675.3274876756556
 20
269.8443758401399
 30
0.0
 10
675.1179601490737
 20
269.7979108437289
 30
0.0
 10
674.8444597570635
 20
269.7575432984266
 30
0.0
 10
674.5483270200383
 20
269.741106904766
 30
0.0
 10
674.3012150978825
 20
269.7430566345184
 30
0.0
 10
674.0502890334943
 20
269.754800547161
 30
0.0
 10
673.7269236290521
 20
269.7875314595124
 30
0.0
 10
673.393033447822
 20
269.8437617161025
 30
0.0
 10
672.950886771066
 20
269.9385663450128
 30
0.0
 10
672.47796156012
 20
270.0714941972647
 30
0.0
 10
671.998465804212
 20
270.2403717705695
 30
0.0
 10
671.7600640201232
 20
270.3356207919411
 30
0.0
 10
671.6802424353984
 20
270.3675120290744
 30
0.0
  0
LINE
  5
41E
330
1F
100
AcDbEntity
  8
0
  6
CONTINUOUS
 62
     7
100
AcDbLine
 10
676.3591218355
 20
270.3675120291
 30
0.0
 11
683.6161894884
 21
270.3675120291
 31
0.0
  0
LINE
  5
41F
330
1F
100
AcDbEntity
  8
0
  6
CONTINUOUS
 62
     7
100
AcDbLine
 10
664.6161894884
 20
269.3675120291
 30
0.0
 11
597.6161894884
 21
269.3675120291
 31
0.0
  0
LINE
  5
420
330
1F
100
AcDbEntity
  8
0
  6
CONTINUOUS
 62
     7
100
AcDbLine
 10
598.0304030508
 20
270.3675120291
 30
0.0
 11
597.6161894884
 21
269.3675120291
 31
0.0
  0
LINE
  5
421
330
1F
100
AcDbEntity
  8
0
  6
CONTINUOUS
 62
     7
100
AcDbLine
 10
664.6161894884
 20
270.3675120291
 30
0.0
 11
598.0304030508
 21
270.3675120291
 31
0.0
  0
LINE
  5
422
330
1F
100
AcDbEntity
  8
0
  6
CONTINUOUS
 62
     7
100
AcDbLine
 10
664.6161894884
 20
262.3675120291
 30
0.0
 11
597.6161894884
 21
262.3675120291
 31
0.0
  0
LINE
  5
423
330
1F
100
AcDbEntity
  8
0
  6
CONTINUOUS
 62
     7
100
AcDbLine
 10
597.6161894884
 20
269.3675120291
 30
0.0
 11
597.6161894884
 21
262.3675120291
 31
0.0
  0
LINE
  5
424
330
1F
100
AcDbEntity
  8
0
  6
CONTINUOUS
 62
     7
100
AcDbLine
 10
597.6161894884
 20
269.3675120291
 30
0.0
 11
594.6161894884
 21
269.3675120291
 31
0.0
  0
LINE
  5
425
330
1F
100
AcDbEntity
  8
0
  6
CONTINUOUS
 62
     7
100
AcDbLine
 10
597.6161894884
 20
262.3675120291
 30
0.0
 11
594.6161894884
 21
262.3675120291
 31
0.0
  0
LINE
  5
426
330
1F
100
AcDbEntity
  8
0
  6
CONTINUOUS
 62
     7
100
AcDbLine
 10
594.6161894884
 20
262.3675120291
 30
0.0
 11
594.6161894884
 21
269.3675120291
 31
0.0
  0
LINE
  5
427
330
1F
100
AcDbEntity
  8
0
  6
CONTINUOUS
 62
     7
100
AcDbLine
 10
594.6161894884
 20
269.3675120291
 30
0.0
 11
595.6161894884
 21
270.3675120291
 31
0.0
  0
LINE
  5
428
330
1F
100
AcDbEntity
  8
0
  6
CONTINUOUS
 62
     7
100
AcDbLine
 10
598.0304030508
 20
270.3675120291
 30
0.0
 11
595.6161894884
 21
270.3675120291
 31
0.0
  0
LINE
  5
429
330
1F
100
AcDbEntity
  8
0
  6
CONTINUOUS
 62
     7
100
AcDbLine
 10
671.6505653508
 20
270.3675120291
 30
0.0
 11
676.3591218355
 21
270.3675120291
 31
0.0
  0
LINE
  5
42A
330
1F
100
AcDbEntity
  8
0
  6
CONTINUOUS
 62
     7
100
AcDbLine
 10
112.6161894884
 20
269.3675120291
 30
0.0
 11
92.6161894884
 21
269.3675120291
 31
0.0
  0
LINE
  5
42B
330
1F
100
AcDbEntity
  8
0
  6
CONTINUOUS
 62
     7
100
AcDbLine
 10
93.6161894884
 20
270.3675120291
 30
0.0
 11
100.8732571413
 21
270.3675120291
 31
0.0
  0
SPLINE
  5
42C
330
1F
100
AcDbEntity
  8
0
  6
CONTINUOUS
 62
     7
100
AcDbSpline
210
0.0
220
0.0
230
1.0
 70
     8
 71
     3
 72
    21
 73
    17
 74
     0
 42
0.000000001
 43
0.00000001
 40
0.0
 40
0.0
 40
0.0
 40
0.0
 40
0.0758474788475487
 40
0.1521943578792547
 40
0.230451021820068
 40
0.3095475960894689
 40
0.362585948749391
 40
0.4703915767008973
 40
0.5253280345454594
 40
0.5783729976318661
 40
0.6862422506306862
 40
0.7411366858202953
 40
0.8048514010947262
 40
0.8690034002033837
 40
0.9343364835341289
 40
1.0
 40
1.0
 40
1.0
 40
1.0
 10
105.5521365413634
 20
270.3675120290744
 30
0.0
 10
105.41354391658
 20
270.3128443129754
 30
0.0
 10
105.1354461359258
 20
270.2031489338432
 30
0.0
 10
104.7064639381977
 20
270.0600163663756
 30
0.0
 10
104.2688267290451
 20
269.9364035990059
 30
0.0
 10
103.8754524901257
 20
269.8495997640916
 30
0.0
 10
103.4329711710027
 20
269.7768761843963
 30
0.0
 10
103.0446282269756
 20
269.7423246812278
 30
0.0
 10
102.6767389572926
 20
269.7414900407063
 30
0.0
 10
102.3245337652656
 20
269.7628161005744
 30
0.0
 10
101.9989893112034
 20
269.816770241839
 30
0.0
 10
101.6915411417316
 20
269.90418741279
 30
0.0
 10
101.4632454909389
 20
269.9913221586336
 30
0.0
 10
101.2451813905619
 20
270.1005525237061
 30
0.0
 10
101.0461329582096
 20
270.2252515062723
 30
0.0
 10
100.9309792369813
 20
270.3200121782709
 30
0.0
 10
100.8732571412803
 20
270.3675120290744
 30
0.0
  0
LINE
  5
42D
330
1F
100
AcDbEntity
  8
0
  6
CONTINUOUS
 62
     7
100
AcDbLine
 10
105.5521365414
 20
270.3675120291
 30
0.0
 11
112.6161894884
 21
270.3675120291
 31
0.0
  0
LINE
  5
42E
330
1F
100
AcDbEntity
  8
0
  6
CONTINUOUS
 62
     7
100
AcDbLine
 10
179.201975926
 20
270.3675120291
 30
0.0
 11
112.6161894884
 21
270.3675120291
 31
0.0
  0
LINE
  5
42F
330
1F
100
AcDbEntity
  8
0
  6
CONTINUOUS
 62
     7
100
AcDbLine
 10
179.6161894884
 20
269.3675120291
 30
0.0
 11
179.201975926
 21
270.3675120291
 31
0.0
  0
LINE
  5
430
330
1F
100
AcDbEntity
  8
0
  6
CONTINUOUS
 62
     7
100
AcDbLine
 10
179.6161894884
 20
269.3675120291
 30
0.0
 11
112.6161894884
 21
269.3675120291
 31
0.0
  0
LINE
  5
431
330
1F
100
AcDbEntity
  8
0
  6
CONTINUOUS
 62
     7
100
AcDbLine
 10
179.6161894884
 20
262.3675120291
 30
0.0
 11
179.6161894884
 21
269.3675120291
 31
0.0
  0
LINE
  5
432
330
1F
100
AcDbEntity
  8
0
  6
CONTINUOUS
 62
     7
100
AcDbLine
 10
179.6161894884
 20
262.3675120291
 30
0.0
 11
112.6161894884
 21
262.3675120291
 31
0.0
  0
LINE
  5
433
330
1F
100
AcDbEntity
  8
0
  6
CONTINUOUS
 62
     7
100
AcDbLine
 10
182.6161894884
 20
269.3675120291
 30
0.0
 11
179.6161894884
 21
269.3675120291
 31
0.0
  0
LINE
  5
434
330
1F
100
AcDbEntity
  8
0
  6
CONTINUOUS
 62
     7
100
AcDbLine
 10
182.6161894884
 20
262.3675120291
 30
0.0
 11
182.6161894884
 21
269.3675120291
 31
0.0
  0
LINE
  5
435
330
1F
100
AcDbEntity
  8
0
  6
CONTINUOUS
 62
     7
100
AcDbLine
 10
182.6161894884
 20
262.3675120291
 30
0.0
 11
179.6161894884
 21
262.3675120291
 31
0.0
  0
LINE
  5
436
330
1F
100
AcDbEntity
  8
0
  6
CONTINUOUS
 62
     7
100
AcDbLine
 10
181.6161894884
 20
270.3675120291
 30
0.0
 11
179.201975926
 21
270.3675120291
 31
0.0
  0
LINE
  5
437
330
1F
100
AcDbEntity
  8
0
  6
CONTINUOUS
 62
     7
100
AcDbLine
 10
182.6161894884
 20
269.3675120291
 30
0.0
 11
181.6161894884
 21
270.3675120291
 31
0.0
  0
LINE
  5
438
330
1F
100
AcDbEntity
  8
0
  6
CONTINUOUS
 62
     7
100
AcDbLine
 10
100.8732571413
 20
270.3675120291
 30
0.0
 11
105.5521365414
 21
270.3675120291
 31
0.0
  0
LINE
  5
439
330
1F
100
AcDbEntity
  8
0
  6
CONTINUOUS
 62
     7
100
AcDbLine
 10
92.6161894884
 20
215.3675120291
 30
0.0
 11
112.6161894884
 21
215.3675120291
 31
0.0
  0
LINE
  5
43A
330
1F
100
AcDbEntity
  8
0
  6
CONTINUOUS
 62
     7
100
AcDbLine
 10
112.6161894884
 20
214.3675120291
 30
0.0
 11
105.5521365414
 21
214.3675120291
 31
0.0
  0
SPLINE
  5
43B
330
1F
100
AcDbEntity
  8
0
  6
CONTINUOUS
 62
     7
100
AcDbSpline
210
0.0
220
0.0
230
1.0
 70
     8
 71
     3
 72
    21
 73
    17
 74
     0
 42
0.000000001
 43
0.00000001
 40
0.0
 40
0.0
 40
0.0
 40
0.0
 40
0.1206531034031741
 40
0.2697259267286466
 40
0.3094025195989846
 40
0.344703389625173
 40
0.4160625087677846
 40
0.4886514050529328
 40
0.5252941844306135
 40
0.5605902009825878
 40
0.6319880753762069
 40
0.7045993288122366
 40
0.7412100197701289
 40
0.8692153657327681
 40
0.9562107439557433
 40
1.0
 40
1.0
 40
1.0
 40
1.0
 10
100.8732571412803
 20
214.3675120290744
 30
0.0
 10
100.9824610723278
 20
214.4530469608426
 30
0.0
 10
101.2265918130498
 20
214.6442644934888
 30
0.0
 10
101.5996284118407
 20
214.8054022538181
 30
0.0
 10
101.9048913011064
 20
214.890648218009
 30
0.0
 10
102.1144188276881
 20
214.93711321442
 30
0.0
 10
102.3879192196984
 20
214.9774807597221
 30
0.0
 10
102.6840519567236
 20
214.9939171533829
 30
0.0
 10
102.9311638788793
 20
214.9919674236305
 30
0.0
 10
103.1820899432676
 20
214.9802235109878
 30
0.0
 10
103.5054553477099
 20
214.9474925986365
 30
0.0
 10
103.8393455289398
 20
214.8912623420463
 30
0.0
 10
104.2814922056961
 20
214.7964577131361
 30
0.0
 10
104.7544174166418
 20
214.6635298608841
 30
0.0
 10
105.23391317255
 20
214.4946522875793
 30
0.0
 10
105.4723149566386
 20
214.3994032662077
 30
0.0
 10
105.5521365413635
 20
214.3675120290744
 30
0.0
  0
LINE
  5
43C
330
1F
100
AcDbEntity
  8
0
  6
CONTINUOUS
 62
     7
100
AcDbLine
 10
100.8732571413
 20
214.3675120291
 30
0.0
 11
93.6161894884
 21
214.3675120291
 31
0.0
  0
LINE
  5
43D
330
1F
100
AcDbEntity
  8
0
  6
CONTINUOUS
 62
     7
100
AcDbLine
 10
112.6161894884
 20
215.3675120291
 30
0.0
 11
179.6161894884
 21
215.3675120291
 31
0.0
  0
LINE
  5
43E
330
1F
100
AcDbEntity
  8
0
  6
CONTINUOUS
 62
     7
100
AcDbLine
 10
179.201975926
 20
214.3675120291
 30
0.0
 11
179.6161894884
 21
215.3675120291
 31
0.0
  0
LINE
  5
43F
330
1F
100
AcDbEntity
  8
0
  6
CONTINUOUS
 62
     7
100
AcDbLine
 10
112.6161894884
 20
214.3675120291
 30
0.0
 11
179.201975926
 21
214.3675120291
 31
0.0
  0
LINE
  5
440
330
1F
100
AcDbEntity
  8
0
  6
CONTINUOUS
 62
     7
100
AcDbLine
 10
179.6161894884
 20
215.3675120291
 30
0.0
 11
179.6161894884
 21
222.3675120291
 31
0.0
  0
LINE
  5
441
330
1F
100
AcDbEntity
  8
0
  6
CONTINUOUS
 62
     7
100
AcDbLine
 10
112.6161894884
 20
222.3675120291
 30
0.0
 11
179.6161894884
 21
222.3675120291
 31
0.0
  0
LINE
  5
442
330
1F
100
AcDbEntity
  8
0
  6
CONTINUOUS
 62
     7
100
AcDbLine
 10
179.6161894884
 20
215.3675120291
 30
0.0
 11
182.6161894884
 21
215.3675120291
 31
0.0
  0
LINE
  5
443
330
1F
100
AcDbEntity
  8
0
  6
CONTINUOUS
 62
     7
100
AcDbLine
 10
182.6161894884
 20
222.3675120291
 30
0.0
 11
182.6161894884
 21
215.3675120291
 31
0.0
  0
LINE
  5
444
330
1F
100
AcDbEntity
  8
0
  6
CONTINUOUS
 62
     7
100
AcDbLine
 10
179.6161894884
 20
222.3675120291
 30
0.0
 11
182.6161894884
 21
222.3675120291
 31
0.0
  0
LINE
  5
445
330
1F
100
AcDbEntity
  8
0
  6
CONTINUOUS
 62
     7
100
AcDbLine
 10
92.6161894884
 20
222.3675120291
 30
0.0
 11
112.6161894884
 21
222.3675120291
 31
0.0
  0
LINE
  5
446
330
1F
100
AcDbEntity
  8
0
  6
CONTINUOUS
 62
     7
100
AcDbLine
 10
182.6161894884
 20
215.3675120291
 30
0.0
 11
181.6161894884
 21
214.3675120291
 31
0.0
  0
LINE
  5
447
330
1F
100
AcDbEntity
  8
0
  6
CONTINUOUS
 62
     7
100
AcDbLine
 10
179.201975926
 20
214.3675120291
 30
0.0
 11
181.6161894884
 21
214.3675120291
 31
0.0
  0
LINE
  5
448
330
1F
100
AcDbEntity
  8
0
  6
CONTINUOUS
 62
     7
100
AcDbLine
 10
105.5521365414
 20
214.3675120291
 30
0.0
 11
100.8732571413
 21
214.3675120291
 31
0.0
  0
LINE
  5
449
330
1F
100
AcDbEntity
  8
0
  6
CONTINUOUS
 62
     7
100
AcDbLine
 10
659.1161894884
 20
300.2675120291
 30
0.0
 11
670.1161894884
 21
300.2675120291
 31
0.0
  0
LINE
  5
44A
330
1F
100
AcDbEntity
  8
0
  6
CONTINUOUS
 62
     7
100
AcDbLine
 10
670.6161894884
 20
299.7675120291
 30
0.0
 11
658.6161894884
 21
299.7675120291
 31
0.0
  0
LINE
  5
44B
330
1F
100
AcDbEntity
  8
0
  6
CONTINUOUS
 62
     7
100
AcDbLine
 10
658.6161894884
 20
183.7675120291
 30
0.0
 11
670.6161894884
 21
183.7675120291
 31
0.0
  0
LINE
  5
44C
330
1F
100
AcDbEntity
  8
0
  6
CONTINUOUS
 62
     7
100
AcDbLine
 10
658.6161894884
 20
184.6675120291
 30
0.0
 11
670.6161894884
 21
184.6675120291
 31
0.0
  0
LINE
  5
44D
330
1F
100
AcDbEntity
  8
0
  6
CONTINUOUS
 62
     7
100
AcDbLine
 10
670.1161894884
 20
183.2675120291
 30
0.0
 11
659.1161894884
 21
183.2675120291
 31
0.0
  0
LINE
  5
44E
330
1F
100
AcDbEntity
  8
0
  6
CONTINUOUS
 62
     7
100
AcDbLine
 10
657.0661894884
 20
184.7675120291
 30
0.0
 11
670.6021183888
 21
184.7675120291
 31
0.0
  0
LINE
  5
44F
330
1F
100
AcDbEntity
  8
0
  6
CONTINUOUS
 62
     7
100
AcDbLine
 10
657.0661894884
 20
185.7675120291
 30
0.0
 11
670.6021183888
 21
185.7675120291
 31
0.0
  0
LINE
  5
450
330
1F
100
AcDbEntity
  8
0
  6
CONTINUOUS
 62
     7
100
AcDbLine
 10
670.6021183888
 20
185.7675120291
 30
0.0
 11
670.6021183888
 21
184.7675120291
 31
0.0
  0
LINE
  5
451
330
1F
100
AcDbEntity
  8
0
  6
CONTINUOUS
 62
     7
100
AcDbLine
 10
672.9540032906
 20
185.7675120291
 30
0.0
 11
672.9540032906
 21
184.7675120291
 31
0.0
  0
LINE
  5
452
330
1F
100
AcDbEntity
  8
0
  6
CONTINUOUS
 62
     7
100
AcDbLine
 10
670.6021183888
 20
184.7675120291
 30
0.0
 11
672.9540032906
 21
184.7675120291
 31
0.0
  0
LINE
  5
453
330
1F
100
AcDbEntity
  8
0
  6
CONTINUOUS
 62
     7
100
AcDbLine
 10
670.6021183888
 20
185.7675120291
 30
0.0
 11
672.9540032906
 21
185.7675120291
 31
0.0
  0
LINE
  5
454
330
1F
100
AcDbEntity
  8
0
  6
CONTINUOUS
 62
     7
100
AcDbLine
 10
673.6562046985
 20
184.7675120291
 30
0.0
 11
673.6562046985
 21
185.7675120291
 31
0.0
  0
LINE
  5
455
330
1F
100
AcDbEntity
  8
0
  6
CONTINUOUS
 62
     7
100
AcDbLine
 10
672.9540032906
 20
184.7675120291
 30
0.0
 11
673.6562046985
 21
184.7675120291
 31
0.0
  0
LINE
  5
456
330
1F
100
AcDbEntity
  8
0
  6
CONTINUOUS
 62
     7
100
AcDbLine
 10
672.9540032906
 20
185.7675120291
 30
0.0
 11
673.6562046985
 21
185.7675120291
 31
0.0
  0
LINE
  5
457
330
1F
100
AcDbEntity
  8
0
  6
CONTINUOUS
 62
     7
100
AcDbLine
 10
105.1411894884
 20
184.7675120291
 30
0.0
 11
120.0911894884
 21
184.7675120291
 31
0.0
  0
LINE
  5
458
330
1F
100
AcDbEntity
  8
0
  6
CONTINUOUS
 62
     7
100
AcDbLine
 10
105.1411894884
 20
185.7675120291
 30
0.0
 11
120.0911894884
 21
185.7675120291
 31
0.0
  0
DIMENSION
  5
459
330
1F
100
AcDbEntity
  8
OPISY
100
AcDbDimension
  2
_D_4
 10
659.0040531266
 20
327.7159903617
 30
0.0
 11
665.0028977877
 21
327.6327395426
 31
0.0
 70
   160
  1
%%c<>
  3
SLDDIMSTYLE2
100
AcDbAlignedDimension
 13
670.6161894884
 23
299.7675120291
 33
0.0
 14
658.6161894884
 24
299.7675120291
 34
0.0
 50
-0.7950888321
100
AcDbRotatedDimension
  0
DIMENSION
  5
468
330
1F
100
AcDbEntity
  8
OPISY
100
AcDbDimension
  2
_D_5
 10
667.1161894884
 20
315.4343463654
 30
0.0
 11
681.0128400859
 21
315.4343463654
 31
0.0
 70
   160
  1
<>
  3
SLDDIMSTYLE2
100
AcDbAlignedDimension
 13
662.1161894884
 23
295.2675120291
 33
0.0
 14
667.1161894884
 24
295.2675120291
 34
0.0
100
AcDbRotatedDimension
  0
DIMENSION
  5
474
330
1F
100
AcDbEntity
  8
OPISY
100
AcDbDimension
  2
_D_6
 10
696.4281936318
 20
300.2675120291
 30
0.0
 11
696.4281936318
 21
314.5661966789
 31
0.0
 70
   160
  1
<>
  3
SLDDIMSTYLE2
100
AcDbAlignedDimension
 13
664.6161894884
 23
297.7675120291
 33
0.0
 14
670.1161894884
 24
300.2675120291
 34
0.0
 50
90.0
100
AcDbRotatedDimension
  0
DIMENSION
  5
480
330
1F
100
AcDbEntity
  8
OPISY
100
AcDbDimension
  2
_D_7
 10
706.0854366015
 20
277.7675120291
 30
0.0
 11
706.0854366015
 21
287.7675120291
 31
0.0
 70
   160
  1
<>
  3
SLDDIMSTYLE3
100
AcDbAlignedDimension
 13
664.6161894884
 23
297.7675120291
 33
0.0
 14
664.6161894884
 24
277.7675120291
 34
0.0
 50
90.0
100
AcDbRotatedDimension
  0
DIMENSION
  5
48B
330
1F
100
AcDbEntity
  8
OPISY
100
AcDbDimension
  2
_D_8
 10
717.282339128
 20
300.2675120291
 30
0.0
 11
717.282339128
 21
285.3175120291
 31
0.0
 70
   160
  1
<>
  3
SLDDIMSTYLE4
100
AcDbAlignedDimension
 13
683.6161894884
 23
270.3675120291
 33
0.0
 14
670.1161894884
 24
300.2675120291
 34
0.0
 50
90.0
100
AcDbRotatedDimension
  0
DIMENSION
  5
496
330
1F
100
AcDbEntity
  8
OPISY
100
AcDbDimension
  2
_D_9
 10
717.282339128
 20
182.3675120291
 30
0.0
 11
717.282339128
 21
198.3675120291
 31
0.0
 70
   160
  1
<>
  3
SLDDIMSTYLE3
100
AcDbAlignedDimension
 13
664.6161894884
 23
214.3675120291
 33
0.0
 14
567.3661894884
 24
182.3675120291
 34
0.0
 50
90.0
100
AcDbRotatedDimension
  0
DIMENSION
  5
4A2
330
1F
100
AcDbEntity
  8
OPISY
100
AcDbDimension
  2
_D_10
 10
459.1808222543
 20
182.3675120291
 30
0.0
 11
459.1808222543
 21
287.7675120291
 31
0.0
 70
   160
  1
<>
  3
SLDDIMSTYLE3
100
AcDbAlignedDimension
 13
499.8661894884
 23
273.8675120291
 33
0.0
 14
489.8661894884
 24
182.3675120291
 34
0.0
 50
90.0
100
AcDbRotatedDimension
  0
DIMENSION
  5
4AD
330
1F
100
AcDbEntity
  8
OPISY
100
AcDbDimension
  2
_D_11
 10
473.6388818616
 20
182.3675120291
 30
0.0
 11
473.6388818616
 21
202.6175120291
 31
0.0
 70
   160
  1
<>
  3
SLDDIMSTYLE3
100
AcDbAlignedDimension
 13
496.1161894884
 23
222.8675120291
 33
0.0
 14
489.8661894884
 24
182.3675120291
 34
0.0
 50
90.0
100
AcDbRotatedDimension
  0
DIMENSION
  5
4B7
330
1F
100
AcDbEntity
  8
OPISY
100
AcDbDimension
  2
_D_12
 10
473.6388818616
 20
222.8675120291
 30
0.0
 11
473.6388818616
 21
243.8675120291
 31
0.0
 70
   160
  1
<>
  3
SLDDIMSTYLE3
100
AcDbAlignedDimension
 13
496.1161894884
 23
264.8675120291
 33
0.0
 14
496.1161894884
 24
222.8675120291
 34
0.0
 50
90.0
100
AcDbRotatedDimension
  0
DIMENSION
  5
4C1
330
1F
100
AcDbEntity
  8
OPISY
100
AcDbDimension
  2
_D_13
 10
561.1161894884
 20
285.3175120291
 30
0.0
 11
528.6161894884
 21
285.3175120291
 31
0.0
 70
   160
  1
<>
  3
SLDDIMSTYLE3
100
AcDbAlignedDimension
 13
496.1161894884
 23
264.8675120291
 33
0.0
 14
561.1161894884
 24
264.8675120291
 34
0.0
100
AcDbRotatedDimension
  0
DIMENSION
  5
4CB
330
1F
100
AcDbEntity
  8
OPISY
100
AcDbDimension
  2
_D_14
 10
567.3661894884
 20
299.4710653254
 30
0.0
 11
528.6161894884
 21
299.4710653254
 31
0.0
 70
   160
  1
<>
  3
SLDDIMSTYLE3
100
AcDbAlignedDimension
 13
489.8661894884
 23
263.8675120291
 33
0.0
 14
567.3661894884
 24
263.8675120291
 34
0.0
100
AcDbRotatedDimension
  0
DIMENSION
  5
4D5
330
1F
100
AcDbEntity
  8
OPISY
100
AcDbDimension
  2
_D_15
 10
585.9448100972
 20
273.8675120291
 30
0.0
 11
585.9448100972
 21
284.1143614937
 31
0.0
 70
   160
  1
<>
  3
SLDDIMSTYLE3
100
AcDbAlignedDimension
 13
628.6161894884
 23
242.367512029
 33
0.0
 14
557.3661894884
 24
273.8675120291
 34
0.0
 50
90.0
100
AcDbRotatedDimension
  0
DIMENSION
  5
4E0
330
1F
100
AcDbEntity
  8
OPISY
100
AcDbDimension
  2
_D_16
 10
717.282339128
 20
222.3675120291
 30
0.0
 11
717.282339128
 21
242.3675120291
 31
0.0
 70
   160
  1
<>
  3
SLDDIMSTYLE3
100
AcDbAlignedDimension
 13
684.6161894884
 23
262.3675120291
 33
0.0
 14
666.1411894884
 24
222.3675120291
 34
0.0
 50
90.0
100
AcDbRotatedDimension
  0
DIMENSION
  5
4EA
330
1F
100
AcDbEntity
  8
OPISY
100
AcDbDimension
  2
_D_17
 10
730.1966824808
 20
214.3675120291
 30
0.0
 11
730.1966824808
 21
242.3675120291
 31
0.0
 70
   160
  1
<>
  3
SLDDIMSTYLE3
100
AcDbAlignedDimension
 13
683.6161894884
 23
270.3675120291
 33
0.0
 14
683.6161894884
 24
214.3675120291
 34
0.0
 50
90.0
100
AcDbRotatedDimension
  0
DIMENSION
  5
4F4
330
1F
100
AcDbEntity
  8
OPISY
100
AcDbDimension
  2
_D_18
 10
138.6161894884
 20
315.4343463654
 30
0.0
 11
388.6161894884
 21
315.4343463654
 31
0.0
 70
   160
  1
L
  3
SLDDIMSTYLE3
100
AcDbAlignedDimension
 13
638.6161894884
 23
258.3675120291
 33
0.0
 14
138.6161894884
 24
258.3675120291
 34
0.0
100
AcDbRotatedDimension
  0
DIMENSION
  5
4FE
330
1F
100
AcDbEntity
  8
OPISY
100
AcDbDimension
  2
_D_19
 10
638.6161894884
 20
168.7596433264
 30
0.0
 11
661.6161894884
 21
168.7596433264
 31
0.0
 70
   160
  1
~<>
  3
SLDDIMSTYLE3
100
AcDbAlignedDimension
 13
684.6161894884
 23
215.3675120291
 33
0.0
 14
638.6161894884
 24
222.3675120291
 34
0.0
 50
0.0
100
AcDbRotatedDimension
  0
DIMENSION
  5
509
330
1F
100
AcDbEntity
  8
OPISY
100
AcDbDimension
  2
_D_20
 10
92.6161894884
 20
315.4343463654
 30
0.0
 11
115.6161894884
 21
315.4343463654
 31
0.0
 70
   160
  1
~<>
  3
SLDDIMSTYLE3
100
AcDbAlignedDimension
 13
138.6161894884
 23
258.3675120291
 33
0.0
 14
92.6161894884
 24
269.3675120291
 34
0.0
100
AcDbRotatedDimension
  0
DIMENSION
  5
514
330
1F
100
AcDbEntity
  8
OPISY
100
AcDbDimension
  2
_D_21
 10
559.6949541982
 20
220.1971721163
 30
0.0
 11
528.6162094884
 21
161.8037182015
 31
0.0
 70
   163
  1
6 x M6
  3
SLDDIMSTYLE5
100
AcDbDiametricDimension
 15
562.5374247786
 25
225.5378519419
 35
0.0
 40
0.0
  0
ENDSEC
  0
SECTION
  2
OBJECTS
  0
DICTIONARY
  5
C
330
0
100
AcDbDictionary
  3
ACAD_GROUP
350
D
  3
ACAD_MLINESTYLE
350
17
  3
ACAD_SCALELIST
350
47
  0
DICTIONARY
  5
D
102
{ACAD_REACTORS
330
C
102
}
330
C
100
AcDbDictionary
  0
DICTIONARY
  5
17
102
{ACAD_REACTORS
330
C
102
}
330
C
100
AcDbDictionary
  3
STANDARD
350
18
  0
DICTIONARY
  5
47
102
{ACAD_REACTORS
330
C
102
}
330
C
100
AcDbDictionary
  0
MLINESTYLE
  5
18
102
{ACAD_REACTORS
330
17
102
}
330
17
100
AcDbMlineStyle
  2
Standard
 70
     0
  3

 62
   256
 51
90.0
 52
90.0
 71
     2
 49
0.5
 62
   256
  6
BYLAYER
 49
-0.5
 62
   256
  6
BYLAYER
  0
ENDSEC
  0
EOF
