  0
SECTION
  2
HEADER
  9
$ACADVER
  1
AC1014
  9
$ACADMAINTVER
 70
     9
  9
$DWGCODEPAGE
  3
ANSI_1250
  9
$INSBASE
 10
0.0
 20
0.0
 30
0.0
  9
$EXTMIN
 10
0.0
 20
0.0
 30
0.0
  9
$EXTMAX
 10
840.0
 20
594.0
 30
0.0
  9
$LIMMIN
 10
0.0
 20
0.0
  9
$LIMMAX
 10
840.0
 20
594.0
  9
$ORTHOMODE
 70
     0
  9
$REGENMODE
 70
     1
  9
$FILLMODE
 70
     1
  9
$QTEXTMODE
 70
     0
  9
$MIRRTEXT
 70
     1
  9
$DRAGMODE
 70
     2
  9
$LTSCALE
 40
2.0
  9
$OSMODE
 70
    37
  9
$ATTMODE
 70
     1
  9
$TEXTSIZE
 40
7.0
  9
$TRACEWID
 40
1.0
  9
$TEXTSTYLE
  7
STANDARD
  9
$CLAYER
  8
0
  9
$CELTYPE
  6
BYLAYER
  9
$CECOLOR
 62
   256
  9
$CELTSCALE
 40
1.0
  9
$DELOBJ
 70
     1
  9
$DISPSILH
 70
     0
  9
$DIMSCALE
 40
1.0
  9
$DIMASZ
 40
8.0
  9
$DIMEXO
 40
1.0
  9
$DIMDLI
 40
3.75
  9
$DIMRND
 40
0.0
  9
$DIMDLE
 40
0.0
  9
$DIMEXE
 40
1.0
  9
$DIMTP
 40
0.0
  9
$DIMTM
 40
0.0
  9
$DIMTXT
 40
5.0
  9
$DIMCEN
 40
2.5
  9
$DIMTSZ
 40
0.0
  9
$DIMTOL
 70
     0
  9
$DIMLIM
 70
     0
  9
$DIMTIH
 70
     1
  9
$DIMTOH
 70
     1
  9
$DIMSE1
 70
     0
  9
$DIMSE2
 70
     0
  9
$DIMTAD
 70
     1
  9
$DIMZIN
 70
     0
  9
$DIMBLK
  1

  9
$DIMASO
 70
     1
  9
$DIMSHO
 70
     1
  9
$DIMPOST
  1

  9
$DIMAPOST
  1

  9
$DIMALT
 70
     0
  9
$DIMALTD
 70
     3
  9
$DIMALTF
 40
0.0393700787
  9
$DIMLFAC
 40
1.0
  9
$DIMTOFL
 70
     1
  9
$DIMTVP
 40
0.0
  9
$DIMTIX
 70
     0
  9
$DIMSOXD
 70
     0
  9
$DIMSAH
 70
     0
  9
$DIMBLK1
  1

  9
$DIMBLK2
  1

  9
$DIMSTYLE
  2
ISO-25
  9
$DIMCLRD
 70
     0
  9
$DIMCLRE
 70
     0
  9
$DIMCLRT
 70
     0
  9
$DIMTFAC
 40
1.0
  9
$DIMGAP
 40
4.0
  9
$DIMJUST
 70
     0
  9
$DIMSD1
 70
     0
  9
$DIMSD2
 70
     0
  9
$DIMTOLJ
 70
     0
  9
$DIMTZIN
 70
     0
  9
$DIMALTZ
 70
     0
  9
$DIMALTTZ
 70
     0
  9
$DIMFIT
 70
     3
  9
$DIMUPT
 70
     0
  9
$DIMUNIT
 70
     2
  9
$DIMDEC
 70
     3
  9
$DIMTDEC
 70
     1
  9
$DIMALTU
 70
     2
  9
$DIMALTTD
 70
     3
  9
$DIMTXSTY
  7
STANDARD
  9
$DIMAUNIT
 70
     0
  9
$LUNITS
 70
     2
  9
$LUPREC
 70
     3
  9
$SKETCHINC
 40
1.0
  9
$FILLETRAD
 40
10.0
  9
$AUNITS
 70
     0
  9
$AUPREC
 70
     3
  9
$MENU
  1
.
  9
$ELEVATION
 40
0.0
  9
$PELEVATION
 40
0.0
  9
$THICKNESS
 40
0.0
  9
$LIMCHECK
 70
     0
  9
$CHAMFERA
 40
10.0
  9
$CHAMFERB
 40
10.0
  9
$CHAMFERC
 40
20.0
  9
$CHAMFERD
 40
0.0
  9
$SKPOLY
 70
     0
  9
$TDCREATE
 40
2457885.383604236
  9
$TDUPDATE
 40
2457885.383604248
  9
$TDINDWG
 40
0.0000000116
  9
$TDUSRTIMER
 40
0.0000000116
  9
$USRTIMER
 70
     1
  9
$ANGBASE
 50
0.0
  9
$ANGDIR
 70
     0
  9
$PDMODE
 70
     0
  9
$PDSIZE
 40
-1.0
  9
$PLINEWID
 40
0.0
  9
$COORDS
 70
     1
  9
$SPLFRAME
 70
     0
  9
$SPLINETYPE
 70
     6
  9
$SPLINESEGS
 70
     8
  9
$ATTDIA
 70
     0
  9
$ATTREQ
 70
     1
  9
$HANDLING
 70
     1
  9
$HANDSEED
  5
54F
  9
$SURFTAB1
 70
     6
  9
$SURFTAB2
 70
     6
  9
$SURFTYPE
 70
     6
  9
$SURFU
 70
     6
  9
$SURFV
 70
     6
  9
$UCSNAME
  2

  9
$UCSORG
 10
0.0
 20
0.0
 30
0.0
  9
$UCSXDIR
 10
1.0
 20
0.0
 30
0.0
  9
$UCSYDIR
 10
0.0
 20
1.0
 30
0.0
  9
$PUCSNAME
  2

  9
$PUCSORG
 10
0.0
 20
0.0
 30
0.0
  9
$PUCSXDIR
 10
1.0
 20
0.0
 30
0.0
  9
$PUCSYDIR
 10
0.0
 20
1.0
 30
0.0
  9
$USERI1
 70
     0
  9
$USERI2
 70
     0
  9
$USERI3
 70
     0
  9
$USERI4
 70
     0
  9
$USERI5
 70
     0
  9
$USERR1
 40
0.0
  9
$USERR2
 40
0.0
  9
$USERR3
 40
0.0
  9
$USERR4
 40
0.0
  9
$USERR5
 40
0.0
  9
$WORLDVIEW
 70
     1
  9
$SHADEDGE
 70
     3
  9
$SHADEDIF
 70
    70
  9
$TILEMODE
 70
     1
  9
$MAXACTVP
 70
    64
  9
$PINSBASE
 10
0.0
 20
0.0
 30
0.0
  9
$PLIMCHECK
 70
     0
  9
$PEXTMIN
 10
1.0000000000E+20
 20
1.0000000000E+20
 30
1.0000000000E+20
  9
$PEXTMAX
 10
-1.0000000000E+20
 20
-1.0000000000E+20
 30
-1.0000000000E+20
  9
$PLIMMIN
 10
0.0
 20
0.0
  9
$PLIMMAX
 10
420.0
 20
297.0
  9
$UNITMODE
 70
     0
  9
$VISRETAIN
 70
     1
  9
$PLINEGEN
 70
     0
  9
$PSLTSCALE
 70
     1
  9
$TREEDEPTH
 70
  3020
  9
$PICKSTYLE
 70
     1
  9
$CMLSTYLE
  2
STANDARD
  9
$CMLJUST
 70
     0
  9
$CMLSCALE
 40
20.0
  9
$PROXYGRAPHICS
 70
     1
  9
$MEASUREMENT
 70
     1
  0
ENDSEC
  0
SECTION
  2
CLASSES
  0
CLASS
  1
ACDBDICTIONARYWDFLT
  2
AcDbDictionaryWithDefault
  3
ObjectDBX Classes
 90
        0
280
     0
281
     0
  0
CLASS
  1
VISUALSTYLE
  2
AcDbVisualStyle
  3
ObjectDBX Classes
 90
     4095
280
     0
281
     0
  0
CLASS
  1
SCALE
  2
AcDbScale
  3
ObjectDBX Classes
 90
     1153
280
     0
281
     0
  0
CLASS
  1
DICTIONARYVAR
  2
AcDbDictionaryVar
  3
ObjectDBX Classes
 90
        0
280
     0
281
     0
  0
CLASS
  1
XRECORD
  2
AcDbXrecord
  3
AutoCAD 2000
 90
        0
280
     0
281
     0
  0
CLASS
  1
LWPOLYLINE
  2
AcDbPolyline
  3
AutoCAD 2000
 90
        0
280
     0
281
     1
  0
CLASS
  1
HATCH
  2
AcDbHatch
  3
AutoCAD 2000
 90
        0
280
     0
281
     1
  0
CLASS
  1
ACDBPLACEHOLDER
  2
AcDbPlaceHolder
  3
ObjectDBX Classes
 90
        0
280
     0
281
     0
  0
CLASS
  1
LAYOUT
  2
AcDbLayout
  3
ObjectDBX Classes
 90
        0
280
     0
281
     0
  0
ENDSEC
  0
SECTION
  2
TABLES
  0
TABLE
  2
VPORT
  5
8
330
0
100
AcDbSymbolTable
 70
     1
  0
VPORT
  5
29
330
8
100
AcDbSymbolTableRecord
100
AcDbViewportTableRecord
  2
*ACTIVE
 70
     0
 10
0.0
 20
0.0
 11
1.0
 21
1.0
 12
420.0
 22
297.0
 13
0.0
 23
0.0
 14
10.0
 24
10.0
 15
10.0
 25
10.0
 16
0.0
 26
0.0
 36
1.0
 17
0.0
 27
0.0
 37
0.0
 40
594.0
 41
1.4141414141
 42
50.0
 43
0.0
 44
0.0
 50
0.0
 51
0.0
 71
     0
 72
  2000
 73
     1
 74
     3
 75
     0
 76
     0
 77
     0
 78
     0
  0
ENDTAB
  0
TABLE
  2
LTYPE
  5
5
330
0
100
AcDbSymbolTable
 70
     6
  0
LTYPE
  5
14
330
5
100
AcDbSymbolTableRecord
100
AcDbLinetypeTableRecord
  2
BYBLOCK
 70
     0
  3

 72
    65
 73
     0
 40
0.0
  0
LTYPE
  5
15
330
5
100
AcDbSymbolTableRecord
100
AcDbLinetypeTableRecord
  2
BYLAYER
 70
     0
  3

 72
    65
 73
     0
 40
0.0
  0
LTYPE
  5
16
330
5
100
AcDbSymbolTableRecord
100
AcDbLinetypeTableRecord
  2
CONTINUOUS
 70
     0
  3
Solid line
 72
    65
 73
     0
 40
0.0
  0
LTYPE
  5
3B
330
5
100
AcDbSymbolTableRecord
100
AcDbLinetypeTableRecord
  2
HIDDEN
 70
     0
  3
Hidden __ __ __ __ __ __ __ __ __ __ __ __ __ __
 72
    65
 73
     2
 40
1.905
 49
1.27
 74
     0
 49
-0.635
 74
     0
  0
LTYPE
  5
3C
330
5
100
AcDbSymbolTableRecord
100
AcDbLinetypeTableRecord
  2
PHANTOM
 70
     0
  3
Phantom ______  __  __  ______  __  __  ______
 72
    65
 73
     6
 40
12.7
 49
6.35
 74
     0
 49
-1.27
 74
     0
 49
1.27
 74
     0
 49
-1.27
 74
     0
 49
1.27
 74
     0
 49
-1.27
 74
     0
  0
LTYPE
  5
3D
330
5
100
AcDbSymbolTableRecord
100
AcDbLinetypeTableRecord
  2
CENTER
 70
     0
  3
Center ____ _ ____ _ ____ _ ____ _ ____ _ ____
 72
    65
 73
     4
 40
10.16
 49
6.35
 74
     0
 49
-1.27
 74
     0
 49
1.27
 74
     0
 49
-1.27
 74
     0
  0
LTYPE
  5
3E
330
5
100
AcDbSymbolTableRecord
100
AcDbLinetypeTableRecord
  2
CENTERX2
 70
     0
  3
Center (2x) ________  __  ________  __  _____
 72
    65
 73
     4
 40
20.32
 49
12.7
 74
     0
 49
-2.54
 74
     0
 49
2.54
 74
     0
 49
-2.54
 74
     0
  0
LTYPE
  5
3F
330
5
100
AcDbSymbolTableRecord
100
AcDbLinetypeTableRecord
  2
DOT2
 70
     0
  3
Dot (.5x) ........................................
 72
    65
 73
     2
 40
0.635
 49
0.0
 74
     0
 49
-0.635
 74
     0
  0
ENDTAB
  0
TABLE
  2
LAYER
  5
2
330
0
100
AcDbSymbolTable
 70
     3
  0
LAYER
  5
10
330
2
100
AcDbSymbolTableRecord
100
AcDbLayerTableRecord
  2
0
 70
     0
 62
     7
  6
CONTINUOUS
  0
LAYER
  5
40
330
2
100
AcDbSymbolTableRecord
100
AcDbLayerTableRecord
  2
OPISY
 70
     0
 62
     6
  6
CONTINUOUS
  0
LAYER
  5
41
330
2
100
AcDbSymbolTableRecord
100
AcDbLayerTableRecord
  2
FORMAT
 70
     0
 62
     7
  6
CONTINUOUS
  0
ENDTAB
  0
TABLE
  2
STYLE
  5
3
330
0
100
AcDbSymbolTable
 70
     5
  0
STYLE
  5
11
330
3
100
AcDbSymbolTableRecord
100
AcDbTextStyleTableRecord
  2
STANDARD
 70
     0
 40
0.0
 41
1.0
 50
0.0
 71
     0
 42
2.5
  3
txt
  4

  0
STYLE
  5
57
330
3
100
AcDbSymbolTableRecord
100
AcDbTextStyleTableRecord
  2
SLDTEXTSTYLE0
 70
     0
 40
0.0
 41
0.75
 50
0.0
 71
     0
 42
0.2
  3
TXT
  4

  0
STYLE
  5
7B
330
3
100
AcDbSymbolTableRecord
100
AcDbTextStyleTableRecord
  2
SLDTEXTSTYLE1
 70
     0
 40
0.0
 41
0.605
 50
0.0
 71
     0
 42
0.2
  3
TXT
  4

  0
STYLE
  5
89
330
3
100
AcDbSymbolTableRecord
100
AcDbTextStyleTableRecord
  2
SLDTEXTSTYLE2
 70
     0
 40
0.0
 41
0.75
 50
0.0
 71
     0
 42
0.2
  3
TXT
  4
bigfont
  0
STYLE
  5
349
330
3
100
AcDbSymbolTableRecord
100
AcDbTextStyleTableRecord
  2
SLDTEXTSTYLE3
 70
     0
 40
0.0
 41
0.6964285714
 50
0.0
 71
     0
 42
0.2
  3
TXT
  4

  0
ENDTAB
  0
TABLE
  2
VIEW
  5
6
330
0
100
AcDbSymbolTable
 70
     0
  0
ENDTAB
  0
TABLE
  2
UCS
  5
7
330
0
100
AcDbSymbolTable
 70
     0
  0
ENDTAB
  0
TABLE
  2
APPID
  5
9
330
0
100
AcDbSymbolTable
 70
     1
  0
APPID
  5
12
330
9
100
AcDbSymbolTableRecord
100
AcDbRegAppTableRecord
  2
ACAD
 70
     0
  0
ENDTAB
  0
TABLE
  2
DIMSTYLE
  5
A
330
0
100
AcDbSymbolTable
 70
     5
  0
DIMSTYLE
105
27
330
A
100
AcDbSymbolTableRecord
100
AcDbDimStyleTableRecord
  2
ISO-25
 70
     0
  3

  4

  5

  6

  7

 40
1.0
 41
2.5
 42
0.625
 43
3.75
 44
1.25
 45
0.0
 46
0.0
 47
0.0
 48
0.0
140
2.5
141
2.5
142
0.0
143
0.0393700787
144
1.0
145
0.0
146
1.0
147
0.625
 71
     0
 72
     0
 73
     0
 74
     0
 75
     0
 76
     0
 77
     1
 78
     8
170
     0
171
     3
172
     1
173
     0
174
     0
175
     0
176
     0
177
     0
178
     0
270
     2
271
     2
272
     2
273
     2
274
     3
340
11
275
     0
280
     0
281
     0
282
     0
283
     0
284
     8
285
     0
286
     0
287
     3
288
     0
  0
DIMSTYLE
105
1B6
102
{ACAD_REACTORS
330
1B5
330
1C0
330
1CA
330
31C
330
340
102
}
330
A
100
AcDbSymbolTableRecord
100
AcDbDimStyleTableRecord
  2
SLDDIMSTYLE0
 70
     0
  3

  4

  5

  6

  7

 40
1.0
 41
8.0
 42
0.0625
 43
0.38
 44
0.0
 45
0.000000001
 46
0.0
 47
0.0
 48
0.0
140
5.0
141
0.09
142
0.0
143
25.4
144
1.0
145
0.0
146
1.0
147
1.25
 71
     0
 72
     0
 73
     0
 74
     1
 75
     0
 76
     0
 77
     1
 78
    12
170
     0
171
     2
172
     0
173
     1
174
     0
175
     0
176
     0
177
     0
178
     0
270
     2
271
     3
272
     1
273
     2
274
     2
340
57
275
     0
280
     0
281
     0
282
     0
283
     1
284
    12
285
     0
286
     0
287
     3
288
     0
  0
DIMSTYLE
105
327
102
{ACAD_REACTORS
330
326
102
}
330
A
100
AcDbSymbolTableRecord
100
AcDbDimStyleTableRecord
  2
SLDDIMSTYLE1
 70
     0
  3

  4

  5

  6

  7

 40
1.0
 41
8.0
 42
0.0625
 43
0.38
 44
0.0
 45
0.000000001
 46
0.0
 47
0.0
 48
0.0
140
5.0
141
0.09
142
0.0
143
25.4
144
1.0
145
0.0
146
1.0
147
1.25
 71
     0
 72
     0
 73
     0
 74
     1
 75
     0
 76
     0
 77
     1
 78
    12
170
     0
171
     2
172
     0
173
     1
174
     0
175
     0
176
     0
177
     0
178
     0
270
     2
271
     1
272
     1
273
     2
274
     2
340
57
275
     0
280
     0
281
     0
282
     0
283
     1
284
    12
285
     0
286
     0
287
     3
288
     0
  0
DIMSTYLE
105
334
102
{ACAD_REACTORS
330
333
102
}
330
A
100
AcDbSymbolTableRecord
100
AcDbDimStyleTableRecord
  2
SLDDIMSTYLE2
 70
     0
  3

  4

  5

  6

  7

 40
1.0
 41
8.0
 42
0.0625
 43
0.38
 44
0.0
 45
0.000000001
 46
0.0
 47
0.0
 48
0.0
140
5.0
141
0.09
142
0.0
143
25.4
144
1.0
145
0.0
146
1.0
147
1.25
 71
     0
 72
     0
 73
     0
 74
     1
 75
     0
 76
     0
 77
     1
 78
    12
170
     0
171
     2
172
     0
173
     1
174
     0
175
     0
176
     0
177
     0
178
     0
270
     2
271
     3
272
     1
273
     2
274
     2
340
57
275
     0
280
     0
281
     0
282
     0
283
     1
284
    12
285
     0
286
     0
287
     3
288
     0
  0
DIMSTYLE
105
4E8
330
A
100
AcDbSymbolTableRecord
100
AcDbDimStyleTableRecord
  2
SLDDIMSTYLE3
 70
     0
  3

  4

  5

  6

  7

 40
1.0
 41
8.0
 42
0.0625
 43
0.38
 44
0.0
 45
0.000000001
 46
0.0
 47
0.0
 48
0.0
140
0.0
141
0.09
142
0.0
143
25.4
144
1.0
145
0.0
146
8.0
147
0.0
 71
     0
 72
     0
 73
     1
 74
     1
 75
     0
 76
     0
 77
     0
 78
     0
170
     0
171
     2
172
     0
173
     1
174
     0
175
     0
176
     0
177
     0
178
     0
270
     2
271
     0
272
     0
273
     2
274
     2
340
11
275
     0
280
     0
281
     0
282
     0
283
     1
284
     0
285
     0
286
     0
287
     3
288
     0
  0
ENDTAB
  0
TABLE
  2
BLOCK_RECORD
  5
1
330
0
100
AcDbSymbolTable
 70
    34
  0
BLOCK_RECORD
  5
1F
330
1
100
AcDbSymbolTableRecord
100
AcDbBlockTableRecord
  2
*MODEL_SPACE
  0
BLOCK_RECORD
  5
1B
330
1
100
AcDbSymbolTableRecord
100
AcDbBlockTableRecord
  2
*PAPER_SPACE
  0
BLOCK_RECORD
  5
83
330
1
100
AcDbSymbolTableRecord
100
AcDbBlockTableRecord
  2
SW_NOTE_0
  0
BLOCK_RECORD
  5
95
330
1
100
AcDbSymbolTableRecord
100
AcDbBlockTableRecord
  2
SW_BROKEN_VIEW_0
  0
BLOCK_RECORD
  5
1B7
330
1
100
AcDbSymbolTableRecord
100
AcDbBlockTableRecord
  2
*D3
  0
BLOCK_RECORD
  5
1C1
330
1
100
AcDbSymbolTableRecord
100
AcDbBlockTableRecord
  2
*D4
  0
BLOCK_RECORD
  5
1CB
330
1
100
AcDbSymbolTableRecord
100
AcDbBlockTableRecord
  2
*D5
  0
BLOCK_RECORD
  5
1D4
330
1
100
AcDbSymbolTableRecord
100
AcDbBlockTableRecord
  2
SW_CENTERMARKSYMBOL_0
  0
BLOCK_RECORD
  5
1E0
330
1
100
AcDbSymbolTableRecord
100
AcDbBlockTableRecord
  2
SW_CENTERMARKSYMBOL_1
  0
BLOCK_RECORD
  5
1EC
330
1
100
AcDbSymbolTableRecord
100
AcDbBlockTableRecord
  2
SW_CENTERMARKSYMBOL_2
  0
BLOCK_RECORD
  5
1F8
330
1
100
AcDbSymbolTableRecord
100
AcDbBlockTableRecord
  2
SW_CENTERMARKSYMBOL_3
  0
BLOCK_RECORD
  5
204
330
1
100
AcDbSymbolTableRecord
100
AcDbBlockTableRecord
  2
SW_CENTERMARKSYMBOL_4
  0
BLOCK_RECORD
  5
210
330
1
100
AcDbSymbolTableRecord
100
AcDbBlockTableRecord
  2
SW_CENTERMARKSYMBOL_5
  0
BLOCK_RECORD
  5
21C
330
1
100
AcDbSymbolTableRecord
100
AcDbBlockTableRecord
  2
SW_CENTERMARKSYMBOL_6
  0
BLOCK_RECORD
  5
228
330
1
100
AcDbSymbolTableRecord
100
AcDbBlockTableRecord
  2
SW_CENTERMARKSYMBOL_7
  0
BLOCK_RECORD
  5
234
330
1
100
AcDbSymbolTableRecord
100
AcDbBlockTableRecord
  2
SW_CENTERMARKSYMBOL_8
  0
BLOCK_RECORD
  5
240
330
1
100
AcDbSymbolTableRecord
100
AcDbBlockTableRecord
  2
SW_CENTERMARKSYMBOL_9
  0
BLOCK_RECORD
  5
24C
330
1
100
AcDbSymbolTableRecord
100
AcDbBlockTableRecord
  2
SW_CENTERMARKSYMBOL_10
  0
BLOCK_RECORD
  5
258
330
1
100
AcDbSymbolTableRecord
100
AcDbBlockTableRecord
  2
SW_CENTERMARKSYMBOL_11
  0
BLOCK_RECORD
  5
264
330
1
100
AcDbSymbolTableRecord
100
AcDbBlockTableRecord
  2
SW_CENTERMARKSYMBOL_12
  0
BLOCK_RECORD
  5
270
330
1
100
AcDbSymbolTableRecord
100
AcDbBlockTableRecord
  2
SW_CENTERMARKSYMBOL_13
  0
BLOCK_RECORD
  5
27C
330
1
100
AcDbSymbolTableRecord
100
AcDbBlockTableRecord
  2
SW_CENTERMARKSYMBOL_14
  0
BLOCK_RECORD
  5
293
330
1
100
AcDbSymbolTableRecord
100
AcDbBlockTableRecord
  2
SW_BROKEN_VIEW_1
  0
BLOCK_RECORD
  5
31D
330
1
100
AcDbSymbolTableRecord
100
AcDbBlockTableRecord
  2
*D22
  0
BLOCK_RECORD
  5
328
330
1
100
AcDbSymbolTableRecord
100
AcDbBlockTableRecord
  2
*D23
  0
BLOCK_RECORD
  5
335
330
1
100
AcDbSymbolTableRecord
100
AcDbBlockTableRecord
  2
*D24
  0
BLOCK_RECORD
  5
341
330
1
100
AcDbSymbolTableRecord
100
AcDbBlockTableRecord
  2
*D25
  0
BLOCK_RECORD
  5
34B
330
1
100
AcDbSymbolTableRecord
100
AcDbBlockTableRecord
  2
SW_CENTERMARKSYMBOL_15
  0
BLOCK_RECORD
  5
357
330
1
100
AcDbSymbolTableRecord
100
AcDbBlockTableRecord
  2
SW_CENTERMARKSYMBOL_16
  0
BLOCK_RECORD
  5
4DD
330
1
100
AcDbSymbolTableRecord
100
AcDbBlockTableRecord
  2
SW_NOTE_1
  0
BLOCK_RECORD
  5
4EA
330
1
100
AcDbSymbolTableRecord
100
AcDbBlockTableRecord
  2
SW_NOTE_2
  0
BLOCK_RECORD
  5
4F6
330
1
100
AcDbSymbolTableRecord
100
AcDbBlockTableRecord
  2
SW_NOTE_3
  0
BLOCK_RECORD
  5
502
330
1
100
AcDbSymbolTableRecord
100
AcDbBlockTableRecord
  2
SW_NOTE_4
  0
BLOCK_RECORD
  5
50E
330
1
100
AcDbSymbolTableRecord
100
AcDbBlockTableRecord
  2
SW_NOTE_5
  0
BLOCK_RECORD
  5
51B
330
1
100
AcDbSymbolTableRecord
100
AcDbBlockTableRecord
  2
SW_NOTE_6
  0
ENDTAB
  0
ENDSEC
  0
SECTION
  2
BLOCKS
  0
BLOCK
  5
20
330
1F
100
AcDbEntity
  8
0
100
AcDbBlockBegin
  2
*MODEL_SPACE
 70
     0
 10
0.0
 20
0.0
 30
0.0
  3
*MODEL_SPACE
  1

  0
ENDBLK
  5
21
330
1F
100
AcDbEntity
  8
0
100
AcDbBlockEnd
  0
BLOCK
  5
1C
330
1B
100
AcDbEntity
 67
     1
  8
0
100
AcDbBlockBegin
  2
*PAPER_SPACE
 70
     0
 10
0.0
 20
0.0
 30
0.0
  3
*PAPER_SPACE
  1

  0
ENDBLK
  5
1D
330
1B
100
AcDbEntity
 67
     1
  8
0
100
AcDbBlockEnd
  0
BLOCK
  5
84
330
83
100
AcDbEntity
  8
0
100
AcDbBlockBegin
  2
SW_NOTE_0
 70
     0
 10
0.0
 20
0.0
 30
0.0
  3
SW_NOTE_0
  1

  0
MTEXT
  5
86
330
83
100
AcDbEntity
  8
0
  6
CONTINUOUS
 62
     0
100
AcDbMText
 10
0.0
 20
3.8672032193
 30
0.0
 40
3.0
 41
0.0
 71
     1
 72
     1
  1
Data 
  7
SLDTEXTSTYLE0
  0
MTEXT
  5
87
330
83
100
AcDbEntity
  8
0
  6
CONTINUOUS
 62
     0
100
AcDbMText
 10
0.0
 20
-0.5327967568
 30
0.0
 40
3.0
 41
0.0
 71
     1
 72
     1
  1
i podpis
  7
SLDTEXTSTYLE0
  0
ENDBLK
  5
85
330
83
100
AcDbEntity
  8
0
100
AcDbBlockEnd
  0
BLOCK
  5
96
330
95
100
AcDbEntity
  8
0
100
AcDbBlockBegin
  2
SW_BROKEN_VIEW_0
 70
     0
 10
0.0
 20
0.0
 30
0.0
  3
SW_BROKEN_VIEW_0
  1

  0
ENDBLK
  5
97
330
95
100
AcDbEntity
  8
0
100
AcDbBlockEnd
  0
BLOCK
  5
1B8
330
1B7
100
AcDbEntity
  8
0
100
AcDbBlockBegin
  2
*D3
 70
     1
 10
0.0
 20
0.0
 30
0.0
  3
*D3
  1

  0
SOLID
  5
1BA
330
1B7
100
AcDbEntity
  8
OPISY
100
AcDbTrace
 10
730.8845347013
 20
336.912907878
 30
0.0
 11
729.8845347013
 21
328.912907878
 31
0.0
 12
731.8845347013
 22
328.912907878
 32
0.0
 13
731.8845347013
 23
328.912907878
 33
0.0
  0
SOLID
  5
1BB
330
1B7
100
AcDbEntity
  8
OPISY
100
AcDbTrace
 10
730.8845347013
 20
252.412907878
 30
0.0
 11
731.8845347013
 21
260.412907878
 31
0.0
 12
729.8845347013
 22
260.412907878
 32
0.0
 13
729.8845347013
 23
260.412907878
 33
0.0
  0
LINE
  5
1BC
330
1B7
100
AcDbEntity
  8
OPISY
100
AcDbLine
 10
717.8845347013
 20
336.912907878
 30
0.0
 11
731.8845347013
 21
336.912907878
 31
0.0
  0
LINE
  5
1BD
330
1B7
100
AcDbEntity
  8
OPISY
100
AcDbLine
 10
498.3029539643
 20
252.412907878
 30
0.0
 11
731.8845347013
 21
252.412907878
 31
0.0
  0
LINE
  5
1BE
330
1B7
100
AcDbEntity
  8
OPISY
100
AcDbLine
 10
730.8845347013
 20
336.912907878
 30
0.0
 11
730.8845347013
 21
252.412907878
 31
0.0
  0
MTEXT
  5
1BF
330
1B7
100
AcDbEntity
  8
OPISY
100
AcDbMText
 10
724.4391961188
 20
288.2001858943
 30
0.0
 40
5.0
 41
0.0
 71
     1
 72
     1
  1
84,5
  7
SLDTEXTSTYLE0
 11
-7.044195017643634E-15
 21
1.0
 31
0.0
  0
ENDBLK
  5
1B9
330
1B7
100
AcDbEntity
  8
0
100
AcDbBlockEnd
  0
BLOCK
  5
1C2
330
1C1
100
AcDbEntity
  8
0
100
AcDbBlockBegin
  2
*D4
 70
     1
 10
0.0
 20
0.0
 30
0.0
  3
*D4
  1

  0
SOLID
  5
1C4
330
1C1
100
AcDbEntity
  8
OPISY
100
AcDbTrace
 10
742.8845347013
 20
402.412907878
 30
0.0
 11
741.8845347013
 21
394.412907878
 31
0.0
 12
743.8845347013
 22
394.412907878
 32
0.0
 13
743.8845347013
 23
394.412907878
 33
0.0
  0
SOLID
  5
1C5
330
1C1
100
AcDbEntity
  8
OPISY
100
AcDbTrace
 10
742.8845347013
 20
252.412907878
 30
0.0
 11
743.8845347013
 21
260.412907878
 31
0.0
 12
741.8845347013
 22
260.412907878
 32
0.0
 13
741.8845347013
 23
260.412907878
 33
0.0
  0
LINE
  5
1C6
330
1C1
100
AcDbEntity
  8
OPISY
100
AcDbLine
 10
498.3029539643
 20
402.412907878
 30
0.0
 11
743.8845347013
 21
402.412907878
 31
0.0
  0
LINE
  5
1C7
330
1C1
100
AcDbEntity
  8
OPISY
100
AcDbLine
 10
498.3029539643
 20
252.412907878
 30
0.0
 11
743.8845347013
 21
252.412907878
 31
0.0
  0
LINE
  5
1C8
330
1C1
100
AcDbEntity
  8
OPISY
100
AcDbLine
 10
742.8845347013
 20
402.412907878
 30
0.0
 11
742.8845347013
 21
252.412907878
 31
0.0
  0
MTEXT
  5
1C9
330
1C1
100
AcDbEntity
  8
OPISY
100
AcDbMText
 10
736.4391961188
 20
321.8724805824
 30
0.0
 40
5.0
 41
0.0
 71
     1
 72
     1
  1
150
  7
SLDTEXTSTYLE0
 11
-7.044195017643634E-15
 21
1.0
 31
0.0
  0
ENDBLK
  5
1C3
330
1C1
100
AcDbEntity
  8
0
100
AcDbBlockEnd
  0
BLOCK
  5
1CC
330
1CB
100
AcDbEntity
  8
0
100
AcDbBlockBegin
  2
*D5
 70
     1
 10
0.0
 20
0.0
 30
0.0
  3
*D5
  1

  0
SOLID
  5
1CE
330
1CB
100
AcDbEntity
  8
OPISY
100
AcDbTrace
 10
730.8845347013
 20
336.912907878
 30
0.0
 11
731.8845347013
 21
344.912907878
 31
0.0
 12
729.8845347013
 22
344.912907878
 32
0.0
 13
729.8845347013
 23
344.912907878
 33
0.0
  0
SOLID
  5
1CF
330
1CB
100
AcDbEntity
  8
OPISY
100
AcDbTrace
 10
730.8845347013
 20
377.912907878
 30
0.0
 11
729.8845347013
 21
369.912907878
 31
0.0
 12
731.8845347013
 22
369.912907878
 32
0.0
 13
731.8845347013
 23
369.912907878
 33
0.0
  0
LINE
  5
1D0
330
1CB
100
AcDbEntity
  8
OPISY
100
AcDbLine
 10
717.8845347013
 20
336.912907878
 30
0.0
 11
731.8845347013
 21
336.912907878
 31
0.0
  0
LINE
  5
1D1
330
1CB
100
AcDbEntity
  8
OPISY
100
AcDbLine
 10
717.8845347013
 20
377.912907878
 30
0.0
 11
731.8845347013
 21
377.912907878
 31
0.0
  0
LINE
  5
1D2
330
1CB
100
AcDbEntity
  8
OPISY
100
AcDbLine
 10
730.8845347013
 20
336.912907878
 30
0.0
 11
730.8845347013
 21
377.912907878
 31
0.0
  0
MTEXT
  5
1D3
330
1CB
100
AcDbEntity
  8
OPISY
100
AcDbMText
 10
724.4391961188
 20
353.7203995421
 30
0.0
 40
5.0
 41
0.0
 71
     1
 72
     1
  1
41
  7
SLDTEXTSTYLE0
 11
1.615544574432587E-15
 21
1.0
 31
0.0
  0
ENDBLK
  5
1CD
330
1CB
100
AcDbEntity
  8
0
100
AcDbBlockEnd
  0
BLOCK
  5
1D5
330
1D4
100
AcDbEntity
  8
0
100
AcDbBlockBegin
  2
SW_CENTERMARKSYMBOL_0
 70
     0
 10
0.0
 20
0.0
 30
0.0
  3
SW_CENTERMARKSYMBOL_0
  1

  0
LINE
  5
1D7
330
1D4
100
AcDbEntity
  8
OPISY
 62
     0
100
AcDbLine
 10
0.0
 20
0.0
 30
0.0
 11
0.0
 21
2.5000013411
 31
0.0
  0
LINE
  5
1D8
330
1D4
100
AcDbEntity
  8
OPISY
 62
     0
100
AcDbLine
 10
0.0
 20
0.0
 30
0.0
 11
-2.4999976158
 21
0.0
 31
0.0
  0
LINE
  5
1D9
330
1D4
100
AcDbEntity
  8
OPISY
 62
     0
100
AcDbLine
 10
0.0
 20
0.0
 30
0.0
 11
0.0
 21
-2.4999976158
 31
0.0
  0
LINE
  5
1DA
330
1D4
100
AcDbEntity
  8
OPISY
 62
     0
100
AcDbLine
 10
0.0
 20
0.0
 30
0.0
 11
2.4999976158
 21
0.0
 31
0.0
  0
LINE
  5
1DB
330
1D4
100
AcDbEntity
  8
OPISY
 62
     0
100
AcDbLine
 10
0.0
 20
5.0000026822
 30
0.0
 11
0.0
 21
5.4999999702
 31
0.0
  0
LINE
  5
1DC
330
1D4
100
AcDbEntity
  8
OPISY
 62
     0
100
AcDbLine
 10
-4.9999952316
 20
0.0
 30
0.0
 11
-5.499958992
 21
0.0
 31
0.0
  0
LINE
  5
1DD
330
1D4
100
AcDbEntity
  8
OPISY
 62
     0
100
AcDbLine
 10
0.0
 20
-4.9999989569
 30
0.0
 11
0.0
 21
-5.4999999702
 31
0.0
  0
LINE
  5
1DE
330
1D4
100
AcDbEntity
  8
OPISY
 62
     0
100
AcDbLine
 10
4.9999952316
 20
0.0
 30
0.0
 11
5.5000185966
 21
0.0
 31
0.0
  0
ENDBLK
  5
1D6
330
1D4
100
AcDbEntity
  8
0
100
AcDbBlockEnd
  0
BLOCK
  5
1E1
330
1E0
100
AcDbEntity
  8
0
100
AcDbBlockBegin
  2
SW_CENTERMARKSYMBOL_1
 70
     0
 10
0.0
 20
0.0
 30
0.0
  3
SW_CENTERMARKSYMBOL_1
  1

  0
LINE
  5
1E3
330
1E0
100
AcDbEntity
  8
OPISY
 62
     0
100
AcDbLine
 10
0.0
 20
0.0
 30
0.0
 11
0.0
 21
2.4999994785
 31
0.0
  0
LINE
  5
1E4
330
1E0
100
AcDbEntity
  8
OPISY
 62
     0
100
AcDbLine
 10
0.0
 20
0.0
 30
0.0
 11
-2.5000572205
 21
0.0
 31
0.0
  0
LINE
  5
1E5
330
1E0
100
AcDbEntity
  8
OPISY
 62
     0
100
AcDbLine
 10
0.0
 20
0.0
 30
0.0
 11
0.0
 21
-2.4999994785
 31
0.0
  0
LINE
  5
1E6
330
1E0
100
AcDbEntity
  8
OPISY
 62
     0
100
AcDbLine
 10
0.0
 20
0.0
 30
0.0
 11
2.4999380112
 21
0.0
 31
0.0
  0
LINE
  5
1E7
330
1E0
100
AcDbEntity
  8
OPISY
 62
     0
100
AcDbLine
 10
0.0
 20
5.0000008196
 30
0.0
 11
0.0
 21
6.0000009835
 31
0.0
  0
LINE
  5
1E8
330
1E0
100
AcDbEntity
  8
OPISY
 62
     0
100
AcDbLine
 10
-4.9999952316
 20
0.0
 30
0.0
 11
-6.0000419617
 21
0.0
 31
0.0
  0
LINE
  5
1E9
330
1E0
100
AcDbEntity
  8
OPISY
 62
     0
100
AcDbLine
 10
0.0
 20
-4.9999998882
 30
0.0
 11
0.0
 21
-6.0000000522
 31
0.0
  0
LINE
  5
1EA
330
1E0
100
AcDbEntity
  8
OPISY
 62
     0
100
AcDbLine
 10
4.9999952316
 20
0.0
 30
0.0
 11
5.999982357
 21
0.0
 31
0.0
  0
ENDBLK
  5
1E2
330
1E0
100
AcDbEntity
  8
0
100
AcDbBlockEnd
  0
BLOCK
  5
1ED
330
1EC
100
AcDbEntity
  8
0
100
AcDbBlockBegin
  2
SW_CENTERMARKSYMBOL_2
 70
     0
 10
0.0
 20
0.0
 30
0.0
  3
SW_CENTERMARKSYMBOL_2
  1

  0
LINE
  5
1EF
330
1EC
100
AcDbEntity
  8
OPISY
 62
     0
100
AcDbLine
 10
0.0
 20
0.0
 30
0.0
 11
0.0
 21
2.4999994785
 31
0.0
  0
LINE
  5
1F0
330
1EC
100
AcDbEntity
  8
OPISY
 62
     0
100
AcDbLine
 10
0.0
 20
0.0
 30
0.0
 11
-2.4999976158
 21
0.0
 31
0.0
  0
LINE
  5
1F1
330
1EC
100
AcDbEntity
  8
OPISY
 62
     0
100
AcDbLine
 10
0.0
 20
0.0
 30
0.0
 11
0.0
 21
-2.4999994785
 31
0.0
  0
LINE
  5
1F2
330
1EC
100
AcDbEntity
  8
OPISY
 62
     0
100
AcDbLine
 10
0.0
 20
0.0
 30
0.0
 11
2.4999976158
 21
0.0
 31
0.0
  0
LINE
  5
1F3
330
1EC
100
AcDbEntity
  8
OPISY
 62
     0
100
AcDbLine
 10
0.0
 20
5.0000008196
 30
0.0
 11
0.0
 21
5.4999999702
 31
0.0
  0
LINE
  5
1F4
330
1EC
100
AcDbEntity
  8
OPISY
 62
     0
100
AcDbLine
 10
-4.9999952316
 20
0.0
 30
0.0
 11
-5.499958992
 21
0.0
 31
0.0
  0
LINE
  5
1F5
330
1EC
100
AcDbEntity
  8
OPISY
 62
     0
100
AcDbLine
 10
0.0
 20
-4.9999998882
 30
0.0
 11
0.0
 21
-5.4999999702
 31
0.0
  0
LINE
  5
1F6
330
1EC
100
AcDbEntity
  8
OPISY
 62
     0
100
AcDbLine
 10
4.9999952316
 20
0.0
 30
0.0
 11
5.5000185966
 21
0.0
 31
0.0
  0
ENDBLK
  5
1EE
330
1EC
100
AcDbEntity
  8
0
100
AcDbBlockEnd
  0
BLOCK
  5
1F9
330
1F8
100
AcDbEntity
  8
0
100
AcDbBlockBegin
  2
SW_CENTERMARKSYMBOL_3
 70
     0
 10
0.0
 20
0.0
 30
0.0
  3
SW_CENTERMARKSYMBOL_3
  1

  0
LINE
  5
1FB
330
1F8
100
AcDbEntity
  8
OPISY
 62
     0
100
AcDbLine
 10
0.0
 20
0.0
 30
0.0
 11
0.0
 21
2.4999976158
 31
0.0
  0
LINE
  5
1FC
330
1F8
100
AcDbEntity
  8
OPISY
 62
     0
100
AcDbLine
 10
0.0
 20
0.0
 30
0.0
 11
-2.4999976158
 21
0.0
 31
0.0
  0
LINE
  5
1FD
330
1F8
100
AcDbEntity
  8
OPISY
 62
     0
100
AcDbLine
 10
0.0
 20
0.0
 30
0.0
 11
0.0
 21
-2.5000013411
 31
0.0
  0
LINE
  5
1FE
330
1F8
100
AcDbEntity
  8
OPISY
 62
     0
100
AcDbLine
 10
0.0
 20
0.0
 30
0.0
 11
2.4999976158
 21
0.0
 31
0.0
  0
LINE
  5
1FF
330
1F8
100
AcDbEntity
  8
OPISY
 62
     0
100
AcDbLine
 10
0.0
 20
4.9999989569
 30
0.0
 11
0.0
 21
12.4999992549
 31
0.0
  0
LINE
  5
200
330
1F8
100
AcDbEntity
  8
OPISY
 62
     0
100
AcDbLine
 10
-4.9999952316
 20
0.0
 30
0.0
 11
-12.4999880791
 21
0.0
 31
0.0
  0
LINE
  5
201
330
1F8
100
AcDbEntity
  8
OPISY
 62
     0
100
AcDbLine
 10
0.0
 20
-5.0000026822
 30
0.0
 11
0.0
 21
-12.4999992549
 31
0.0
  0
LINE
  5
202
330
1F8
100
AcDbEntity
  8
OPISY
 62
     0
100
AcDbLine
 10
4.9999952316
 20
0.0
 30
0.0
 11
12.4999880791
 21
0.0
 31
0.0
  0
ENDBLK
  5
1FA
330
1F8
100
AcDbEntity
  8
0
100
AcDbBlockEnd
  0
BLOCK
  5
205
330
204
100
AcDbEntity
  8
0
100
AcDbBlockBegin
  2
SW_CENTERMARKSYMBOL_4
 70
     0
 10
0.0
 20
0.0
 30
0.0
  3
SW_CENTERMARKSYMBOL_4
  1

  0
LINE
  5
207
330
204
100
AcDbEntity
  8
OPISY
 62
     0
100
AcDbLine
 10
0.0
 20
0.0
 30
0.0
 11
0.0
 21
2.4999976158
 31
0.0
  0
LINE
  5
208
330
204
100
AcDbEntity
  8
OPISY
 62
     0
100
AcDbLine
 10
0.0
 20
0.0
 30
0.0
 11
-2.4999380112
 21
0.0
 31
0.0
  0
LINE
  5
209
330
204
100
AcDbEntity
  8
OPISY
 62
     0
100
AcDbLine
 10
0.0
 20
0.0
 30
0.0
 11
0.0
 21
-2.5000013411
 31
0.0
  0
LINE
  5
20A
330
204
100
AcDbEntity
  8
OPISY
 62
     0
100
AcDbLine
 10
0.0
 20
0.0
 30
0.0
 11
2.5000572205
 21
0.0
 31
0.0
  0
LINE
  5
20B
330
204
100
AcDbEntity
  8
OPISY
 62
     0
100
AcDbLine
 10
0.0
 20
4.9999989569
 30
0.0
 11
0.0
 21
12.4999992549
 31
0.0
  0
LINE
  5
20C
330
204
100
AcDbEntity
  8
OPISY
 62
     0
100
AcDbLine
 10
-4.999935627
 20
0.0
 30
0.0
 11
-12.4999284744
 21
0.0
 31
0.0
  0
LINE
  5
20D
330
204
100
AcDbEntity
  8
OPISY
 62
     0
100
AcDbLine
 10
0.0
 20
-5.0000026822
 30
0.0
 11
0.0
 21
-12.4999992549
 31
0.0
  0
LINE
  5
20E
330
204
100
AcDbEntity
  8
OPISY
 62
     0
100
AcDbLine
 10
5.0001144409
 20
0.0
 30
0.0
 11
12.5000476837
 21
0.0
 31
0.0
  0
ENDBLK
  5
206
330
204
100
AcDbEntity
  8
0
100
AcDbBlockEnd
  0
BLOCK
  5
211
330
210
100
AcDbEntity
  8
0
100
AcDbBlockBegin
  2
SW_CENTERMARKSYMBOL_5
 70
     0
 10
0.0
 20
0.0
 30
0.0
  3
SW_CENTERMARKSYMBOL_5
  1

  0
LINE
  5
213
330
210
100
AcDbEntity
  8
OPISY
 62
     0
100
AcDbLine
 10
0.0
 20
0.0
 30
0.0
 11
0.0
 21
2.5000013411
 31
0.0
  0
LINE
  5
214
330
210
100
AcDbEntity
  8
OPISY
 62
     0
100
AcDbLine
 10
0.0
 20
0.0
 30
0.0
 11
-2.4999380112
 21
0.0
 31
0.0
  0
LINE
  5
215
330
210
100
AcDbEntity
  8
OPISY
 62
     0
100
AcDbLine
 10
0.0
 20
0.0
 30
0.0
 11
0.0
 21
-2.4999976158
 31
0.0
  0
LINE
  5
216
330
210
100
AcDbEntity
  8
OPISY
 62
     0
100
AcDbLine
 10
0.0
 20
0.0
 30
0.0
 11
2.5000572205
 21
0.0
 31
0.0
  0
LINE
  5
217
330
210
100
AcDbEntity
  8
OPISY
 62
     0
100
AcDbLine
 10
0.0
 20
5.0000026822
 30
0.0
 11
0.0
 21
5.4999999702
 31
0.0
  0
LINE
  5
218
330
210
100
AcDbEntity
  8
OPISY
 62
     0
100
AcDbLine
 10
-4.9999952316
 20
0.0
 30
0.0
 11
-5.499958992
 21
0.0
 31
0.0
  0
LINE
  5
219
330
210
100
AcDbEntity
  8
OPISY
 62
     0
100
AcDbLine
 10
0.0
 20
-4.9999989569
 30
0.0
 11
0.0
 21
-5.4999999702
 31
0.0
  0
LINE
  5
21A
330
210
100
AcDbEntity
  8
OPISY
 62
     0
100
AcDbLine
 10
4.9999952316
 20
0.0
 30
0.0
 11
5.5000782013
 21
0.0
 31
0.0
  0
ENDBLK
  5
212
330
210
100
AcDbEntity
  8
0
100
AcDbBlockEnd
  0
BLOCK
  5
21D
330
21C
100
AcDbEntity
  8
0
100
AcDbBlockBegin
  2
SW_CENTERMARKSYMBOL_6
 70
     0
 10
0.0
 20
0.0
 30
0.0
  3
SW_CENTERMARKSYMBOL_6
  1

  0
LINE
  5
21F
330
21C
100
AcDbEntity
  8
OPISY
 62
     0
100
AcDbLine
 10
0.0
 20
0.0
 30
0.0
 11
0.0
 21
2.4999994785
 31
0.0
  0
LINE
  5
220
330
21C
100
AcDbEntity
  8
OPISY
 62
     0
100
AcDbLine
 10
0.0
 20
0.0
 30
0.0
 11
-2.4999380112
 21
0.0
 31
0.0
  0
LINE
  5
221
330
21C
100
AcDbEntity
  8
OPISY
 62
     0
100
AcDbLine
 10
0.0
 20
0.0
 30
0.0
 11
0.0
 21
-2.4999994785
 31
0.0
  0
LINE
  5
222
330
21C
100
AcDbEntity
  8
OPISY
 62
     0
100
AcDbLine
 10
0.0
 20
0.0
 30
0.0
 11
2.5000572205
 21
0.0
 31
0.0
  0
LINE
  5
223
330
21C
100
AcDbEntity
  8
OPISY
 62
     0
100
AcDbLine
 10
0.0
 20
5.0000008196
 30
0.0
 11
0.0
 21
5.4999999702
 31
0.0
  0
LINE
  5
224
330
21C
100
AcDbEntity
  8
OPISY
 62
     0
100
AcDbLine
 10
-4.9999952316
 20
0.0
 30
0.0
 11
-5.499958992
 21
0.0
 31
0.0
  0
LINE
  5
225
330
21C
100
AcDbEntity
  8
OPISY
 62
     0
100
AcDbLine
 10
0.0
 20
-4.9999998882
 30
0.0
 11
0.0
 21
-5.4999999702
 31
0.0
  0
LINE
  5
226
330
21C
100
AcDbEntity
  8
OPISY
 62
     0
100
AcDbLine
 10
4.9999952316
 20
0.0
 30
0.0
 11
5.5000782013
 21
0.0
 31
0.0
  0
ENDBLK
  5
21E
330
21C
100
AcDbEntity
  8
0
100
AcDbBlockEnd
  0
BLOCK
  5
229
330
228
100
AcDbEntity
  8
0
100
AcDbBlockBegin
  2
SW_CENTERMARKSYMBOL_7
 70
     0
 10
0.0
 20
0.0
 30
0.0
  3
SW_CENTERMARKSYMBOL_7
  1

  0
LINE
  5
22B
330
228
100
AcDbEntity
  8
OPISY
 62
     0
100
AcDbLine
 10
0.0
 20
0.0
 30
0.0
 11
0.0
 21
2.4999994785
 31
0.0
  0
LINE
  5
22C
330
228
100
AcDbEntity
  8
OPISY
 62
     0
100
AcDbLine
 10
0.0
 20
0.0
 30
0.0
 11
-2.4999380112
 21
0.0
 31
0.0
  0
LINE
  5
22D
330
228
100
AcDbEntity
  8
OPISY
 62
     0
100
AcDbLine
 10
0.0
 20
0.0
 30
0.0
 11
0.0
 21
-2.4999994785
 31
0.0
  0
LINE
  5
22E
330
228
100
AcDbEntity
  8
OPISY
 62
     0
100
AcDbLine
 10
0.0
 20
0.0
 30
0.0
 11
2.5000572205
 21
0.0
 31
0.0
  0
LINE
  5
22F
330
228
100
AcDbEntity
  8
OPISY
 62
     0
100
AcDbLine
 10
0.0
 20
4.9999998882
 30
0.0
 11
0.0
 21
5.900000222
 31
0.0
  0
LINE
  5
230
330
228
100
AcDbEntity
  8
OPISY
 62
     0
100
AcDbLine
 10
-4.999935627
 20
0.0
 30
0.0
 11
-5.8999657631
 21
0.0
 31
0.0
  0
LINE
  5
231
330
228
100
AcDbEntity
  8
OPISY
 62
     0
100
AcDbLine
 10
0.0
 20
-5.0000008196
 30
0.0
 11
0.0
 21
-5.9000011533
 31
0.0
  0
LINE
  5
232
330
228
100
AcDbEntity
  8
OPISY
 62
     0
100
AcDbLine
 10
5.0001144409
 20
0.0
 30
0.0
 11
5.9000253677
 21
0.0
 31
0.0
  0
ENDBLK
  5
22A
330
228
100
AcDbEntity
  8
0
100
AcDbBlockEnd
  0
BLOCK
  5
235
330
234
100
AcDbEntity
  8
0
100
AcDbBlockBegin
  2
SW_CENTERMARKSYMBOL_8
 70
     0
 10
0.0
 20
0.0
 30
0.0
  3
SW_CENTERMARKSYMBOL_8
  1

  0
LINE
  5
237
330
234
100
AcDbEntity
  8
OPISY
 62
     0
100
AcDbLine
 10
0.0
 20
0.0
 30
0.0
 11
0.0
 21
2.4999994785
 31
0.0
  0
LINE
  5
238
330
234
100
AcDbEntity
  8
OPISY
 62
     0
100
AcDbLine
 10
0.0
 20
0.0
 30
0.0
 11
-2.4999976158
 21
0.0
 31
0.0
  0
LINE
  5
239
330
234
100
AcDbEntity
  8
OPISY
 62
     0
100
AcDbLine
 10
0.0
 20
0.0
 30
0.0
 11
0.0
 21
-2.4999994785
 31
0.0
  0
LINE
  5
23A
330
234
100
AcDbEntity
  8
OPISY
 62
     0
100
AcDbLine
 10
0.0
 20
0.0
 30
0.0
 11
2.4999976158
 21
0.0
 31
0.0
  0
LINE
  5
23B
330
234
100
AcDbEntity
  8
OPISY
 62
     0
100
AcDbLine
 10
0.0
 20
4.9999998882
 30
0.0
 11
0.0
 21
5.900000222
 31
0.0
  0
LINE
  5
23C
330
234
100
AcDbEntity
  8
OPISY
 62
     0
100
AcDbLine
 10
-4.9999952316
 20
0.0
 30
0.0
 11
-5.9000253677
 21
0.0
 31
0.0
  0
LINE
  5
23D
330
234
100
AcDbEntity
  8
OPISY
 62
     0
100
AcDbLine
 10
0.0
 20
-5.0000008196
 30
0.0
 11
0.0
 21
-5.9000011533
 31
0.0
  0
LINE
  5
23E
330
234
100
AcDbEntity
  8
OPISY
 62
     0
100
AcDbLine
 10
4.9999952316
 20
0.0
 30
0.0
 11
5.9000253677
 21
0.0
 31
0.0
  0
ENDBLK
  5
236
330
234
100
AcDbEntity
  8
0
100
AcDbBlockEnd
  0
BLOCK
  5
241
330
240
100
AcDbEntity
  8
0
100
AcDbBlockBegin
  2
SW_CENTERMARKSYMBOL_9
 70
     0
 10
0.0
 20
0.0
 30
0.0
  3
SW_CENTERMARKSYMBOL_9
  1

  0
LINE
  5
243
330
240
100
AcDbEntity
  8
OPISY
 62
     0
100
AcDbLine
 10
0.0
 20
0.0
 30
0.0
 11
0.0
 21
2.4999994785
 31
0.0
  0
LINE
  5
244
330
240
100
AcDbEntity
  8
OPISY
 62
     0
100
AcDbLine
 10
0.0
 20
0.0
 30
0.0
 11
-2.4999976158
 21
0.0
 31
0.0
  0
LINE
  5
245
330
240
100
AcDbEntity
  8
OPISY
 62
     0
100
AcDbLine
 10
0.0
 20
0.0
 30
0.0
 11
0.0
 21
-2.5000013411
 31
0.0
  0
LINE
  5
246
330
240
100
AcDbEntity
  8
OPISY
 62
     0
100
AcDbLine
 10
0.0
 20
0.0
 30
0.0
 11
2.4999976158
 21
0.0
 31
0.0
  0
LINE
  5
247
330
240
100
AcDbEntity
  8
OPISY
 62
     0
100
AcDbLine
 10
0.0
 20
4.9999989569
 30
0.0
 11
0.0
 21
5.4999999702
 31
0.0
  0
LINE
  5
248
330
240
100
AcDbEntity
  8
OPISY
 62
     0
100
AcDbLine
 10
-4.9999952316
 20
0.0
 30
0.0
 11
-5.499958992
 21
0.0
 31
0.0
  0
LINE
  5
249
330
240
100
AcDbEntity
  8
OPISY
 62
     0
100
AcDbLine
 10
0.0
 20
-5.0000008196
 30
0.0
 11
0.0
 21
-5.4999999702
 31
0.0
  0
LINE
  5
24A
330
240
100
AcDbEntity
  8
OPISY
 62
     0
100
AcDbLine
 10
4.9999952316
 20
0.0
 30
0.0
 11
5.5000185966
 21
0.0
 31
0.0
  0
ENDBLK
  5
242
330
240
100
AcDbEntity
  8
0
100
AcDbBlockEnd
  0
BLOCK
  5
24D
330
24C
100
AcDbEntity
  8
0
100
AcDbBlockBegin
  2
SW_CENTERMARKSYMBOL_10
 70
     0
 10
0.0
 20
0.0
 30
0.0
  3
SW_CENTERMARKSYMBOL_10
  1

  0
LINE
  5
24F
330
24C
100
AcDbEntity
  8
OPISY
 62
     0
100
AcDbLine
 10
0.0
 20
0.0
 30
0.0
 11
0.0
 21
2.4999994785
 31
0.0
  0
LINE
  5
250
330
24C
100
AcDbEntity
  8
OPISY
 62
     0
100
AcDbLine
 10
0.0
 20
0.0
 30
0.0
 11
-2.4999976158
 21
0.0
 31
0.0
  0
LINE
  5
251
330
24C
100
AcDbEntity
  8
OPISY
 62
     0
100
AcDbLine
 10
0.0
 20
0.0
 30
0.0
 11
0.0
 21
-2.5000013411
 31
0.0
  0
LINE
  5
252
330
24C
100
AcDbEntity
  8
OPISY
 62
     0
100
AcDbLine
 10
0.0
 20
0.0
 30
0.0
 11
2.5000572205
 21
0.0
 31
0.0
  0
LINE
  5
253
330
24C
100
AcDbEntity
  8
OPISY
 62
     0
100
AcDbLine
 10
0.0
 20
4.9999989569
 30
0.0
 11
0.0
 21
5.4999999702
 31
0.0
  0
LINE
  5
254
330
24C
100
AcDbEntity
  8
OPISY
 62
     0
100
AcDbLine
 10
-4.9999952316
 20
0.0
 30
0.0
 11
-5.499958992
 21
0.0
 31
0.0
  0
LINE
  5
255
330
24C
100
AcDbEntity
  8
OPISY
 62
     0
100
AcDbLine
 10
0.0
 20
-5.0000008196
 30
0.0
 11
0.0
 21
-5.4999999702
 31
0.0
  0
LINE
  5
256
330
24C
100
AcDbEntity
  8
OPISY
 62
     0
100
AcDbLine
 10
5.0000548363
 20
0.0
 30
0.0
 11
5.5000185966
 21
0.0
 31
0.0
  0
ENDBLK
  5
24E
330
24C
100
AcDbEntity
  8
0
100
AcDbBlockEnd
  0
BLOCK
  5
259
330
258
100
AcDbEntity
  8
0
100
AcDbBlockBegin
  2
SW_CENTERMARKSYMBOL_11
 70
     0
 10
0.0
 20
0.0
 30
0.0
  3
SW_CENTERMARKSYMBOL_11
  1

  0
LINE
  5
25B
330
258
100
AcDbEntity
  8
OPISY
 62
     0
100
AcDbLine
 10
0.0
 20
0.0
 30
0.0
 11
0.0
 21
2.4999994785
 31
0.0
  0
LINE
  5
25C
330
258
100
AcDbEntity
  8
OPISY
 62
     0
100
AcDbLine
 10
0.0
 20
0.0
 30
0.0
 11
-2.4999380112
 21
0.0
 31
0.0
  0
LINE
  5
25D
330
258
100
AcDbEntity
  8
OPISY
 62
     0
100
AcDbLine
 10
0.0
 20
0.0
 30
0.0
 11
0.0
 21
-2.5000013411
 31
0.0
  0
LINE
  5
25E
330
258
100
AcDbEntity
  8
OPISY
 62
     0
100
AcDbLine
 10
0.0
 20
0.0
 30
0.0
 11
2.5000572205
 21
0.0
 31
0.0
  0
LINE
  5
25F
330
258
100
AcDbEntity
  8
OPISY
 62
     0
100
AcDbLine
 10
0.0
 20
4.9999989569
 30
0.0
 11
0.0
 21
5.4999999702
 31
0.0
  0
LINE
  5
260
330
258
100
AcDbEntity
  8
OPISY
 62
     0
100
AcDbLine
 10
-4.9999952316
 20
0.0
 30
0.0
 11
-5.499958992
 21
0.0
 31
0.0
  0
LINE
  5
261
330
258
100
AcDbEntity
  8
OPISY
 62
     0
100
AcDbLine
 10
0.0
 20
-5.0000008196
 30
0.0
 11
0.0
 21
-5.4999999702
 31
0.0
  0
LINE
  5
262
330
258
100
AcDbEntity
  8
OPISY
 62
     0
100
AcDbLine
 10
4.9999952316
 20
0.0
 30
0.0
 11
5.5000782013
 21
0.0
 31
0.0
  0
ENDBLK
  5
25A
330
258
100
AcDbEntity
  8
0
100
AcDbBlockEnd
  0
BLOCK
  5
265
330
264
100
AcDbEntity
  8
0
100
AcDbBlockBegin
  2
SW_CENTERMARKSYMBOL_12
 70
     0
 10
0.0
 20
0.0
 30
0.0
  3
SW_CENTERMARKSYMBOL_12
  1

  0
LINE
  5
267
330
264
100
AcDbEntity
  8
OPISY
 62
     0
100
AcDbLine
 10
0.0
 20
0.0
 30
0.0
 11
0.0
 21
2.4999994785
 31
0.0
  0
LINE
  5
268
330
264
100
AcDbEntity
  8
OPISY
 62
     0
100
AcDbLine
 10
0.0
 20
0.0
 30
0.0
 11
-2.4999380112
 21
0.0
 31
0.0
  0
LINE
  5
269
330
264
100
AcDbEntity
  8
OPISY
 62
     0
100
AcDbLine
 10
0.0
 20
0.0
 30
0.0
 11
0.0
 21
-2.4999994785
 31
0.0
  0
LINE
  5
26A
330
264
100
AcDbEntity
  8
OPISY
 62
     0
100
AcDbLine
 10
0.0
 20
0.0
 30
0.0
 11
2.5000572205
 21
0.0
 31
0.0
  0
LINE
  5
26B
330
264
100
AcDbEntity
  8
OPISY
 62
     0
100
AcDbLine
 10
0.0
 20
5.0000008196
 30
0.0
 11
0.0
 21
6.0000009835
 31
0.0
  0
LINE
  5
26C
330
264
100
AcDbEntity
  8
OPISY
 62
     0
100
AcDbLine
 10
-4.9999952316
 20
0.0
 30
0.0
 11
-5.9999227524
 21
0.0
 31
0.0
  0
LINE
  5
26D
330
264
100
AcDbEntity
  8
OPISY
 62
     0
100
AcDbLine
 10
0.0
 20
-4.9999998882
 30
0.0
 11
0.0
 21
-6.0000000522
 31
0.0
  0
LINE
  5
26E
330
264
100
AcDbEntity
  8
OPISY
 62
     0
100
AcDbLine
 10
4.9999952316
 20
0.0
 30
0.0
 11
6.0000419617
 21
0.0
 31
0.0
  0
ENDBLK
  5
266
330
264
100
AcDbEntity
  8
0
100
AcDbBlockEnd
  0
BLOCK
  5
271
330
270
100
AcDbEntity
  8
0
100
AcDbBlockBegin
  2
SW_CENTERMARKSYMBOL_13
 70
     0
 10
0.0
 20
0.0
 30
0.0
  3
SW_CENTERMARKSYMBOL_13
  1

  0
LINE
  5
273
330
270
100
AcDbEntity
  8
OPISY
 62
     0
100
AcDbLine
 10
0.0
 20
0.0
 30
0.0
 11
0.0
 21
2.4999994785
 31
0.0
  0
LINE
  5
274
330
270
100
AcDbEntity
  8
OPISY
 62
     0
100
AcDbLine
 10
0.0
 20
0.0
 30
0.0
 11
-2.5000572205
 21
0.0
 31
0.0
  0
LINE
  5
275
330
270
100
AcDbEntity
  8
OPISY
 62
     0
100
AcDbLine
 10
0.0
 20
0.0
 30
0.0
 11
0.0
 21
-2.4999994785
 31
0.0
  0
LINE
  5
276
330
270
100
AcDbEntity
  8
OPISY
 62
     0
100
AcDbLine
 10
0.0
 20
0.0
 30
0.0
 11
2.4999380112
 21
0.0
 31
0.0
  0
LINE
  5
277
330
270
100
AcDbEntity
  8
OPISY
 62
     0
100
AcDbLine
 10
0.0
 20
5.0000008196
 30
0.0
 11
0.0
 21
6.0000009835
 31
0.0
  0
LINE
  5
278
330
270
100
AcDbEntity
  8
OPISY
 62
     0
100
AcDbLine
 10
-4.9999952316
 20
0.0
 30
0.0
 11
-6.0000419617
 21
0.0
 31
0.0
  0
LINE
  5
279
330
270
100
AcDbEntity
  8
OPISY
 62
     0
100
AcDbLine
 10
0.0
 20
-4.9999998882
 30
0.0
 11
0.0
 21
-6.0000000522
 31
0.0
  0
LINE
  5
27A
330
270
100
AcDbEntity
  8
OPISY
 62
     0
100
AcDbLine
 10
4.9999952316
 20
0.0
 30
0.0
 11
5.9999227524
 21
0.0
 31
0.0
  0
ENDBLK
  5
272
330
270
100
AcDbEntity
  8
0
100
AcDbBlockEnd
  0
BLOCK
  5
27D
330
27C
100
AcDbEntity
  8
0
100
AcDbBlockBegin
  2
SW_CENTERMARKSYMBOL_14
 70
     0
 10
0.0
 20
0.0
 30
0.0
  3
SW_CENTERMARKSYMBOL_14
  1

  0
LINE
  5
27F
330
27C
100
AcDbEntity
  8
OPISY
 62
     0
100
AcDbLine
 10
0.0
 20
0.0
 30
0.0
 11
0.0
 21
2.4999994785
 31
0.0
  0
LINE
  5
280
330
27C
100
AcDbEntity
  8
OPISY
 62
     0
100
AcDbLine
 10
0.0
 20
0.0
 30
0.0
 11
-2.5000572205
 21
0.0
 31
0.0
  0
LINE
  5
281
330
27C
100
AcDbEntity
  8
OPISY
 62
     0
100
AcDbLine
 10
0.0
 20
0.0
 30
0.0
 11
0.0
 21
-2.4999994785
 31
0.0
  0
LINE
  5
282
330
27C
100
AcDbEntity
  8
OPISY
 62
     0
100
AcDbLine
 10
0.0
 20
0.0
 30
0.0
 11
2.4999380112
 21
0.0
 31
0.0
  0
LINE
  5
283
330
27C
100
AcDbEntity
  8
OPISY
 62
     0
100
AcDbLine
 10
0.0
 20
5.0000008196
 30
0.0
 11
0.0
 21
6.0000009835
 31
0.0
  0
LINE
  5
284
330
27C
100
AcDbEntity
  8
OPISY
 62
     0
100
AcDbLine
 10
-4.9999952316
 20
0.0
 30
0.0
 11
-6.0000419617
 21
0.0
 31
0.0
  0
LINE
  5
285
330
27C
100
AcDbEntity
  8
OPISY
 62
     0
100
AcDbLine
 10
0.0
 20
-4.9999998882
 30
0.0
 11
0.0
 21
-6.0000000522
 31
0.0
  0
LINE
  5
286
330
27C
100
AcDbEntity
  8
OPISY
 62
     0
100
AcDbLine
 10
4.9999952316
 20
0.0
 30
0.0
 11
5.9999227524
 21
0.0
 31
0.0
  0
ENDBLK
  5
27E
330
27C
100
AcDbEntity
  8
0
100
AcDbBlockEnd
  0
BLOCK
  5
294
330
293
100
AcDbEntity
  8
0
100
AcDbBlockBegin
  2
SW_BROKEN_VIEW_1
 70
     0
 10
0.0
 20
0.0
 30
0.0
  3
SW_BROKEN_VIEW_1
  1

  0
ENDBLK
  5
295
330
293
100
AcDbEntity
  8
0
100
AcDbBlockEnd
  0
BLOCK
  5
31E
330
31D
100
AcDbEntity
  8
0
100
AcDbBlockBegin
  2
*D22
 70
     1
 10
0.0
 20
0.0
 30
0.0
  3
*D22
  1

  0
SOLID
  5
320
330
31D
100
AcDbEntity
  8
OPISY
100
AcDbTrace
 10
730.8845347013
 20
535.6653468591
 30
0.0
 11
729.8845347013
 21
527.6653468591
 31
0.0
 12
731.8845347013
 22
527.6653468591
 32
0.0
 13
731.8845347013
 23
527.6653468591
 33
0.0
  0
SOLID
  5
321
330
31D
100
AcDbEntity
  8
OPISY
100
AcDbTrace
 10
730.8845347013
 20
486.1653468591
 30
0.0
 11
731.8845347013
 21
494.1653468591
 31
0.0
 12
729.8845347013
 22
494.1653468591
 32
0.0
 13
729.8845347013
 23
494.1653468591
 33
0.0
  0
LINE
  5
322
330
31D
100
AcDbEntity
  8
OPISY
100
AcDbLine
 10
498.3029539643
 20
535.6653468591
 30
0.0
 11
731.8845347013
 21
535.6653468591
 31
0.0
  0
LINE
  5
323
330
31D
100
AcDbEntity
  8
OPISY
100
AcDbLine
 10
498.3029539643
 20
486.1653468591
 30
0.0
 11
731.8845347013
 21
486.1653468591
 31
0.0
  0
LINE
  5
324
330
31D
100
AcDbEntity
  8
OPISY
100
AcDbLine
 10
730.8845347013
 20
535.6653468591
 30
0.0
 11
730.8845347013
 21
486.1653468591
 31
0.0
  0
MTEXT
  5
325
330
31D
100
AcDbEntity
  8
OPISY
100
AcDbMText
 10
724.4391961188
 20
504.4526248754
 30
0.0
 40
5.0
 41
0.0
 71
     1
 72
     1
  1
49,5
  7
SLDTEXTSTYLE0
 11
-7.044195017643634E-15
 21
1.0
 31
0.0
  0
ENDBLK
  5
31F
330
31D
100
AcDbEntity
  8
0
100
AcDbBlockEnd
  0
BLOCK
  5
329
330
328
100
AcDbEntity
  8
0
100
AcDbBlockBegin
  2
*D23
 70
     1
 10
0.0
 20
0.0
 30
0.0
  3
*D23
  1

  0
SOLID
  5
32B
330
328
100
AcDbEntity
  8
OPISY
100
AcDbTrace
 10
730.8845347013
 20
484.6253468591
 30
0.0
 11
729.8845347013
 21
476.6253468591
 31
0.0
 12
731.8845347013
 22
476.6253468591
 32
0.0
 13
731.8845347013
 23
476.6253468591
 33
0.0
  0
SOLID
  5
32C
330
328
100
AcDbEntity
  8
OPISY
100
AcDbTrace
 10
730.8845347013
 20
486.1653468591
 30
0.0
 11
731.8845347013
 21
494.1653468591
 31
0.0
 12
729.8845347013
 22
494.1653468591
 32
0.0
 13
729.8845347013
 23
494.1653468591
 33
0.0
  0
LINE
  5
32D
330
328
100
AcDbEntity
  8
OPISY
100
AcDbLine
 10
717.8845347013
 20
484.6253468591
 30
0.0
 11
731.8845347013
 21
484.6253468591
 31
0.0
  0
LINE
  5
32E
330
328
100
AcDbEntity
  8
OPISY
100
AcDbLine
 10
498.3029539643
 20
486.1653468591
 30
0.0
 11
731.8845347013
 21
486.1653468591
 31
0.0
  0
LINE
  5
32F
330
328
100
AcDbEntity
  8
OPISY
100
AcDbLine
 10
730.8845347013
 20
484.6253468591
 30
0.0
 11
730.8845347013
 21
455.2134803173
 31
0.0
  0
LINE
  5
330
330
328
100
AcDbEntity
  8
OPISY
100
AcDbLine
 10
730.8845347013
 20
484.6253468591
 30
0.0
 11
730.8845347013
 21
486.1653468591
 31
0.0
  0
LINE
  5
331
330
328
100
AcDbEntity
  8
OPISY
100
AcDbLine
 10
730.8845347013
 20
486.1653468591
 30
0.0
 11
730.8845347013
 21
498.1653468591
 31
0.0
  0
MTEXT
  5
332
330
328
100
AcDbEntity
  8
OPISY
100
AcDbMText
 10
724.4391961188
 20
458.3884803173
 30
0.0
 40
5.0
 41
0.0
 71
     1
 72
     1
  1
1,5
  7
SLDTEXTSTYLE0
 11
6.123233995736766E-17
 21
1.0
 31
0.0
  0
ENDBLK
  5
32A
330
328
100
AcDbEntity
  8
0
100
AcDbBlockEnd
  0
BLOCK
  5
336
330
335
100
AcDbEntity
  8
0
100
AcDbBlockBegin
  2
*D24
 70
     1
 10
0.0
 20
0.0
 30
0.0
  3
*D24
  1

  0
SOLID
  5
338
330
335
100
AcDbEntity
  8
OPISY
100
AcDbTrace
 10
85.7133719858
 20
518.1653468591
 30
0.0
 11
86.7133719858
 21
526.1653468591
 31
0.0
 12
84.7133719858
 22
526.1653468591
 32
0.0
 13
84.7133719858
 23
526.1653468591
 33
0.0
  0
SOLID
  5
339
330
335
100
AcDbEntity
  8
OPISY
100
AcDbTrace
 10
85.7133719858
 20
484.6253468591
 30
0.0
 11
84.7133719858
 21
476.6253468591
 31
0.0
 12
86.7133719858
 22
476.6253468591
 32
0.0
 13
86.7133719858
 23
476.6253468591
 33
0.0
  0
LINE
  5
33A
330
335
100
AcDbEntity
  8
OPISY
100
AcDbLine
 10
396.3029539643
 20
518.1653468591
 30
0.0
 11
84.7133719858
 21
518.1653468591
 31
0.0
  0
LINE
  5
33B
330
335
100
AcDbEntity
  8
OPISY
100
AcDbLine
 10
98.7133719858
 20
484.6253468591
 30
0.0
 11
84.7133719858
 21
484.6253468591
 31
0.0
  0
LINE
  5
33C
330
335
100
AcDbEntity
  8
OPISY
100
AcDbLine
 10
85.7133719858
 20
518.1653468591
 30
0.0
 11
85.7133719858
 21
530.1653468591
 31
0.0
  0
LINE
  5
33D
330
335
100
AcDbEntity
  8
OPISY
100
AcDbLine
 10
85.7133719858
 20
518.1653468591
 30
0.0
 11
85.7133719858
 21
484.6253468591
 31
0.0
  0
LINE
  5
33E
330
335
100
AcDbEntity
  8
OPISY
100
AcDbLine
 10
85.7133719858
 20
484.6253468591
 30
0.0
 11
85.7133719858
 21
472.6253468591
 31
0.0
  0
MTEXT
  5
33F
330
335
100
AcDbEntity
  8
OPISY
100
AcDbMText
 10
79.2680334033
 20
493.0847059157
 30
0.0
 40
5.0
 41
0.0
 71
     1
 72
     1
  1
33,54
  7
SLDTEXTSTYLE0
 11
-7.044195017643634E-15
 21
1.0
 31
0.0
  0
ENDBLK
  5
337
330
335
100
AcDbEntity
  8
0
100
AcDbBlockEnd
  0
BLOCK
  5
342
330
341
100
AcDbEntity
  8
0
100
AcDbBlockBegin
  2
*D25
 70
     1
 10
0.0
 20
0.0
 30
0.0
  3
*D25
  1

  0
SOLID
  5
344
330
341
100
AcDbEntity
  8
OPISY
100
AcDbTrace
 10
99.7133719858
 20
470.6253468591
 30
0.0
 11
107.7133719858
 21
469.6253468591
 31
0.0
 12
107.7133719858
 22
471.6253468591
 32
0.0
 13
107.7133719858
 23
471.6253468591
 33
0.0
  0
SOLID
  5
345
330
341
100
AcDbEntity
  8
OPISY
100
AcDbTrace
 10
716.8845347013
 20
470.6253468591
 30
0.0
 11
708.8845347013
 21
471.6253468591
 31
0.0
 12
708.8845347013
 22
469.6253468591
 32
0.0
 13
708.8845347013
 23
469.6253468591
 33
0.0
  0
LINE
  5
346
330
341
100
AcDbEntity
  8
OPISY
100
AcDbLine
 10
99.7133719858
 20
483.6253468591
 30
0.0
 11
99.7133719858
 21
469.6253468591
 31
0.0
  0
LINE
  5
347
330
341
100
AcDbEntity
  8
OPISY
100
AcDbLine
 10
716.8845347013
 20
483.6253468591
 30
0.0
 11
716.8845347013
 21
469.6253468591
 31
0.0
  0
LINE
  5
348
330
341
100
AcDbEntity
  8
OPISY
100
AcDbLine
 10
99.7133719858
 20
470.6253468591
 30
0.0
 11
716.8845347013
 21
470.6253468591
 31
0.0
  0
MTEXT
  5
34A
330
341
100
AcDbEntity
  8
OPISY
100
AcDbMText
 10
381.329325282
 20
477.0706854415
 30
0.0
 40
5.0
 41
0.0
 71
     1
 72
     1
  1
L max = 3000mm
  7
SLDTEXTSTYLE3
  0
ENDBLK
  5
343
330
341
100
AcDbEntity
  8
0
100
AcDbBlockEnd
  0
BLOCK
  5
34C
330
34B
100
AcDbEntity
  8
0
100
AcDbBlockBegin
  2
SW_CENTERMARKSYMBOL_15
 70
     0
 10
0.0
 20
0.0
 30
0.0
  3
SW_CENTERMARKSYMBOL_15
  1

  0
LINE
  5
34E
330
34B
100
AcDbEntity
  8
OPISY
 62
     0
100
AcDbLine
 10
0.0
 20
0.0
 30
0.0
 11
0.0
 21
2.5000000023
 31
0.0
  0
LINE
  5
34F
330
34B
100
AcDbEntity
  8
OPISY
 62
     0
100
AcDbLine
 10
0.0
 20
0.0
 30
0.0
 11
-2.4999976158
 21
0.0
 31
0.0
  0
LINE
  5
350
330
34B
100
AcDbEntity
  8
OPISY
 62
     0
100
AcDbLine
 10
0.0
 20
0.0
 30
0.0
 11
0.0
 21
-2.5000000023
 31
0.0
  0
LINE
  5
351
330
34B
100
AcDbEntity
  8
OPISY
 62
     0
100
AcDbLine
 10
0.0
 20
0.0
 30
0.0
 11
2.4999976158
 21
0.0
 31
0.0
  0
LINE
  5
352
330
34B
100
AcDbEntity
  8
OPISY
 62
     0
100
AcDbLine
 10
0.0
 20
5.0000001793
 30
0.0
 11
0.0
 21
6.4999999595
 31
0.0
  0
LINE
  5
353
330
34B
100
AcDbEntity
  8
OPISY
 62
     0
100
AcDbLine
 10
-4.9999952316
 20
0.0
 30
0.0
 11
-6.500005722
 21
0.0
 31
0.0
  0
LINE
  5
354
330
34B
100
AcDbEntity
  8
OPISY
 62
     0
100
AcDbLine
 10
0.0
 20
-5.0000000629
 30
0.0
 11
0.0
 21
-6.4999998431
 31
0.0
  0
LINE
  5
355
330
34B
100
AcDbEntity
  8
OPISY
 62
     0
100
AcDbLine
 10
4.9999952316
 20
0.0
 30
0.0
 11
6.500005722
 21
0.0
 31
0.0
  0
ENDBLK
  5
34D
330
34B
100
AcDbEntity
  8
0
100
AcDbBlockEnd
  0
BLOCK
  5
358
330
357
100
AcDbEntity
  8
0
100
AcDbBlockBegin
  2
SW_CENTERMARKSYMBOL_16
 70
     0
 10
0.0
 20
0.0
 30
0.0
  3
SW_CENTERMARKSYMBOL_16
  1

  0
LINE
  5
35A
330
357
100
AcDbEntity
  8
OPISY
 62
     0
100
AcDbLine
 10
0.0
 20
0.0
 30
0.0
 11
0.0
 21
2.5000000023
 31
0.0
  0
LINE
  5
35B
330
357
100
AcDbEntity
  8
OPISY
 62
     0
100
AcDbLine
 10
0.0
 20
0.0
 30
0.0
 11
-2.4999976158
 21
0.0
 31
0.0
  0
LINE
  5
35C
330
357
100
AcDbEntity
  8
OPISY
 62
     0
100
AcDbLine
 10
0.0
 20
0.0
 30
0.0
 11
0.0
 21
-2.5000000023
 31
0.0
  0
LINE
  5
35D
330
357
100
AcDbEntity
  8
OPISY
 62
     0
100
AcDbLine
 10
0.0
 20
0.0
 30
0.0
 11
2.4999976158
 21
0.0
 31
0.0
  0
LINE
  5
35E
330
357
100
AcDbEntity
  8
OPISY
 62
     0
100
AcDbLine
 10
0.0
 20
5.0000001793
 30
0.0
 11
0.0
 21
6.4999999595
 31
0.0
  0
LINE
  5
35F
330
357
100
AcDbEntity
  8
OPISY
 62
     0
100
AcDbLine
 10
-4.9999952316
 20
0.0
 30
0.0
 11
-6.500005722
 21
0.0
 31
0.0
  0
LINE
  5
360
330
357
100
AcDbEntity
  8
OPISY
 62
     0
100
AcDbLine
 10
0.0
 20
-5.0000000629
 30
0.0
 11
0.0
 21
-6.4999998431
 31
0.0
  0
LINE
  5
361
330
357
100
AcDbEntity
  8
OPISY
 62
     0
100
AcDbLine
 10
4.9999952316
 20
0.0
 30
0.0
 11
6.500005722
 21
0.0
 31
0.0
  0
ENDBLK
  5
359
330
357
100
AcDbEntity
  8
0
100
AcDbBlockEnd
  0
BLOCK
  5
4DE
330
4DD
100
AcDbEntity
  8
0
100
AcDbBlockBegin
  2
SW_NOTE_1
 70
     0
 10
0.0
 20
0.0
 30
0.0
  3
SW_NOTE_1
  1

  0
LINE
  5
4E0
330
4DD
100
AcDbEntity
  8
OPISY
 62
     0
100
AcDbLine
 10
0.0
 20
0.0
 30
0.0
 11
84.1119437148
 21
0.0
 31
0.0
  0
LINE
  5
4E1
330
4DD
100
AcDbEntity
  8
OPISY
 62
     0
100
AcDbLine
 10
84.1119437148
 20
0.0
 30
0.0
 11
0.0
 21
0.0
 31
0.0
  0
LINE
  5
4E2
330
4DD
100
AcDbEntity
  8
OPISY
 62
     0
100
AcDbLine
 10
0.0
 20
0.0
 30
0.0
 11
84.1119437148
 21
0.0
 31
0.0
  0
LINE
  5
4E3
330
4DD
100
AcDbEntity
  8
OPISY
 62
     0
100
AcDbLine
 10
84.1119437148
 20
0.0
 30
0.0
 11
0.0
 21
0.0
 31
0.0
  0
LINE
  5
4E4
330
4DD
100
AcDbEntity
  8
OPISY
 62
     0
100
AcDbLine
 10
0.0
 20
0.0
 30
0.0
 11
84.1119437148
 21
0.0
 31
0.0
  0
LINE
  5
4E5
330
4DD
100
AcDbEntity
  8
OPISY
 62
     0
100
AcDbLine
 10
84.1119437148
 20
0.0
 30
0.0
 11
0.0
 21
0.0
 31
0.0
  0
MTEXT
  5
4E6
330
4DD
100
AcDbEntity
  8
OPISY
 62
     0
100
AcDbMText
 10
0.0050826179
 20
8.2678863947
 30
0.0
 40
7.0
 41
0.0
 71
     1
 72
     1
  1
Dźwignia hamulca
  7
SLDTEXTSTYLE2
  0
ENDBLK
  5
4DF
330
4DD
100
AcDbEntity
  8
0
100
AcDbBlockEnd
  0
BLOCK
  5
4EB
330
4EA
100
AcDbEntity
  8
0
100
AcDbBlockBegin
  2
SW_NOTE_2
 70
     0
 10
0.0
 20
0.0
 30
0.0
  3
SW_NOTE_2
  1

  0
LINE
  5
4ED
330
4EA
100
AcDbEntity
  8
OPISY
 62
     0
100
AcDbLine
 10
0.0
 20
0.0
 30
0.0
 11
34.7874906156
 21
0.0
 31
0.0
  0
LINE
  5
4EE
330
4EA
100
AcDbEntity
  8
OPISY
 62
     0
100
AcDbLine
 10
34.7874906156
 20
0.0
 30
0.0
 11
0.0
 21
0.0
 31
0.0
  0
LINE
  5
4EF
330
4EA
100
AcDbEntity
  8
OPISY
 62
     0
100
AcDbLine
 10
0.0
 20
0.0
 30
0.0
 11
34.7874906156
 21
0.0
 31
0.0
  0
LINE
  5
4F0
330
4EA
100
AcDbEntity
  8
OPISY
 62
     0
100
AcDbLine
 10
34.7874906156
 20
0.0
 30
0.0
 11
0.0
 21
0.0
 31
0.0
  0
LINE
  5
4F1
330
4EA
100
AcDbEntity
  8
OPISY
 62
     0
100
AcDbLine
 10
0.0
 20
0.0
 30
0.0
 11
34.7874906156
 21
0.0
 31
0.0
  0
LINE
  5
4F2
330
4EA
100
AcDbEntity
  8
OPISY
 62
     0
100
AcDbLine
 10
34.7874906156
 20
0.0
 30
0.0
 11
0.0
 21
0.0
 31
0.0
  0
MTEXT
  5
4F3
330
4EA
100
AcDbEntity
  8
OPISY
 62
     0
100
AcDbMText
 10
0.0045051368
 20
8.2714764353
 30
0.0
 40
7.0
 41
0.0
 71
     1
 72
     1
  1
Zderzak
  7
SLDTEXTSTYLE0
  0
ENDBLK
  5
4EC
330
4EA
100
AcDbEntity
  8
0
100
AcDbBlockEnd
  0
BLOCK
  5
4F7
330
4F6
100
AcDbEntity
  8
0
100
AcDbBlockBegin
  2
SW_NOTE_3
 70
     0
 10
0.0
 20
0.0
 30
0.0
  3
SW_NOTE_3
  1

  0
LINE
  5
4F9
330
4F6
100
AcDbEntity
  8
OPISY
 62
     0
100
AcDbLine
 10
-56.2033730467
 20
0.0
 30
0.0
 11
0.0
 21
0.0
 31
0.0
  0
LINE
  5
4FA
330
4F6
100
AcDbEntity
  8
OPISY
 62
     0
100
AcDbLine
 10
0.0
 20
0.0
 30
0.0
 11
-56.2033730467
 21
0.0
 31
0.0
  0
LINE
  5
4FB
330
4F6
100
AcDbEntity
  8
OPISY
 62
     0
100
AcDbLine
 10
-56.2033730467
 20
0.0
 30
0.0
 11
0.0
 21
0.0
 31
0.0
  0
LINE
  5
4FC
330
4F6
100
AcDbEntity
  8
OPISY
 62
     0
100
AcDbLine
 10
0.0
 20
0.0
 30
0.0
 11
-56.2033730467
 21
0.0
 31
0.0
  0
LINE
  5
4FD
330
4F6
100
AcDbEntity
  8
OPISY
 62
     0
100
AcDbLine
 10
-56.2033730467
 20
0.0
 30
0.0
 11
0.0
 21
0.0
 31
0.0
  0
LINE
  5
4FE
330
4F6
100
AcDbEntity
  8
OPISY
 62
     0
100
AcDbLine
 10
0.0
 20
0.0
 30
0.0
 11
-56.2033730467
 21
0.0
 31
0.0
  0
MTEXT
  5
4FF
330
4F6
100
AcDbEntity
  8
OPISY
 62
     0
100
AcDbMText
 10
-56.202959182
 20
8.2706319819
 30
0.0
 40
7.0
 41
0.0
 71
     1
 72
     1
  1
Rolka wózka
  7
SLDTEXTSTYLE0
  0
ENDBLK
  5
4F8
330
4F6
100
AcDbEntity
  8
0
100
AcDbBlockEnd
  0
BLOCK
  5
503
330
502
100
AcDbEntity
  8
0
100
AcDbBlockBegin
  2
SW_NOTE_4
 70
     0
 10
0.0
 20
0.0
 30
0.0
  3
SW_NOTE_4
  1

  0
LINE
  5
505
330
502
100
AcDbEntity
  8
OPISY
 62
     0
100
AcDbLine
 10
0.0
 20
0.0
 30
0.0
 11
76.0210552963
 21
0.0
 31
0.0
  0
LINE
  5
506
330
502
100
AcDbEntity
  8
OPISY
 62
     0
100
AcDbLine
 10
76.0210552963
 20
0.0
 30
0.0
 11
0.0
 21
0.0
 31
0.0
  0
LINE
  5
507
330
502
100
AcDbEntity
  8
OPISY
 62
     0
100
AcDbLine
 10
0.0
 20
0.0
 30
0.0
 11
76.0210552963
 21
0.0
 31
0.0
  0
LINE
  5
508
330
502
100
AcDbEntity
  8
OPISY
 62
     0
100
AcDbLine
 10
76.0210552963
 20
0.0
 30
0.0
 11
0.0
 21
0.0
 31
0.0
  0
LINE
  5
509
330
502
100
AcDbEntity
  8
OPISY
 62
     0
100
AcDbLine
 10
0.0
 20
0.0
 30
0.0
 11
76.0210552963
 21
0.0
 31
0.0
  0
LINE
  5
50A
330
502
100
AcDbEntity
  8
OPISY
 62
     0
100
AcDbLine
 10
76.0210552963
 20
0.0
 30
0.0
 11
0.0
 21
0.0
 31
0.0
  0
MTEXT
  5
50B
330
502
100
AcDbEntity
  8
OPISY
 62
     0
100
AcDbMText
 10
0.0051356319
 20
8.269916406
 30
0.0
 40
7.0
 41
0.0
 71
     1
 72
     1
  1
Wózek przymiaru
  7
SLDTEXTSTYLE0
  0
ENDBLK
  5
504
330
502
100
AcDbEntity
  8
0
100
AcDbBlockEnd
  0
BLOCK
  5
50F
330
50E
100
AcDbEntity
  8
0
100
AcDbBlockBegin
  2
SW_NOTE_5
 70
     0
 10
0.0
 20
0.0
 30
0.0
  3
SW_NOTE_5
  1

  0
LINE
  5
511
330
50E
100
AcDbEntity
  8
OPISY
 62
     0
100
AcDbLine
 10
0.0
 20
0.0
 30
0.0
 11
54.9514495712
 21
0.0
 31
0.0
  0
LINE
  5
512
330
50E
100
AcDbEntity
  8
OPISY
 62
     0
100
AcDbLine
 10
54.9514495712
 20
0.0
 30
0.0
 11
0.0
 21
0.0
 31
0.0
  0
LINE
  5
513
330
50E
100
AcDbEntity
  8
OPISY
 62
     0
100
AcDbLine
 10
0.0
 20
0.0
 30
0.0
 11
54.9514495712
 21
0.0
 31
0.0
  0
LINE
  5
514
330
50E
100
AcDbEntity
  8
OPISY
 62
     0
100
AcDbLine
 10
54.9514495712
 20
0.0
 30
0.0
 11
0.0
 21
0.0
 31
0.0
  0
LINE
  5
515
330
50E
100
AcDbEntity
  8
OPISY
 62
     0
100
AcDbLine
 10
0.0
 20
0.0
 30
0.0
 11
54.9514495712
 21
0.0
 31
0.0
  0
LINE
  5
516
330
50E
100
AcDbEntity
  8
OPISY
 62
     0
100
AcDbLine
 10
54.9514495712
 20
0.0
 30
0.0
 11
0.0
 21
0.0
 31
0.0
  0
MTEXT
  5
517
330
50E
100
AcDbEntity
  8
OPISY
 62
     0
100
AcDbMText
 10
0.0040426852
 20
18.0799916278
 30
0.0
 40
7.0
 41
0.0
 71
     1
 72
     1
  1
Prowadnica
  7
SLDTEXTSTYLE0
  0
MTEXT
  5
518
330
50E
100
AcDbEntity
  8
OPISY
 62
     0
100
AcDbMText
 10
0.0040426852
 20
9.0286025668
 30
0.0
 40
7.0
 41
0.0
 71
     1
 72
     1
  1
liniowa
  7
SLDTEXTSTYLE0
  0
ENDBLK
  5
510
330
50E
100
AcDbEntity
  8
0
100
AcDbBlockEnd
  0
BLOCK
  5
51C
330
51B
100
AcDbEntity
  8
0
100
AcDbBlockBegin
  2
SW_NOTE_6
 70
     0
 10
0.0
 20
0.0
 30
0.0
  3
SW_NOTE_6
  1

  0
LINE
  5
51E
330
51B
100
AcDbEntity
  8
OPISY
 62
     0
100
AcDbLine
 10
-77.3595479483
 20
0.0
 30
0.0
 11
0.0
 21
0.0
 31
0.0
  0
LINE
  5
51F
330
51B
100
AcDbEntity
  8
OPISY
 62
     0
100
AcDbLine
 10
0.0
 20
0.0
 30
0.0
 11
-77.3595479483
 21
0.0
 31
0.0
  0
LINE
  5
520
330
51B
100
AcDbEntity
  8
OPISY
 62
     0
100
AcDbLine
 10
-77.3595479483
 20
0.0
 30
0.0
 11
0.0
 21
0.0
 31
0.0
  0
LINE
  5
521
330
51B
100
AcDbEntity
  8
OPISY
 62
     0
100
AcDbLine
 10
0.0
 20
0.0
 30
0.0
 11
-77.3595479483
 21
0.0
 31
0.0
  0
LINE
  5
522
330
51B
100
AcDbEntity
  8
OPISY
 62
     0
100
AcDbLine
 10
-77.3595479483
 20
0.0
 30
0.0
 11
0.0
 21
0.0
 31
0.0
  0
LINE
  5
523
330
51B
100
AcDbEntity
  8
OPISY
 62
     0
100
AcDbLine
 10
0.0
 20
0.0
 30
0.0
 11
-77.3595479483
 21
0.0
 31
0.0
  0
MTEXT
  5
524
330
51B
100
AcDbEntity
  8
OPISY
 62
     0
100
AcDbMText
 10
-77.3571781592
 20
8.2691823061
 30
0.0
 40
7.0
 41
0.0
 71
     1
 72
     1
  1
Pręt prowadzący
  7
SLDTEXTSTYLE2
  0
ENDBLK
  5
51D
330
51B
100
AcDbEntity
  8
0
100
AcDbBlockEnd
  0
ENDSEC
  0
SECTION
  2
ENTITIES
  0
LINE
  5
42
330
1F
100
AcDbEntity
  8
0
  6
CONTINUOUS
 62
     7
100
AcDbLine
 10
10.0
 20
10.0
 30
0.0
 11
830.0
 21
10.0
 31
0.0
  0
LINE
  5
43
330
1F
100
AcDbEntity
  8
0
  6
CONTINUOUS
 62
   218
100
AcDbLine
 10
830.2545578658
 20
90.0
 30
0.0
 11
470.2545578658
 21
90.0
 31
0.0
  0
LINE
  5
44
330
1F
100
AcDbEntity
  8
0
  6
CONTINUOUS
 62
     7
100
AcDbLine
 10
830.2545578658
 20
70.0
 30
0.0
 11
470.2545578658
 21
70.0
 31
0.0
  0
LINE
  5
45
330
1F
100
AcDbEntity
  8
0
  6
CONTINUOUS
 62
   218
100
AcDbLine
 10
470.2545578658
 20
10.0
 30
0.0
 11
470.2545578658
 21
90.0
 31
0.0
  0
LINE
  5
46
330
1F
100
AcDbEntity
  8
0
  6
CONTINUOUS
 62
   218
100
AcDbLine
 10
830.0
 20
40.0
 30
0.0
 11
470.0
 21
40.0
 31
0.0
  0
LINE
  5
47
330
1F
100
AcDbEntity
  8
0
  6
CONTINUOUS
 62
     7
100
AcDbLine
 10
492.023082781
 20
90.0
 30
0.0
 11
492.023082781
 21
70.0
 31
0.0
  0
LINE
  5
48
330
1F
100
AcDbEntity
  8
0
  6
CONTINUOUS
 62
     7
100
AcDbLine
 10
710.2545578658
 20
60.933773122
 30
0.0
 11
830.2545578658
 21
60.933773122
 31
0.0
  0
LINE
  5
49
330
1F
100
AcDbEntity
  8
0
  6
CONTINUOUS
 62
     7
100
AcDbLine
 10
710.2545578658
 20
83.0985741693
 30
0.0
 11
541.8828354241
 21
83.0985741693
 31
0.0
  0
LINE
  5
4A
330
1F
100
AcDbEntity
  8
0
  6
CONTINUOUS
 62
     7
100
AcDbLine
 10
710.2545578658
 20
50.4961274533
 30
0.0
 11
830.2545578658
 21
50.4961274533
 31
0.0
  0
LINE
  5
4B
330
1F
100
AcDbEntity
  8
0
  6
CONTINUOUS
 62
   218
100
AcDbLine
 10
710.2545578658
 20
10.0
 30
0.0
 11
710.2545578658
 21
90.0
 31
0.0
  0
LINE
  5
4C
330
1F
100
AcDbEntity
  8
0
  6
CONTINUOUS
 62
     7
100
AcDbLine
 10
710.2545578658
 20
76.2780425011
 30
0.0
 11
541.8828354241
 21
76.2780425011
 31
0.0
  0
LINE
  5
4D
330
1F
100
AcDbEntity
  8
0
  6
CONTINUOUS
 62
     7
100
AcDbLine
 10
541.8828354241
 20
90.0
 30
0.0
 11
541.8828354241
 21
10.0
 31
0.0
  0
LINE
  5
4E
330
1F
100
AcDbEntity
  8
0
  6
CONTINUOUS
 62
     7
100
AcDbLine
 10
743.3803319491
 20
70.0
 30
0.0
 11
743.3803319491
 21
10.0
 31
0.0
  0
LINE
  5
4F
330
1F
100
AcDbEntity
  8
0
  6
CONTINUOUS
 62
     7
100
AcDbLine
 10
656.5332726686
 20
40.0
 30
0.0
 11
656.5332726686
 21
10.0
 31
0.0
  0
LINE
  5
50
330
1F
100
AcDbEntity
  8
0
  6
CONTINUOUS
 62
     7
100
AcDbLine
 10
681.3739234474
 20
40.0
 30
0.0
 11
681.3739234474
 21
10.0
 31
0.0
  0
LINE
  5
51
330
1F
100
AcDbEntity
  8
0
  6
CONTINUOUS
 62
     7
100
AcDbLine
 10
669.7593151538
 20
70.0
 30
0.0
 11
669.7593151538
 21
40.0
 31
0.0
  0
LINE
  5
52
330
1F
100
AcDbEntity
  8
0
  6
CONTINUOUS
 62
     7
100
AcDbLine
 10
611.2793535596
 20
70.0
 30
0.0
 11
611.2793535596
 21
40.0
 31
0.0
  0
LINE
  5
53
330
1F
100
AcDbEntity
  8
0
  6
CONTINUOUS
 62
     7
100
AcDbLine
 10
673.5396136876
 20
70.0
 30
0.0
 11
673.5396136876
 21
90.0
 31
0.0
  0
LINE
  5
54
330
1F
100
AcDbEntity
  8
0
  6
CONTINUOUS
 62
     7
100
AcDbLine
 10
10.0
 20
584.0
 30
0.0
 11
10.0
 21
10.0
 31
0.0
  0
LINE
  5
55
330
1F
100
AcDbEntity
  8
0
  6
CONTINUOUS
 62
     7
100
AcDbLine
 10
830.0
 20
10.0
 30
0.0
 11
830.0
 21
584.0
 31
0.0
  0
LINE
  5
56
330
1F
100
AcDbEntity
  8
0
  6
CONTINUOUS
 62
     7
100
AcDbLine
 10
830.0
 20
584.0
 30
0.0
 11
10.0
 21
584.0
 31
0.0
  0
MTEXT
  5
7A
330
1F
100
AcDbEntity
  8
0
  6
CONTINUOUS
 62
     7
100
AcDbMText
 10
686.9657521359
 20
31.6031810539
 30
0.0
 40
8.0
 41
0.0
 71
     1
 72
     1
  1
1/1
  7
SLDTEXTSTYLE0
  0
MTEXT
  5
7C
330
1F
100
AcDbEntity
  8
0
  6
CONTINUOUS
 62
     7
100
AcDbMText
 10
667.0045143204
 20
62.7182856573
 30
0.0
 40
5.0
 41
0.0
 71
     1
 72
     1
  1
-
  7
SLDTEXTSTYLE1
  0
MTEXT
  5
7D
330
1F
100
AcDbEntity
  8
0
  6
CONTINUOUS
 62
     7
100
AcDbMText
 10
743.9059506676
 20
58.1010284704
 30
0.0
 40
5.0
 41
0.0
 71
     1
 72
     1
  1
DK
  7
SLDTEXTSTYLE1
  0
MTEXT
  5
7E
330
1F
100
AcDbEntity
  8
0
  6
CONTINUOUS
 62
     7
100
AcDbMText
 10
501.7404305462
 20
83.7850777479
 30
0.0
 40
5.0
 41
0.0
 71
     1
 72
     1
  1
2017-05-11
  7
SLDTEXTSTYLE1
  0
MTEXT
  5
7F
330
1F
100
AcDbEntity
  8
0
  6
CONTINUOUS
 62
     7
100
AcDbMText
 10
542.8558234476
 20
36.8536808854
 30
0.0
 40
7.0
 41
0.0
 71
     1
 72
     1
  1
Przymiar
  7
SLDTEXTSTYLE1
  0
MTEXT
  5
80
330
1F
100
AcDbEntity
  8
0
  6
CONTINUOUS
 62
     7
100
AcDbMText
 10
542.0922134475
 20
88.9259805062
 30
0.0
 40
5.0
 41
0.0
 71
     1
 72
     1
  1
Plik:  HRO-3_5.SLDDRW
  7
SLDTEXTSTYLE1
  0
MTEXT
  5
81
330
1F
100
AcDbEntity
  8
0
  6
CONTINUOUS
 62
     7
100
AcDbMText
 10
689.9445682441
 20
68.443813352
 30
0.0
 40
5.0
 41
0.0
 71
     1
 72
     1
  1
5.07kg
  7
SLDTEXTSTYLE1
  0
MTEXT
  5
82
330
1F
100
AcDbEntity
  8
0
  6
CONTINUOUS
 62
     7
100
AcDbMText
 10
659.8567742862
 20
31.0159764852
 30
0.0
 40
10.0
 41
0.0
 71
     1
 72
     1
  1
1:2
  7
SLDTEXTSTYLE1
  0
INSERT
  5
88
330
1F
100
AcDbEntity
  8
0
  6
CONTINUOUS
 62
     7
100
AcDbBlockReference
  2
SW_NOTE_0
 10
814.7582823005
 20
65.7931721169
 30
0.0
  0
MTEXT
  5
8A
330
1F
100
AcDbEntity
  8
0
  6
CONTINUOUS
 62
     7
100
AcDbMText
 10
769.5204416047
 20
67.5176516387
 30
0.0
 40
4.0
 41
0.0
 71
     1
 72
     1
  1
Imię i nazwisko
  7
SLDTEXTSTYLE2
  0
MTEXT
  5
8B
330
1F
100
AcDbEntity
  8
0
  6
CONTINUOUS
 62
     7
100
AcDbMText
 10
713.6981976837
 20
76.0132384844
 30
0.0
 40
4.0
 41
0.0
 71
     1
 72
     1
  1
Notatka
  7
SLDTEXTSTYLE0
  0
MTEXT
  5
8C
330
1F
100
AcDbEntity
  8
0
  6
CONTINUOUS
 62
     7
100
AcDbMText
 10
712.8807746423
 20
57.6234893755
 30
0.0
 40
4.0
 41
0.0
 71
     1
 72
     1
  1
Rysował
  7
SLDTEXTSTYLE2
  0
MTEXT
  5
8D
330
1F
100
AcDbEntity
  8
0
  6
CONTINUOUS
 62
     7
100
AcDbMText
 10
712.7317805141
 20
37.301172446
 30
0.0
 40
4.0
 41
0.0
 71
     1
 72
     1
  1
Zatwierdził
  7
SLDTEXTSTYLE2
  0
MTEXT
  5
8E
330
1F
100
AcDbEntity
  8
0
  6
CONTINUOUS
 62
     7
100
AcDbMText
 10
712.9836839068
 20
47.7391772001
 30
0.0
 40
4.0
 41
0.0
 71
     1
 72
     1
  1
Sprawdził
  7
SLDTEXTSTYLE2
  0
MTEXT
  5
8F
330
1F
100
AcDbEntity
  8
0
  6
CONTINUOUS
 62
     7
100
AcDbMText
 10
673.118426139
 20
46.6866633902
 30
0.0
 40
4.0
 41
0.0
 71
     1
 72
     1
  1
Waga
  7
SLDTEXTSTYLE0
  0
MTEXT
  5
90
330
1F
100
AcDbEntity
  8
0
  6
CONTINUOUS
 62
     7
100
AcDbMText
 10
613.7497658282
 20
46.7472528793
 30
0.0
 40
4.0
 41
0.0
 71
     1
 72
     1
  1
Materiał
  7
SLDTEXTSTYLE2
  0
MTEXT
  5
91
330
1F
100
AcDbEntity
  8
0
  6
CONTINUOUS
 62
     7
100
AcDbMText
 10
546.0731192181
 20
46.0917117841
 30
0.0
 40
4.0
 41
0.0
 71
     1
 72
     1
  1
Ilość
  7
SLDTEXTSTYLE2
  0
MTEXT
  5
92
330
1F
100
AcDbEntity
  8
0
  6
CONTINUOUS
 62
     7
100
AcDbMText
 10
494.9012239959
 20
75.9099615041
 30
0.0
 40
4.0
 41
0.0
 71
     1
 72
     1
  1
DATA
  7
SLDTEXTSTYLE0
  0
MTEXT
  5
93
330
1F
100
AcDbEntity
  8
0
  6
CONTINUOUS
 62
     7
100
AcDbMText
 10
472.9505294043
 20
46.0917117841
 30
0.0
 40
4.0
 41
0.0
 71
     1
 72
     1
  1
Format
  7
SLDTEXTSTYLE0
  0
MTEXT
  5
94
330
1F
100
AcDbEntity
  8
0
  6
CONTINUOUS
 62
     7
100
AcDbMText
 10
493.1034000895
 20
63.9355428542
 30
0.0
 40
16.0
 41
0.0
 71
     1
 72
     1
  1
A3
  7
SLDTEXTSTYLE1
  0
INSERT
  5
98
330
1F
100
AcDbEntity
  8
0
  6
CONTINUOUS
 62
     7
100
AcDbBlockReference
  2
SW_BROKEN_VIEW_0
 10
0.0
 20
0.0
 30
0.0
  0
LINE
  5
99
330
1F
100
AcDbEntity
  8
0
  6
CONTINUOUS
 62
     7
100
AcDbLine
 10
447.618942603
 20
411.4918795762
 30
0.0
 11
474.4798353757
 21
421.2684718308
 31
0.0
  0
ARC
  5
9A
330
1F
100
AcDbEntity
  8
0
  6
CONTINUOUS
 62
     7
100
AcDbCircle
 10
448.3030573957
 20
409.6123876353
 30
0.0
 40
2.000125747420965
100
AcDbArc
 50
110.0009602001
 51
179.9969825045
  0
LINE
  5
9B
330
1F
100
AcDbEntity
  8
0
  6
CONTINUOUS
 62
     7
100
AcDbLine
 10
433.3029798116
 20
415.2469423947
 30
0.0
 11
433.3029798116
 21
400.0129078862
 31
0.0
  0
LINE
  5
9C
330
1F
100
AcDbEntity
  8
0
  6
CONTINUOUS
 62
     7
100
AcDbLine
 10
446.302931651
 20
400.0129078862
 30
0.0
 11
446.302931651
 21
409.6124929723
 31
0.0
  0
ARC
  5
9D
330
1F
100
AcDbEntity
  8
0
  6
CONTINUOUS
 62
     7
100
AcDbCircle
 10
476.6812657939
 20
422.0703112598
 30
0.0
 40
2.000578246422152
100
AcDbArc
 50
270.0036298208
 51
289.9973053779
  0
LINE
  5
9E
330
1F
100
AcDbEntity
  8
0
  6
CONTINUOUS
 62
     7
100
AcDbLine
 10
476.3181618299
 20
420.0697330174
 30
0.0
 11
476.6813925351
 21
420.0697330174
 31
0.0
  0
ARC
  5
9F
330
1F
100
AcDbEntity
  8
0
  6
CONTINUOUS
 62
     7
100
AcDbCircle
 10
481.801926431
 20
424.9977177383
 30
0.0
 40
3.000072491379816
100
AcDbArc
 50
290.0010216502
 51
334.4365986332
  0
LINE
  5
A0
330
1F
100
AcDbEntity
  8
0
  6
CONTINUOUS
 62
     7
100
AcDbLine
 10
477.3654154386
 20
420.1903504667
 30
0.0
 11
482.828061923
 21
422.1785900531
 31
0.0
  0
LINE
  5
A1
330
1F
100
AcDbEntity
  8
0
  6
CONTINUOUS
 62
     7
100
AcDbLine
 10
434.8029306974
 20
400.0129078862
 30
0.0
 11
434.8029306974
 21
396.0129072306
 31
0.0
  0
LINE
  5
A2
330
1F
100
AcDbEntity
  8
0
  6
CONTINUOUS
 62
     7
100
AcDbLine
 10
444.8029807653
 20
396.0129072306
 30
0.0
 11
444.8029807653
 21
400.0129078862
 31
0.0
  0
ARC
  5
A3
330
1F
100
AcDbEntity
  8
0
  6
CONTINUOUS
 62
     7
100
AcDbCircle
 10
442.8029203586
 20
419.5128947761
 30
0.0
 40
1.000013676735187
100
AcDbArc
 50
0.0006674767
 51
89.9984787451
  0
ARC
  5
A4
330
1F
100
AcDbEntity
  8
0
  6
CONTINUOUS
 62
     7
100
AcDbCircle
 10
436.8029911041
 20
419.5128947761
 30
0.0
 40
1.000013676735187
100
AcDbArc
 50
90.0015212549
 51
179.9993325233
  0
LINE
  5
A5
330
1F
100
AcDbEntity
  8
0
  6
CONTINUOUS
 62
     7
100
AcDbLine
 10
435.8029774274
 20
419.5129064259
 30
0.0
 11
435.8029774274
 21
416.0146427688
 31
0.0
  0
LINE
  5
A6
330
1F
100
AcDbEntity
  8
0
  6
CONTINUOUS
 62
     7
100
AcDbLine
 10
443.8029340352
 20
418.3083412585
 30
0.0
 11
443.8029340352
 21
419.5129064259
 31
0.0
  0
ARC
  5
A7
330
1F
100
AcDbEntity
  8
0
  6
CONTINUOUS
 62
     7
100
AcDbCircle
 10
483.8049775479
 20
429.0171296424
 30
0.0
 40
0.9948366163521473
100
AcDbArc
 50
44.9414849318
 51
58.9207239219
  0
LINE
  5
A8
330
1F
100
AcDbEntity
  8
0
  6
CONTINUOUS
 62
     7
100
AcDbLine
 10
433.5529616918
 20
396.0129072306
 30
0.0
 11
433.5529616918
 21
394.4129062233
 31
0.0
  0
LINE
  5
A9
330
1F
100
AcDbEntity
  8
0
  6
CONTINUOUS
 62
     7
100
AcDbLine
 10
446.0529497709
 20
394.4129062233
 30
0.0
 11
446.0529497709
 21
396.0129072306
 31
0.0
  0
LINE
  5
AA
330
1F
100
AcDbEntity
  8
0
  6
CONTINUOUS
 62
     7
100
AcDbLine
 10
716.8845347013
 20
377.9129063127
 30
0.0
 11
497.3029306974
 21
377.9129063127
 31
0.0
  0
LINE
  5
AB
330
1F
100
AcDbEntity
  8
0
  6
CONTINUOUS
 62
     7
100
AcDbLine
 10
392.3029712285
 20
377.9129063127
 30
0.0
 11
372.8891423787
 21
377.9129063127
 31
0.0
  0
LINE
  5
AC
330
1F
100
AcDbEntity
  8
0
  6
CONTINUOUS
 62
     7
100
AcDbLine
 10
367.499213561
 20
336.9129079742
 30
0.0
 11
392.3029712285
 21
336.9129079742
 31
0.0
  0
LINE
  5
AD
330
1F
100
AcDbEntity
  8
0
  6
CONTINUOUS
 62
     7
100
AcDbLine
 10
497.3029306974
 20
336.9129079742
 30
0.0
 11
716.8845347013
 21
336.9129079742
 31
0.0
  0
LINE
  5
AE
330
1F
100
AcDbEntity
  8
0
  6
CONTINUOUS
 62
     7
100
AcDbLine
 10
444.4119742955
 20
418.4819248852
 30
0.0
 11
482.2733810987
 21
429.3318999347
 31
0.0
  0
LINE
  5
AF
330
1F
100
AcDbEntity
  8
0
  6
CONTINUOUS
 62
     7
100
AcDbLine
 10
482.2733810987
 20
429.3318999347
 30
0.0
 11
482.2733810987
 21
422.089607769
 31
0.0
  0
LINE
  5
B0
330
1F
100
AcDbEntity
  8
0
  6
CONTINUOUS
 62
     7
100
AcDbLine
 10
482.2733810987
 20
422.089607769
 30
0.0
 11
477.0117214765
 21
420.1903504667
 31
0.0
  0
SPLINE
  5
B1
330
1F
100
AcDbEntity
  8
0
  6
CONTINUOUS
 62
     7
100
AcDbSpline
210
0.0
220
0.0
230
1.0
 70
     8
 71
     3
 72
    12
 73
     8
 74
     0
 42
0.00000001
 43
0.00000001
 40
0.0
 40
0.0
 40
0.0
 40
0.0
 40
0.217132389860486
 40
0.4342846199853888
 40
0.6516007004195303
 40
0.8678048115871125
 40
0.9999999999999999
 40
0.9999999999999999
 40
0.9999999999999999
 40
0.9999999999999999
 10
477.0117214764828
 20
420.1903504667039
 30
0.0
 10
476.7886276320598
 20
420.1339130611531
 30
0.0
 10
476.3424195582272
 20
420.0210330931375
 30
0.0
 10
475.6488450787866
 20
420.1443884149421
 30
0.0
 10
475.0407125690776
 20
420.4741544340664
 30
0.0
 10
474.6263475965513
 20
420.9225483290114
 30
0.0
 10
474.4783091681861
 20
421.2583022047938
 30
0.0
 10
474.4221380795712
 20
421.3856992659326
 30
0.0
  0
SPLINE
  5
B2
330
1F
100
AcDbEntity
  8
0
  6
CONTINUOUS
 62
     7
100
AcDbSpline
210
0.0
220
0.0
230
1.0
 70
     8
 71
     3
 72
    12
 73
     8
 74
     0
 42
0.00000001
 43
0.00000001
 40
0.0
 40
0.0
 40
0.0
 40
0.0
 40
0.2499403599094268
 40
0.62487008153321
 40
0.7498605365968081
 40
0.8748944503157671
 40
1.0
 40
1.0
 40
1.0
 40
1.0
 10
474.4221380795712
 20
421.3856992659326
 30
0.0
 10
472.0392524436568
 20
420.5292823982025
 30
0.0
 10
466.0818554784862
 20
418.3881745028675
 30
0.0
 10
458.9259200731294
 20
415.8370615780815
 30
0.0
 10
452.9391851044571
 20
413.7772293958577
 30
0.0
 10
449.3371039875184
 20
412.5636822622629
 30
0.0
 10
446.9055077444909
 20
411.8492153421977
 30
0.0
 10
445.6893614377255
 20
411.4918795761819
 30
0.0
  0
SPLINE
  5
B3
330
1F
100
AcDbEntity
  8
0
  6
CONTINUOUS
 62
     7
100
AcDbSpline
210
0.0
220
0.0
230
1.0
 70
     8
 71
     3
 72
     9
 73
     5
 74
     0
 42
0.00000001
 43
0.00000001
 40
0.0
 40
0.0
 40
0.0
 40
0.0
 40
0.6995578960962803
 40
1.0
 40
1.0
 40
1.0
 40
1.0
 10
444.4119742955441
 20
410.8194497761484
 30
0.0
 10
444.6892368075742
 20
411.0199675911524
 30
0.0
 10
445.085576429466
 20
411.3066026446955
 30
0.0
 10
445.5498685393931
 20
411.4490749092664
 30
0.0
 10
445.6893614377255
 20
411.4918795761819
 30
0.0
  0
SPLINE
  5
B4
330
1F
100
AcDbEntity
  8
0
  6
CONTINUOUS
 62
     7
100
AcDbSpline
210
0.0
220
0.0
230
1.0
 70
     8
 71
     3
 72
     9
 73
     5
 74
     0
 42
0.00000001
 43
0.00000001
 40
0.0
 40
0.0
 40
0.0
 40
0.0
 40
0.5096966942543766
 40
0.9999999999999999
 40
0.9999999999999999
 40
0.9999999999999999
 40
0.9999999999999999
 10
444.4119742955441
 20
410.8194497761484
 30
0.0
 10
444.2116466222456
 20
410.628808571919
 30
0.0
 10
443.8186135193107
 20
410.2547798478202
 30
0.0
 10
443.4890925896336
 20
409.8238025608517
 30
0.0
 10
443.3275273885006
 20
409.6124929723497
 30
0.0
  0
LINE
  5
B5
330
1F
100
AcDbEntity
  8
0
  6
CONTINUOUS
 62
     7
100
AcDbLine
 10
439.5761302556
 20
400.0129078862
 30
0.0
 11
446.302931651
 21
400.0129078862
 31
0.0
  0
LINE
  5
B6
330
1F
100
AcDbEntity
  8
0
  6
CONTINUOUS
 62
     7
100
AcDbLine
 10
433.3029798116
 20
400.0129078862
 30
0.0
 11
439.5761302556
 21
400.0129078862
 31
0.0
  0
ARC
  5
B7
330
1F
100
AcDbEntity
  8
0
  6
CONTINUOUS
 62
     7
100
AcDbCircle
 10
524.7273519048
 20
120.8022801617
 30
0.0
 40
308.3116522775678
100
AcDbArc
 50
105.3086101203
 51
107.249445253
  0
ARC
  5
B8
330
1F
100
AcDbEntity
  8
0
  6
CONTINUOUS
 62
     7
100
AcDbCircle
 10
390.9486710318
 20
604.912660251
 30
0.0
 40
193.9452084607528
100
AcDbArc
 50
285.6684549769
 51
286.0014625265
  0
SPLINE
  5
B9
330
1F
100
AcDbEntity
  8
0
  6
CONTINUOUS
 62
     7
100
AcDbSpline
210
0.0
220
0.0
230
1.0
 70
     8
 71
     3
 72
    16
 73
    12
 74
     0
 42
0.00000001
 43
0.00000001
 40
0.0
 40
0.0
 40
0.0
 40
0.0
 40
0.2840967525229743
 40
0.5373225824463338
 40
0.768029224208512
 40
0.8791026006777874
 40
0.9349058669694567
 40
0.964167506118393
 40
0.9811444465505573
 40
0.9910689576352066
 40
0.9999999999999999
 40
0.9999999999999999
 40
0.9999999999999999
 40
0.9999999999999999
 10
482.5333765591855
 20
422.1785900530572
 30
0.0
 10
482.8658800922678
 20
422.3263066767982
 30
0.0
 10
483.4947561898709
 20
422.6056885318665
 30
0.0
 10
484.1932828292908
 20
423.3157477142267
 30
0.0
 10
484.5657628122729
 20
423.9838086898986
 30
0.0
 10
484.7068772546726
 20
424.4709187080584
 30
0.0
 10
484.7489130044557
 20
424.7167418777828
 30
0.0
 10
484.7628126674863
 20
424.8456765614636
 30
0.0
 10
484.7676056951098
 20
424.9168749523287
 30
0.0
 10
484.7694192697857
 20
424.9623663531142
 30
0.0
 10
484.7696388335204
 20
424.9863203050884
 30
0.0
 10
484.7697428311581
 20
424.9976662335153
 30
0.0
  0
SPLINE
  5
BA
330
1F
100
AcDbEntity
  8
0
  6
CONTINUOUS
 62
     7
100
AcDbSpline
210
0.0
220
0.0
230
1.0
 70
     8
 71
     3
 72
    11
 73
     7
 74
     0
 42
0.00000001
 43
0.00000001
 40
0.0
 40
0.0
 40
0.0
 40
0.0
 40
0.0258796834901612
 40
0.0545313885857299
 40
0.6553692364259543
 40
1.0
 40
1.0
 40
1.0
 40
1.0
 10
484.7789219464535
 20
424.9976662335153
 30
0.0
 10
484.7789187919561
 20
424.9862109253528
 30
0.0
 10
484.7789121450772
 20
424.962073309411
 30
0.0
 10
484.7793372321656
 20
424.6721878316514
 30
0.0
 10
484.7469883043348
 20
424.2279049222244
 30
0.0
 10
484.5515437552772
 20
423.855141147413
 30
0.0
 10
484.4803026761288
 20
423.7192658123727
 30
0.0
  0
LINE
  5
BB
330
1F
100
AcDbEntity
  8
0
  6
CONTINUOUS
 62
     7
100
AcDbLine
 10
482.2733810987
 20
422.089607769
 30
0.0
 11
482.5333765592
 21
422.1785900531
 31
0.0
  0
SPLINE
  5
BC
330
1F
100
AcDbEntity
  8
0
  6
CONTINUOUS
 62
     7
100
AcDbSpline
210
0.0
220
0.0
230
1.0
 70
     8
 71
     3
 72
    12
 73
     8
 74
     0
 42
0.00000001
 43
0.00000001
 40
0.0
 40
0.0
 40
0.0
 40
0.0
 40
0.512174735193384
 40
0.9535598913438702
 40
0.9783670269130939
 40
0.9895782781917754
 40
1.0
 40
1.0
 40
1.0
 40
1.0
 10
484.1870478238339
 20
429.8641023573633
 30
0.0
 10
484.338105611336
 20
429.7567713995473
 30
0.0
 10
484.6193429265323
 20
429.5569440956211
 30
0.0
 10
484.755486222591
 20
429.2102140473085
 30
0.0
 10
484.7689866643995
 20
429.0408492086437
 30
0.0
 10
484.7696901181766
 20
429.0243241998906
 30
0.0
 10
484.7697256929501
 20
429.0166215444898
 30
0.0
 10
484.7697428311581
 20
429.0129107770677
 30
0.0
  0
LINE
  5
BD
330
1F
100
AcDbEntity
  8
0
  6
CONTINUOUS
 62
     7
100
AcDbLine
 10
484.7697428312
 20
424.9976662335
 30
0.0
 11
484.7697428312
 21
429.0129107771
 31
0.0
  0
ARC
  5
BE
330
1F
100
AcDbEntity
  8
0
  6
CONTINUOUS
 62
     7
100
AcDbCircle
 10
533.9916005921
 20
247.0727599353
 30
0.0
 40
189.4549242984134
100
AcDbArc
 50
105.2412213443
 51
105.8419274257
  0
LINE
  5
BF
330
1F
100
AcDbEntity
  8
0
  6
CONTINUOUS
 62
     7
100
AcDbLine
 10
442.8010991658
 20
420.5129084525
 30
0.0
 11
436.8047526922
 21
420.5129084525
 31
0.0
  0
SPLINE
  5
C0
330
1F
100
AcDbEntity
  8
0
  6
CONTINUOUS
 62
     7
100
AcDbSpline
210
0.0
220
0.0
230
1.0
 70
     8
 71
     3
 72
    15
 73
    11
 74
     0
 42
0.00000001
 43
0.00000001
 40
0.0
 40
0.0
 40
0.0
 40
0.0
 40
0.0139371473639002
 40
0.0289162350999988
 40
0.0619906726028073
 40
0.1128501711403609
 40
0.1942982829069248
 40
0.3469922595612585
 40
0.6489181875539196
 40
1.0
 40
1.0
 40
1.0
 40
1.0
 10
484.7789219464535
 20
429.0129107770677
 30
0.0
 10
484.7789225252473
 20
429.0165317683799
 30
0.0
 10
484.7789237261054
 20
429.0240444561162
 30
0.0
 10
484.7789102767104
 20
429.0401499154051
 30
0.0
 10
484.7790528614931
 20
429.065850560924
 30
0.0
 10
484.7779553534223
 20
429.1088008022106
 30
0.0
 10
484.7732932002291
 20
429.1828251866255
 30
0.0
 10
484.7497294116854
 20
429.3196862360911
 30
0.0
 10
484.6840820736234
 20
429.5260829890669
 30
0.0
 10
484.5527949686971
 20
429.6389010186939
 30
0.0
 10
484.4822100247616
 20
429.6995562848802
 30
0.0
  0
SPLINE
  5
C1
330
1F
100
AcDbEntity
  8
0
  6
CONTINUOUS
 62
     7
100
AcDbSpline
210
0.0
220
0.0
230
1.0
 70
     8
 71
     3
 72
     9
 73
     5
 74
     0
 42
0.00000001
 43
0.00000001
 40
0.0
 40
0.0
 40
0.0
 40
0.0
 40
0.7642840824155736
 40
1.0
 40
1.0
 40
1.0
 40
1.0
 10
484.1870478238339
 20
429.8641023573633
 30
0.0
 10
484.2204448825944
 20
429.8707895097099
 30
0.0
 10
484.2641420621234
 20
429.879539073518
 30
0.0
 10
484.3065199658288
 20
429.868536202588
 30
0.0
 10
484.316509112286
 20
429.8659426507707
 30
0.0
  0
LINE
  5
C2
330
1F
100
AcDbEntity
  8
0
  6
CONTINUOUS
 62
     7
100
AcDbLine
 10
484.7789219465
 20
429.0129107771
 30
0.0
 11
484.7789219465
 21
424.9976662335
 31
0.0
  0
LINE
  5
C3
330
1F
100
AcDbEntity
  8
0
  6
CONTINUOUS
 62
     7
100
AcDbLine
 10
446.0529497709
 20
396.0129072306
 30
0.0
 11
433.5529616918
 21
396.0129072306
 31
0.0
  0
LINE
  5
C4
330
1F
100
AcDbEntity
  8
0
  6
CONTINUOUS
 62
     7
100
AcDbLine
 10
424.8029402341
 20
376.4129069981
 30
0.0
 11
454.8029712285
 21
376.4129069981
 31
0.0
  0
LINE
  5
C5
330
1F
100
AcDbEntity
  8
0
  6
CONTINUOUS
 62
     7
100
AcDbLine
 10
424.8029402341
 20
393.412907922
 30
0.0
 11
424.8029402341
 21
376.4129069981
 31
0.0
  0
LINE
  5
C6
330
1F
100
AcDbEntity
  8
0
  6
CONTINUOUS
 62
     7
100
AcDbLine
 10
454.8029712285
 20
393.412907922
 30
0.0
 11
424.8029402341
 21
393.412907922
 31
0.0
  0
LINE
  5
C7
330
1F
100
AcDbEntity
  8
0
  6
CONTINUOUS
 62
     7
100
AcDbLine
 10
454.8029712285
 20
393.412907922
 30
0.0
 11
454.8029712285
 21
376.4129069981
 31
0.0
  0
LINE
  5
C8
330
1F
100
AcDbEntity
  8
0
  6
CONTINUOUS
 62
     7
100
AcDbLine
 10
425.8029273595
 20
394.4129062233
 30
0.0
 11
453.8029244985
 21
394.4129062233
 31
0.0
  0
LINE
  5
C9
330
1F
100
AcDbEntity
  8
0
  6
CONTINUOUS
 62
     7
100
AcDbLine
 10
454.8029712285
 20
393.412907922
 30
0.0
 11
453.8029244985
 21
394.4129062233
 31
0.0
  0
LINE
  5
CA
330
1F
100
AcDbEntity
  8
0
  6
CONTINUOUS
 62
     7
100
AcDbLine
 10
424.8029402341
 20
393.412907922
 30
0.0
 11
425.8029273595
 21
394.4129062233
 31
0.0
  0
LINE
  5
CB
330
1F
100
AcDbEntity
  8
0
  6
CONTINUOUS
 62
     7
100
AcDbLine
 10
487.3029402341
 20
333.4129078661
 30
0.0
 11
487.3029402341
 21
254.4129056272
 31
0.0
  0
LINE
  5
CC
330
1F
100
AcDbEntity
  8
0
  6
CONTINUOUS
 62
     7
100
AcDbLine
 10
497.3029306974
 20
333.4129078661
 30
0.0
 11
497.3029306974
 21
254.4129056272
 31
0.0
  0
LINE
  5
CD
330
1F
100
AcDbEntity
  8
0
  6
CONTINUOUS
 62
     7
100
AcDbLine
 10
487.3029402341
 20
335.4129077283
 30
0.0
 11
497.3029306974
 21
335.4129077283
 31
0.0
  0
LINE
  5
CE
330
1F
100
AcDbEntity
  8
0
  6
CONTINUOUS
 62
     7
100
AcDbLine
 10
487.3029402341
 20
333.4129078661
 30
0.0
 11
487.3029402341
 21
335.4129077283
 31
0.0
  0
LINE
  5
CF
330
1F
100
AcDbEntity
  8
0
  6
CONTINUOUS
 62
     7
100
AcDbLine
 10
497.3029306974
 20
335.4129077283
 30
0.0
 11
497.3029306974
 21
333.4129078661
 31
0.0
  0
LINE
  5
D0
330
1F
100
AcDbEntity
  8
0
  6
CONTINUOUS
 62
     7
100
AcDbLine
 10
497.3029306974
 20
252.4129090247
 30
0.0
 11
487.3029402341
 21
252.4129090247
 31
0.0
  0
LINE
  5
D1
330
1F
100
AcDbEntity
  8
0
  6
CONTINUOUS
 62
     7
100
AcDbLine
 10
487.3029402341
 20
252.4129090247
 30
0.0
 11
487.3029402341
 21
254.4129056272
 31
0.0
  0
LINE
  5
D2
330
1F
100
AcDbEntity
  8
0
  6
CONTINUOUS
 62
     7
100
AcDbLine
 10
497.3029306974
 20
254.4129056272
 30
0.0
 11
497.3029306974
 21
252.4129090247
 31
0.0
  0
LINE
  5
D3
330
1F
100
AcDbEntity
  8
0
  6
CONTINUOUS
 62
     7
100
AcDbLine
 10
487.3029402341
 20
335.4129077283
 30
0.0
 11
487.3029402341
 21
337.4129078233
 31
0.0
  0
LINE
  5
D4
330
1F
100
AcDbEntity
  8
0
  6
CONTINUOUS
 62
     7
100
AcDbLine
 10
497.3029306974
 20
337.4129078233
 30
0.0
 11
497.3029306974
 21
335.4129077283
 31
0.0
  0
LINE
  5
D5
330
1F
100
AcDbEntity
  8
0
  6
CONTINUOUS
 62
     7
100
AcDbLine
 10
487.3029402341
 20
402.4129075346
 30
0.0
 11
497.3029306974
 21
402.4129075346
 31
0.0
  0
LINE
  5
D6
330
1F
100
AcDbEntity
  8
0
  6
CONTINUOUS
 62
     7
100
AcDbLine
 10
487.3029402341
 20
400.4129072067
 30
0.0
 11
487.3029402341
 21
402.4129075346
 31
0.0
  0
LINE
  5
D7
330
1F
100
AcDbEntity
  8
0
  6
CONTINUOUS
 62
     7
100
AcDbLine
 10
497.3029306974
 20
402.4129075346
 30
0.0
 11
497.3029306974
 21
400.4129072067
 31
0.0
  0
LINE
  5
D8
330
1F
100
AcDbEntity
  8
0
  6
CONTINUOUS
 62
     7
100
AcDbLine
 10
487.3029402341
 20
400.4129072067
 30
0.0
 11
487.3029402341
 21
337.4129078233
 31
0.0
  0
LINE
  5
D9
330
1F
100
AcDbEntity
  8
0
  6
CONTINUOUS
 62
     7
100
AcDbLine
 10
497.3029306974
 20
400.4129072067
 30
0.0
 11
497.3029306974
 21
337.4129078233
 31
0.0
  0
ARC
  5
DA
330
1F
100
AcDbEntity
  8
0
  6
CONTINUOUS
 62
     7
100
AcDbCircle
 10
409.8020486674
 20
388.4133401645
 30
0.0
 40
11.99902397803338
100
AcDbArc
 50
136.8727963356
 51
152.2914409053
  0
ARC
  5
DB
330
1F
100
AcDbEntity
  8
0
  6
CONTINUOUS
 62
     7
100
AcDbCircle
 10
469.7985434242
 20
388.4097988517
 30
0.0
 40
12.00532721560225
100
AcDbArc
 50
27.7118500097
 51
43.1221836956
  0
ARC
  5
DC
330
1F
100
AcDbEntity
  8
0
  6
CONTINUOUS
 62
     7
100
AcDbCircle
 10
409.8057688742
 20
326.4151166518
 30
0.0
 40
12.00354499159497
100
AcDbArc
 50
207.7114575057
 51
223.1242668292
  0
ARC
  5
DD
330
1F
100
AcDbEntity
  8
0
  6
CONTINUOUS
 62
     7
100
AcDbCircle
 10
469.8050926208
 20
326.4113552062
 30
0.0
 40
11.9973608543578
100
AcDbArc
 50
316.8726844559
 51
332.2933202626
  0
ARC
  5
DE
330
1F
100
AcDbEntity
  8
0
  6
CONTINUOUS
 62
     7
100
AcDbCircle
 10
469.8029720564
 20
388.4129071024
 30
0.0
 40
3.500009783960697
100
AcDbArc
 50
105.5799110862
 51
254.4200889138
  0
ARC
  5
DF
330
1F
100
AcDbEntity
  8
0
  6
CONTINUOUS
 62
     7
100
AcDbCircle
 10
409.8029696722
 20
388.4129071024
 30
0.0
 40
3.500009783960697
100
AcDbArc
 50
105.5799110862
 51
254.4200889138
  0
LINE
  5
E0
330
1F
100
AcDbEntity
  8
0
  6
CONTINUOUS
 62
     7
100
AcDbLine
 10
410.582404479
 20
395.4684597788
 30
0.0
 11
409.0235045995
 21
395.4684597788
 31
0.0
  0
LINE
  5
E1
330
1F
100
AcDbEntity
  8
0
  6
CONTINUOUS
 62
     7
100
AcDbLine
 10
409.0235045995
 20
395.4684597788
 30
0.0
 11
409.3699267949
 21
395.6684631643
 31
0.0
  0
LINE
  5
E2
330
1F
100
AcDbEntity
  8
0
  6
CONTINUOUS
 62
     7
100
AcDbLine
 10
409.3699267949
 20
395.6684631643
 30
0.0
 11
410.2359822835
 21
395.6684631643
 31
0.0
  0
LINE
  5
E3
330
1F
100
AcDbEntity
  8
0
  6
CONTINUOUS
 62
     7
100
AcDbLine
 10
410.2359822835
 20
395.6684631643
 30
0.0
 11
410.582404479
 21
395.4684597788
 31
0.0
  0
LINE
  5
E4
330
1F
100
AcDbEntity
  8
0
  6
CONTINUOUS
 62
     7
100
AcDbLine
 10
415.5235103215
 20
392.6156846223
 30
0.0
 11
410.582404479
 21
395.4684597788
 31
0.0
  0
LINE
  5
E5
330
1F
100
AcDbEntity
  8
0
  6
CONTINUOUS
 62
     7
100
AcDbLine
 10
416.3029602613
 20
391.2656841216
 30
0.0
 11
415.5235103215
 21
392.6156846223
 31
0.0
  0
LINE
  5
E6
330
1F
100
AcDbEntity
  8
0
  6
CONTINUOUS
 62
     7
100
AcDbLine
 10
416.3029602613
 20
385.5601300833
 30
0.0
 11
416.3029602613
 21
391.2656841216
 31
0.0
  0
LINE
  5
E7
330
1F
100
AcDbEntity
  8
0
  6
CONTINUOUS
 62
     7
100
AcDbLine
 10
415.5235103215
 20
384.2101295826
 30
0.0
 11
416.3029602613
 21
385.5601300833
 31
0.0
  0
LINE
  5
E8
330
1F
100
AcDbEntity
  8
0
  6
CONTINUOUS
 62
     7
100
AcDbLine
 10
410.582404479
 20
381.3573544261
 30
0.0
 11
415.5235103215
 21
384.2101295826
 31
0.0
  0
LINE
  5
E9
330
1F
100
AcDbEntity
  8
0
  6
CONTINUOUS
 62
     7
100
AcDbLine
 10
409.0235045995
 20
381.3573544261
 30
0.0
 11
410.582404479
 21
381.3573544261
 31
0.0
  0
LINE
  5
EA
330
1F
100
AcDbEntity
  8
0
  6
CONTINUOUS
 62
     7
100
AcDbLine
 10
404.0823987569
 20
384.2101295826
 30
0.0
 11
409.0235045995
 21
381.3573544261
 31
0.0
  0
LINE
  5
EB
330
1F
100
AcDbEntity
  8
0
  6
CONTINUOUS
 62
     7
100
AcDbLine
 10
403.3029488172
 20
385.5601300833
 30
0.0
 11
404.0823987569
 21
384.2101295826
 31
0.0
  0
LINE
  5
EC
330
1F
100
AcDbEntity
  8
0
  6
CONTINUOUS
 62
     7
100
AcDbLine
 10
403.3029488172
 20
391.2656841216
 30
0.0
 11
403.3029488172
 21
385.5601300833
 31
0.0
  0
LINE
  5
ED
330
1F
100
AcDbEntity
  8
0
  6
CONTINUOUS
 62
     7
100
AcDbLine
 10
404.0823987569
 20
392.6156846223
 30
0.0
 11
403.3029488172
 21
391.2656841216
 31
0.0
  0
LINE
  5
EE
330
1F
100
AcDbEntity
  8
0
  6
CONTINUOUS
 62
     7
100
AcDbLine
 10
409.0235045995
 20
395.4684597788
 30
0.0
 11
404.0823987569
 21
392.6156846223
 31
0.0
  0
CIRCLE
  5
EF
330
1F
100
AcDbEntity
  8
0
  6
CONTINUOUS
 62
     7
100
AcDbCircle
 10
409.3029480537
 20
388.412927819
 30
0.0
 40
4.024999051589258
  0
LINE
  5
F0
330
1F
100
AcDbEntity
  8
0
  6
CONTINUOUS
 62
     7
100
AcDbLine
 10
415.869932517
 20
392.415684962
 30
0.0
 11
416.3029602613
 21
391.6656834421
 31
0.0
  0
LINE
  5
F1
330
1F
100
AcDbEntity
  8
0
  6
CONTINUOUS
 62
     7
100
AcDbLine
 10
416.3029602613
 20
391.6656834421
 30
0.0
 11
416.3029602613
 21
391.2656841216
 31
0.0
  0
LINE
  5
F2
330
1F
100
AcDbEntity
  8
0
  6
CONTINUOUS
 62
     7
100
AcDbLine
 10
415.5235103215
 20
392.6156846223
 30
0.0
 11
415.869932517
 21
392.415684962
 31
0.0
  0
LINE
  5
F3
330
1F
100
AcDbEntity
  8
0
  6
CONTINUOUS
 62
     7
100
AcDbLine
 10
416.3029602613
 20
385.5601300833
 30
0.0
 11
416.3029602613
 21
385.1601307628
 31
0.0
  0
LINE
  5
F4
330
1F
100
AcDbEntity
  8
0
  6
CONTINUOUS
 62
     7
100
AcDbLine
 10
416.3029602613
 20
385.1601307628
 30
0.0
 11
415.869932517
 21
384.4101329682
 31
0.0
  0
LINE
  5
F5
330
1F
100
AcDbEntity
  8
0
  6
CONTINUOUS
 62
     7
100
AcDbLine
 10
415.869932517
 20
384.4101329682
 30
0.0
 11
415.5235103215
 21
384.2101295826
 31
0.0
  0
CIRCLE
  5
F6
330
1F
100
AcDbEntity
  8
0
  6
CONTINUOUS
 62
     7
100
AcDbCircle
 10
409.3029709205
 20
388.4129038551
 30
0.0
 40
3.399993577347684
  0
LINE
  5
F7
330
1F
100
AcDbEntity
  8
0
  6
CONTINUOUS
 62
     7
100
AcDbLine
 10
403.3029488172
 20
391.2656841216
 30
0.0
 11
403.3029488172
 21
391.6656834421
 31
0.0
  0
LINE
  5
F8
330
1F
100
AcDbEntity
  8
0
  6
CONTINUOUS
 62
     7
100
AcDbLine
 10
403.3029488172
 20
391.6656834421
 30
0.0
 11
403.7359765615
 21
392.415684962
 31
0.0
  0
LINE
  5
F9
330
1F
100
AcDbEntity
  8
0
  6
CONTINUOUS
 62
     7
100
AcDbLine
 10
403.7359765615
 20
392.415684962
 30
0.0
 11
404.0823987569
 21
392.6156846223
 31
0.0
  0
LINE
  5
FA
330
1F
100
AcDbEntity
  8
0
  6
CONTINUOUS
 62
     7
100
AcDbLine
 10
404.0823987569
 20
384.2101295826
 30
0.0
 11
403.7359765615
 21
384.4101329682
 31
0.0
  0
LINE
  5
FB
330
1F
100
AcDbEntity
  8
0
  6
CONTINUOUS
 62
     7
100
AcDbLine
 10
403.7359765615
 20
384.4101329682
 30
0.0
 11
403.3029488172
 21
385.1601307628
 31
0.0
  0
LINE
  5
FC
330
1F
100
AcDbEntity
  8
0
  6
CONTINUOUS
 62
     7
100
AcDbLine
 10
403.3029488172
 20
385.1601307628
 30
0.0
 11
403.3029488172
 21
385.5601300833
 31
0.0
  0
LINE
  5
FD
330
1F
100
AcDbEntity
  8
0
  6
CONTINUOUS
 62
     7
100
AcDbLine
 10
410.2359822835
 20
381.1573547659
 30
0.0
 11
409.3699267949
 21
381.1573547659
 31
0.0
  0
LINE
  5
FE
330
1F
100
AcDbEntity
  8
0
  6
CONTINUOUS
 62
     7
100
AcDbLine
 10
409.3699267949
 20
381.1573547659
 30
0.0
 11
409.0235045995
 21
381.3573544261
 31
0.0
  0
LINE
  5
FF
330
1F
100
AcDbEntity
  8
0
  6
CONTINUOUS
 62
     7
100
AcDbLine
 10
410.582404479
 20
381.3573544261
 30
0.0
 11
410.2359822835
 21
381.1573547659
 31
0.0
  0
LINE
  5
100
330
1F
100
AcDbEntity
  8
0
  6
CONTINUOUS
 62
     7
100
AcDbLine
 10
470.5824068631
 20
395.4684597788
 30
0.0
 11
469.0235069837
 21
395.4684597788
 31
0.0
  0
LINE
  5
101
330
1F
100
AcDbEntity
  8
0
  6
CONTINUOUS
 62
     7
100
AcDbLine
 10
469.0235069837
 20
395.4684597788
 30
0.0
 11
469.3699291791
 21
395.6684631643
 31
0.0
  0
LINE
  5
102
330
1F
100
AcDbEntity
  8
0
  6
CONTINUOUS
 62
     7
100
AcDbLine
 10
469.3699291791
 20
395.6684631643
 30
0.0
 11
470.2359846677
 21
395.6684631643
 31
0.0
  0
LINE
  5
103
330
1F
100
AcDbEntity
  8
0
  6
CONTINUOUS
 62
     7
100
AcDbLine
 10
470.2359846677
 20
395.6684631643
 30
0.0
 11
470.5824068631
 21
395.4684597788
 31
0.0
  0
LINE
  5
104
330
1F
100
AcDbEntity
  8
0
  6
CONTINUOUS
 62
     7
100
AcDbLine
 10
476.3029030408
 20
391.2656841216
 30
0.0
 11
475.5235127057
 21
392.6156846223
 31
0.0
  0
LINE
  5
105
330
1F
100
AcDbEntity
  8
0
  6
CONTINUOUS
 62
     7
100
AcDbLine
 10
476.3029030408
 20
385.5601300833
 30
0.0
 11
476.3029030408
 21
391.2656841216
 31
0.0
  0
LINE
  5
106
330
1F
100
AcDbEntity
  8
0
  6
CONTINUOUS
 62
     7
100
AcDbLine
 10
475.5235127057
 20
384.2101295826
 30
0.0
 11
476.3029030408
 21
385.5601300833
 31
0.0
  0
LINE
  5
107
330
1F
100
AcDbEntity
  8
0
  6
CONTINUOUS
 62
     7
100
AcDbLine
 10
470.5824068631
 20
381.3573544261
 30
0.0
 11
475.5235127057
 21
384.2101295826
 31
0.0
  0
LINE
  5
108
330
1F
100
AcDbEntity
  8
0
  6
CONTINUOUS
 62
     7
100
AcDbLine
 10
469.0235069837
 20
381.3573544261
 30
0.0
 11
470.5824068631
 21
381.3573544261
 31
0.0
  0
LINE
  5
109
330
1F
100
AcDbEntity
  8
0
  6
CONTINUOUS
 62
     7
100
AcDbLine
 10
464.0824011411
 20
384.2101295826
 30
0.0
 11
469.0235069837
 21
381.3573544261
 31
0.0
  0
LINE
  5
10A
330
1F
100
AcDbEntity
  8
0
  6
CONTINUOUS
 62
     7
100
AcDbLine
 10
463.3029512014
 20
385.5601300833
 30
0.0
 11
464.0824011411
 21
384.2101295826
 31
0.0
  0
LINE
  5
10B
330
1F
100
AcDbEntity
  8
0
  6
CONTINUOUS
 62
     7
100
AcDbLine
 10
463.3029512014
 20
391.2656841216
 30
0.0
 11
463.3029512014
 21
385.5601300833
 31
0.0
  0
LINE
  5
10C
330
1F
100
AcDbEntity
  8
0
  6
CONTINUOUS
 62
     7
100
AcDbLine
 10
464.0824011411
 20
392.6156846223
 30
0.0
 11
463.3029512014
 21
391.2656841216
 31
0.0
  0
LINE
  5
10D
330
1F
100
AcDbEntity
  8
0
  6
CONTINUOUS
 62
     7
100
AcDbLine
 10
469.0235069837
 20
395.4684597788
 30
0.0
 11
464.0824011411
 21
392.6156846223
 31
0.0
  0
CIRCLE
  5
10E
330
1F
100
AcDbEntity
  8
0
  6
CONTINUOUS
 62
     7
100
AcDbCircle
 10
469.3029546635
 20
388.4128648837
 30
0.0
 40
4.025021640127958
  0
LINE
  5
10F
330
1F
100
AcDbEntity
  8
0
  6
CONTINUOUS
 62
     7
100
AcDbLine
 10
475.5235127057
 20
392.6156846223
 30
0.0
 11
470.5824068631
 21
395.4684597788
 31
0.0
  0
LINE
  5
110
330
1F
100
AcDbEntity
  8
0
  6
CONTINUOUS
 62
     7
100
AcDbLine
 10
475.8699349012
 20
392.415684962
 30
0.0
 11
476.3029030408
 21
391.6656834421
 31
0.0
  0
LINE
  5
111
330
1F
100
AcDbEntity
  8
0
  6
CONTINUOUS
 62
     7
100
AcDbLine
 10
476.3029030408
 20
391.6656834421
 30
0.0
 11
476.3029030408
 21
391.2656841216
 31
0.0
  0
LINE
  5
112
330
1F
100
AcDbEntity
  8
0
  6
CONTINUOUS
 62
     7
100
AcDbLine
 10
475.5235127057
 20
392.6156846223
 30
0.0
 11
475.8699349012
 21
392.415684962
 31
0.0
  0
LINE
  5
113
330
1F
100
AcDbEntity
  8
0
  6
CONTINUOUS
 62
     7
100
AcDbLine
 10
476.3029030408
 20
385.5601300833
 30
0.0
 11
476.3029030408
 21
385.1601307628
 31
0.0
  0
LINE
  5
114
330
1F
100
AcDbEntity
  8
0
  6
CONTINUOUS
 62
     7
100
AcDbLine
 10
476.3029030408
 20
385.1601307628
 30
0.0
 11
475.8699349012
 21
384.4101329682
 31
0.0
  0
LINE
  5
115
330
1F
100
AcDbEntity
  8
0
  6
CONTINUOUS
 62
     7
100
AcDbLine
 10
475.8699349012
 20
384.4101329682
 30
0.0
 11
475.5235127057
 21
384.2101295826
 31
0.0
  0
LINE
  5
116
330
1F
100
AcDbEntity
  8
0
  6
CONTINUOUS
 62
     7
100
AcDbLine
 10
463.3029512014
 20
391.2656841216
 30
0.0
 11
463.3029512014
 21
391.6656834421
 31
0.0
  0
LINE
  5
117
330
1F
100
AcDbEntity
  8
0
  6
CONTINUOUS
 62
     7
100
AcDbLine
 10
463.3029512014
 20
391.6656834421
 30
0.0
 11
463.7359789457
 21
392.415684962
 31
0.0
  0
LINE
  5
118
330
1F
100
AcDbEntity
  8
0
  6
CONTINUOUS
 62
     7
100
AcDbLine
 10
463.7359789457
 20
392.415684962
 30
0.0
 11
464.0824011411
 21
392.6156846223
 31
0.0
  0
CIRCLE
  5
119
330
1F
100
AcDbEntity
  8
0
  6
CONTINUOUS
 62
     7
100
AcDbCircle
 10
469.3029733047
 20
388.4129038551
 30
0.0
 40
3.399993577347684
  0
LINE
  5
11A
330
1F
100
AcDbEntity
  8
0
  6
CONTINUOUS
 62
     7
100
AcDbLine
 10
464.0824011411
 20
384.2101295826
 30
0.0
 11
463.7359789457
 21
384.4101329682
 31
0.0
  0
LINE
  5
11B
330
1F
100
AcDbEntity
  8
0
  6
CONTINUOUS
 62
     7
100
AcDbLine
 10
463.7359789457
 20
384.4101329682
 30
0.0
 11
463.3029512014
 21
385.1601307628
 31
0.0
  0
LINE
  5
11C
330
1F
100
AcDbEntity
  8
0
  6
CONTINUOUS
 62
     7
100
AcDbLine
 10
463.3029512014
 20
385.1601307628
 30
0.0
 11
463.3029512014
 21
385.5601300833
 31
0.0
  0
LINE
  5
11D
330
1F
100
AcDbEntity
  8
0
  6
CONTINUOUS
 62
     7
100
AcDbLine
 10
470.2359846677
 20
381.1573547659
 30
0.0
 11
469.3699291791
 21
381.1573547659
 31
0.0
  0
LINE
  5
11E
330
1F
100
AcDbEntity
  8
0
  6
CONTINUOUS
 62
     7
100
AcDbLine
 10
469.3699291791
 20
381.1573547659
 30
0.0
 11
469.0235069837
 21
381.3573544261
 31
0.0
  0
LINE
  5
11F
330
1F
100
AcDbEntity
  8
0
  6
CONTINUOUS
 62
     7
100
AcDbLine
 10
470.5824068631
 20
381.3573544261
 30
0.0
 11
470.2359846677
 21
381.1573547659
 31
0.0
  0
CIRCLE
  5
120
330
1F
100
AcDbEntity
  8
0
  6
CONTINUOUS
 62
     7
100
AcDbCircle
 10
409.8029440766
 20
326.4128912522
 30
0.0
 40
3.399995329156177
  0
CIRCLE
  5
121
330
1F
100
AcDbEntity
  8
0
  6
CONTINUOUS
 62
     7
100
AcDbCircle
 10
398.5529626109
 20
357.4129003085
 30
0.0
 40
3.000012422814844
  0
CIRCLE
  5
122
330
1F
100
AcDbEntity
  8
0
  6
CONTINUOUS
 62
     7
100
AcDbCircle
 10
398.5529623308
 20
318.4129005968
 30
0.0
 40
3.000012422817103
  0
CIRCLE
  5
123
330
1F
100
AcDbEntity
  8
0
  6
CONTINUOUS
 62
     7
100
AcDbCircle
 10
439.8029631443
 20
318.4129290341
 30
0.0
 40
3.000012422883046
  0
CIRCLE
  5
124
330
1F
100
AcDbEntity
  8
0
  6
CONTINUOUS
 62
     7
100
AcDbCircle
 10
481.0529089041
 20
318.4128880936
 30
0.0
 40
2.999984417864191
  0
CIRCLE
  5
125
330
1F
100
AcDbEntity
  8
0
  6
CONTINUOUS
 62
     7
100
AcDbCircle
 10
481.0529091842
 20
357.4128878052
 30
0.0
 40
2.999984417858342
  0
CIRCLE
  5
126
330
1F
100
AcDbEntity
  8
0
  6
CONTINUOUS
 62
     7
100
AcDbCircle
 10
481.0529100245
 20
396.412889056
 30
0.0
 40
2.999984417842073
  0
CIRCLE
  5
127
330
1F
100
AcDbEntity
  8
0
  6
CONTINUOUS
 62
     7
100
AcDbCircle
 10
398.5529634512
 20
396.4129015593
 30
0.0
 40
3.000012422809474
  0
CIRCLE
  5
128
330
1F
100
AcDbEntity
  8
0
  6
CONTINUOUS
 62
     7
100
AcDbCircle
 10
469.8029375766
 20
326.4129115059
 30
0.0
 40
3.39999350273748
  0
CIRCLE
  5
129
330
1F
100
AcDbEntity
  8
0
  6
CONTINUOUS
 62
     7
100
AcDbCircle
 10
409.8029481856
 20
388.4129229056
 30
0.0
 40
9.999985819011703
  0
CIRCLE
  5
12A
330
1F
100
AcDbEntity
  8
0
  6
CONTINUOUS
 62
     7
100
AcDbCircle
 10
469.8029850258
 20
388.4129051423
 30
0.0
 40
10.00001387484723
  0
ARC
  5
12B
330
1F
100
AcDbEntity
  8
0
  6
CONTINUOUS
 62
     7
100
AcDbCircle
 10
482.3029834468
 20
397.4128799668
 30
0.0
 40
4.000029266653716
100
AcDbArc
 50
0.0004098168
 51
90.0005506704
  0
LINE
  5
12C
330
1F
100
AcDbEntity
  8
0
  6
CONTINUOUS
 62
     7
100
AcDbLine
 10
486.3030127134
 20
317.4129085032
 30
0.0
 11
486.3030127134
 21
397.4129085777
 31
0.0
  0
ARC
  5
12D
330
1F
100
AcDbEntity
  8
0
  6
CONTINUOUS
 62
     7
100
AcDbCircle
 10
482.3029866265
 20
317.4129339342
 30
0.0
 40
4.000026086928255
100
AcDbArc
 50
269.9994037836
 51
359.9996357293
  0
LINE
  5
12E
330
1F
100
AcDbEntity
  8
0
  6
CONTINUOUS
 62
     7
100
AcDbLine
 10
397.3029664602
 20
313.4129078475
 30
0.0
 11
482.3029450025
 21
313.4129078475
 31
0.0
  0
ARC
  5
12F
330
1F
100
AcDbEntity
  8
0
  6
CONTINUOUS
 62
     7
100
AcDbCircle
 10
397.3029844405
 20
317.4129339341
 30
0.0
 40
4.000026086627538
100
AcDbArc
 50
180.000364269
 51
269.9997424526
  0
LINE
  5
130
330
1F
100
AcDbEntity
  8
0
  6
CONTINUOUS
 62
     7
100
AcDbLine
 10
393.3029583539
 20
397.4129085777
 30
0.0
 11
393.3029583539
 21
317.4129085032
 31
0.0
  0
ARC
  5
131
330
1F
100
AcDbEntity
  8
0
  6
CONTINUOUS
 62
     7
100
AcDbCircle
 10
397.3029876203
 20
397.4128799669
 30
0.0
 40
4.000029266433819
100
AcDbArc
 50
90.0003030939
 51
179.9995901845
  0
LINE
  5
132
330
1F
100
AcDbEntity
  8
0
  6
CONTINUOUS
 62
     7
100
AcDbLine
 10
418.6618736829
 20
401.4129092333
 30
0.0
 11
397.3029664602
 21
401.4129092333
 31
0.0
  0
ARC
  5
133
330
1F
100
AcDbEntity
  8
0
  6
CONTINUOUS
 62
     7
100
AcDbCircle
 10
414.3030000863
 20
392.4129231934
 30
0.0
 40
9.999976387415101
100
AcDbArc
 50
359.999922234
 51
64.1581630768
  0
LINE
  5
134
330
1F
100
AcDbEntity
  8
0
  6
CONTINUOUS
 62
     7
100
AcDbLine
 10
424.3029764737
 20
392.4129096207
 30
0.0
 11
424.3029764737
 21
384.4129083094
 31
0.0
  0
ARC
  5
135
330
1F
100
AcDbEntity
  8
0
  6
CONTINUOUS
 62
     7
100
AcDbCircle
 10
424.3029779477
 20
381.4129117612
 30
0.0
 40
2.999996548225989
100
AcDbArc
 50
90.0000281503
 51
279.5933488767
  0
ARC
  5
136
330
1F
100
AcDbEntity
  8
0
  6
CONTINUOUS
 62
     7
100
AcDbCircle
 10
455.302933515
 20
381.4129117612
 30
0.0
 40
2.99999654822598
100
AcDbArc
 50
260.4066511234
 51
89.9999718497
  0
LINE
  5
137
330
1F
100
AcDbEntity
  8
0
  6
CONTINUOUS
 62
     7
100
AcDbLine
 10
455.3029349889
 20
392.4129096207
 30
0.0
 11
455.3029349889
 21
384.4129083094
 31
0.0
  0
ARC
  5
138
330
1F
100
AcDbEntity
  8
0
  6
CONTINUOUS
 62
     7
100
AcDbCircle
 10
465.3029113763
 20
392.4129231934
 30
0.0
 40
9.999976387415026
100
AcDbArc
 50
115.8418369232
 51
180.000077766
  0
LINE
  5
139
330
1F
100
AcDbEntity
  8
0
  6
CONTINUOUS
 62
     7
100
AcDbLine
 10
482.3029450025
 20
401.4129092333
 30
0.0
 11
460.9440377797
 21
401.4129092333
 31
0.0
  0
CIRCLE
  5
13A
330
1F
100
AcDbEntity
  8
0
  6
CONTINUOUS
 62
     7
100
AcDbCircle
 10
409.8029542518
 20
388.41290752
 30
0.0
 40
9.49999754846814
  0
CIRCLE
  5
13B
330
1F
100
AcDbEntity
  8
0
  6
CONTINUOUS
 62
     7
100
AcDbCircle
 10
469.8029543674
 20
388.412896115
 30
0.0
 40
9.49999754847708
  0
LINE
  5
13C
330
1F
100
AcDbEntity
  8
0
  6
CONTINUOUS
 62
     7
100
AcDbLine
 10
392.3029712285
 20
317.4129085032
 30
0.0
 11
392.3029712285
 21
397.4129085777
 31
0.0
  0
CIRCLE
  5
13D
330
1F
100
AcDbEntity
  8
0
  6
CONTINUOUS
 62
     7
100
AcDbCircle
 10
398.5529633779
 20
396.4129038505
 30
0.0
 40
2.500010116162331
  0
ARC
  5
13E
330
1F
100
AcDbEntity
  8
0
  6
CONTINUOUS
 62
     7
100
AcDbCircle
 10
465.3029949835
 20
392.412638296
 30
0.0
 40
10.00026923881123
100
AcDbArc
 50
90.0003983743
 51
115.8415565425
  0
LINE
  5
13F
330
1F
100
AcDbEntity
  8
0
  6
CONTINUOUS
 62
     7
100
AcDbLine
 10
465.3029254522
 20
402.4129075346
 30
0.0
 11
482.3029450025
 21
402.4129075346
 31
0.0
  0
ARC
  5
140
330
1F
100
AcDbEntity
  8
0
  6
CONTINUOUS
 62
     7
100
AcDbCircle
 10
397.3029060605
 20
397.4129727026
 30
0.0
 40
4.999934832375118
100
AcDbArc
 50
89.9993078618
 51
180.0007348269
  0
LINE
  5
141
330
1F
100
AcDbEntity
  8
0
  6
CONTINUOUS
 62
     7
100
AcDbLine
 10
397.3029664602
 20
402.4129075346
 30
0.0
 11
414.3029264058
 21
402.4129075346
 31
0.0
  0
ARC
  5
142
330
1F
100
AcDbEntity
  8
0
  6
CONTINUOUS
 62
     7
100
AcDbCircle
 10
414.3029164805
 20
392.4126382993
 30
0.0
 40
10.00026923523546
100
AcDbArc
 50
64.158443456
 51
89.9999431335
  0
ARC
  5
143
330
1F
100
AcDbEntity
  8
0
  6
CONTINUOUS
 62
     7
100
AcDbCircle
 10
482.302903651
 20
397.4128709515
 30
0.0
 40
5.000036583238088
100
AcDbArc
 50
0.0004311607
 51
89.9995261505
  0
CIRCLE
  5
144
330
1F
100
AcDbEntity
  8
0
  6
CONTINUOUS
 62
     7
100
AcDbCircle
 10
481.0529170586
 20
396.4129100225
 30
0.0
 40
2.499982582409231
  0
CIRCLE
  5
145
330
1F
100
AcDbEntity
  8
0
  6
CONTINUOUS
 62
     7
100
AcDbCircle
 10
481.0529177172
 20
357.4129108077
 30
0.0
 40
2.499982582410973
  0
CIRCLE
  5
146
330
1F
100
AcDbEntity
  8
0
  6
CONTINUOUS
 62
     7
100
AcDbCircle
 10
398.5529640365
 20
357.4129046357
 30
0.0
 40
2.500010116159506
  0
CIRCLE
  5
147
330
1F
100
AcDbEntity
  8
0
  6
CONTINUOUS
 62
     7
100
AcDbCircle
 10
398.5529633779
 20
318.4129041039
 30
0.0
 40
2.500010116162331
  0
ARC
  5
148
330
1F
100
AcDbEntity
  8
0
  6
CONTINUOUS
 62
     7
100
AcDbCircle
 10
397.3029028809
 20
317.412839336
 30
0.0
 40
4.999931652841009
100
AcDbArc
 50
179.9992073923
 51
270.0007285747
  0
ARC
  5
149
330
1F
100
AcDbEntity
  8
0
  6
CONTINUOUS
 62
     7
100
AcDbCircle
 10
482.3029068308
 20
317.4129410868
 30
0.0
 40
5.000033403391555
100
AcDbArc
 50
270.000437412
 51
359.999626621
  0
LINE
  5
14A
330
1F
100
AcDbEntity
  8
0
  6
CONTINUOUS
 62
     7
100
AcDbLine
 10
482.3029450025
 20
312.4129076836
 30
0.0
 11
397.3029664602
 21
312.4129076836
 31
0.0
  0
CIRCLE
  5
14B
330
1F
100
AcDbEntity
  8
0
  6
CONTINUOUS
 62
     7
100
AcDbCircle
 10
439.8029625701
 20
318.4129251775
 30
0.0
 40
2.500010116221359
  0
CIRCLE
  5
14C
330
1F
100
AcDbEntity
  8
0
  6
CONTINUOUS
 62
     7
100
AcDbCircle
 10
481.0529170586
 20
318.4129102759
 30
0.0
 40
2.499982582409231
  0
LINE
  5
14D
330
1F
100
AcDbEntity
  8
0
  6
CONTINUOUS
 62
     7
100
AcDbLine
 10
716.8845347013
 20
375.1629081902
 30
0.0
 11
716.8845347013
 21
377.9129063127
 31
0.0
  0
LINE
  5
14E
330
1F
100
AcDbEntity
  8
0
  6
CONTINUOUS
 62
     7
100
AcDbLine
 10
716.8845347013
 20
336.9129079742
 30
0.0
 11
716.8845347013
 21
339.6629078428
 31
0.0
  0
LINE
  5
14F
330
1F
100
AcDbEntity
  8
0
  6
CONTINUOUS
 62
     7
100
AcDbLine
 10
716.8845347013
 20
364.1629082498
 30
0.0
 11
716.8845347013
 21
368.017553666
 31
0.0
  0
LINE
  5
150
330
1F
100
AcDbEntity
  8
0
  6
CONTINUOUS
 62
     7
100
AcDbLine
 10
716.8845347013
 20
364.1629082498
 30
0.0
 11
497.3029306974
 21
364.1629082498
 31
0.0
  0
LINE
  5
151
330
1F
100
AcDbEntity
  8
0
  6
CONTINUOUS
 62
     7
100
AcDbLine
 10
392.3029712285
 20
364.1629082498
 30
0.0
 11
367.3294595327
 21
364.1629082498
 31
0.0
  0
LINE
  5
152
330
1F
100
AcDbEntity
  8
0
  6
CONTINUOUS
 62
     7
100
AcDbLine
 10
668.407481059
 20
357.8129087922
 30
0.0
 11
505.3615978803
 21
357.8129087922
 31
0.0
  0
ARC
  5
153
330
1F
100
AcDbEntity
  8
0
  6
CONTINUOUS
 62
     7
100
AcDbCircle
 10
501.8845609273
 20
357.412932838
 30
0.0
 40
3.499966676451327
100
AcDbArc
 50
6.5620943899
 51
173.4379056101
  0
LINE
  5
154
330
1F
100
AcDbEntity
  8
0
  6
CONTINUOUS
 62
     7
100
AcDbLine
 10
498.4075239743
 20
357.8129087922
 30
0.0
 11
497.3029306974
 21
357.8129087922
 31
0.0
  0
LINE
  5
155
330
1F
100
AcDbEntity
  8
0
  6
CONTINUOUS
 62
     7
100
AcDbLine
 10
483.5207871045
 20
357.8129087922
 30
0.0
 11
478.5851648893
 21
357.8129087922
 31
0.0
  0
LINE
  5
156
330
1F
100
AcDbEntity
  8
0
  6
CONTINUOUS
 62
     7
100
AcDbLine
 10
401.0207465734
 20
357.8129087922
 30
0.0
 11
396.0851839627
 21
357.8129087922
 31
0.0
  0
LINE
  5
157
330
1F
100
AcDbEntity
  8
0
  6
CONTINUOUS
 62
     7
100
AcDbLine
 10
392.3029712285
 20
357.8129087922
 30
0.0
 11
370.0244239415
 21
357.8129087922
 31
0.0
  0
LINE
  5
158
330
1F
100
AcDbEntity
  8
0
  6
CONTINUOUS
 62
     7
100
AcDbLine
 10
716.8845347013
 20
357.8129087922
 30
0.0
 11
716.8845347013
 21
364.1629082498
 31
0.0
  0
LINE
  5
159
330
1F
100
AcDbEntity
  8
0
  6
CONTINUOUS
 62
     7
100
AcDbLine
 10
716.8845347013
 20
357.8129087922
 30
0.0
 11
675.3615549649
 21
357.8129087922
 31
0.0
  0
ARC
  5
15A
330
1F
100
AcDbEntity
  8
0
  6
CONTINUOUS
 62
     7
100
AcDbCircle
 10
671.884518012
 20
357.4129548456
 30
0.0
 40
3.499964161494979
100
AcDbArc
 50
6.5617364775
 51
173.4382635225
  0
LINE
  5
15B
330
1F
100
AcDbEntity
  8
0
  6
CONTINUOUS
 62
     7
100
AcDbLine
 10
374.0562609281
 20
375.1629081902
 30
0.0
 11
392.3029712285
 21
375.1629081902
 31
0.0
  0
LINE
  5
15C
330
1F
100
AcDbEntity
  8
0
  6
CONTINUOUS
 62
     7
100
AcDbLine
 10
497.3029306974
 20
375.1629081902
 30
0.0
 11
716.8845347013
 21
375.1629081902
 31
0.0
  0
LINE
  5
15D
330
1F
100
AcDbEntity
  8
0
  6
CONTINUOUS
 62
     7
100
AcDbLine
 10
716.8845347013
 20
375.1629081902
 30
0.0
 11
716.8845347013
 21
374.1629061637
 31
0.0
  0
LINE
  5
15E
330
1F
100
AcDbEntity
  8
0
  6
CONTINUOUS
 62
     7
100
AcDbLine
 10
716.8845347013
 20
373.6629088757
 30
0.0
 11
716.8845347013
 21
374.1629061637
 31
0.0
  0
LINE
  5
15F
330
1F
100
AcDbEntity
  8
0
  6
CONTINUOUS
 62
     7
100
AcDbLine
 10
716.8845347013
 20
373.6629088757
 30
0.0
 11
497.3029306974
 21
373.6629088757
 31
0.0
  0
LINE
  5
160
330
1F
100
AcDbEntity
  8
0
  6
CONTINUOUS
 62
     7
100
AcDbLine
 10
392.3029712285
 20
373.6629088757
 30
0.0
 11
373.0191997136
 21
373.6629088757
 31
0.0
  0
LINE
  5
161
330
1F
100
AcDbEntity
  8
0
  6
CONTINUOUS
 62
     7
100
AcDbLine
 10
716.8845347013
 20
369.8918142704
 30
0.0
 11
716.8845347013
 21
373.6629088757
 31
0.0
  0
ARC
  5
162
330
1F
100
AcDbEntity
  8
0
  6
CONTINUOUS
 62
     7
100
AcDbCircle
 10
671.9093300234
 20
357.4138656794
 30
0.0
 40
3.475211137861741
100
AcDbArc
 50
2.3164477485
 51
6.5935645163
  0
LINE
  5
163
330
1F
100
AcDbEntity
  8
0
  6
CONTINUOUS
 62
     7
100
AcDbLine
 10
716.8845347013
 20
357.8129087922
 30
0.0
 11
716.8845347013
 21
357.554328942
 31
0.0
  0
LINE
  5
164
330
1F
100
AcDbEntity
  8
0
  6
CONTINUOUS
 62
     7
100
AcDbLine
 10
716.8845347013
 20
357.0129082886
 30
0.0
 11
675.3615549649
 21
357.0129082886
 31
0.0
  0
LINE
  5
165
330
1F
100
AcDbEntity
  8
0
  6
CONTINUOUS
 62
     7
100
AcDbLine
 10
716.8845347013
 20
350.6629078997
 30
0.0
 11
497.3029306974
 21
350.6629078997
 31
0.0
  0
LINE
  5
166
330
1F
100
AcDbEntity
  8
0
  6
CONTINUOUS
 62
     7
100
AcDbLine
 10
392.3029712285
 20
350.6629078997
 30
0.0
 11
373.0588964071
 21
350.6629078997
 31
0.0
  0
LINE
  5
167
330
1F
100
AcDbEntity
  8
0
  6
CONTINUOUS
 62
     7
100
AcDbLine
 10
498.4075239743
 20
357.0129082886
 30
0.0
 11
497.3029306974
 21
357.0129082886
 31
0.0
  0
LINE
  5
168
330
1F
100
AcDbEntity
  8
0
  6
CONTINUOUS
 62
     7
100
AcDbLine
 10
483.5207871045
 20
357.0129082886
 30
0.0
 11
478.5851648893
 21
357.0129082886
 31
0.0
  0
LINE
  5
169
330
1F
100
AcDbEntity
  8
0
  6
CONTINUOUS
 62
     7
100
AcDbLine
 10
401.0207465734
 20
357.0129082886
 30
0.0
 11
396.0851839627
 21
357.0129082886
 31
0.0
  0
LINE
  5
16A
330
1F
100
AcDbEntity
  8
0
  6
CONTINUOUS
 62
     7
100
AcDbLine
 10
392.3029712285
 20
357.0129082886
 30
0.0
 11
370.3639319982
 21
357.0129082886
 31
0.0
  0
ARC
  5
16B
330
1F
100
AcDbEntity
  8
0
  6
CONTINUOUS
 62
     7
100
AcDbCircle
 10
501.8845609273
 20
357.4128611819
 30
0.0
 40
3.499964041133213
100
AcDbArc
 50
186.5617193479
 51
353.4382806521
  0
LINE
  5
16C
330
1F
100
AcDbEntity
  8
0
  6
CONTINUOUS
 62
     7
100
AcDbLine
 10
668.407481059
 20
357.0129082886
 30
0.0
 11
505.3615978803
 21
357.0129082886
 31
0.0
  0
ARC
  5
16D
330
1F
100
AcDbEntity
  8
0
  6
CONTINUOUS
 62
     7
100
AcDbCircle
 10
671.884518012
 20
357.4128831895
 30
0.0
 40
3.499966556082089
100
AcDbArc
 50
186.5620772602
 51
353.4379227398
  0
LINE
  5
16E
330
1F
100
AcDbEntity
  8
0
  6
CONTINUOUS
 62
     7
100
AcDbLine
 10
716.8845347013
 20
350.6629078997
 30
0.0
 11
716.8845347013
 21
357.0129082886
 31
0.0
  0
LINE
  5
16F
330
1F
100
AcDbEntity
  8
0
  6
CONTINUOUS
 62
     7
100
AcDbLine
 10
716.8845347013
 20
350.6629078997
 30
0.0
 11
716.8845347013
 21
346.8082620179
 31
0.0
  0
ARC
  5
170
330
1F
100
AcDbEntity
  8
0
  6
CONTINUOUS
 62
     7
100
AcDbCircle
 10
671.9573507714
 20
357.406258019
 30
0.0
 40
3.573085477103913
100
AcDbArc
 50
173.465041213
 51
177.6249465222
  0
ARC
  5
171
330
1F
100
AcDbEntity
  8
0
  6
CONTINUOUS
 62
     7
100
AcDbCircle
 10
501.9105095325
 20
357.4155544984
 30
0.0
 40
3.473888486827621
100
AcDbArc
 50
2.2894535249
 51
6.5680471424
  0
ARC
  5
172
330
1F
100
AcDbEntity
  8
0
  6
CONTINUOUS
 62
     7
100
AcDbCircle
 10
671.9574170221
 20
357.4195652901
 30
0.0
 40
3.573152006192294
100
AcDbArc
 50
182.3751390824
 51
186.5349371066
  0
ARC
  5
173
330
1F
100
AcDbEntity
  8
0
  6
CONTINUOUS
 62
     7
100
AcDbCircle
 10
501.9104497144
 20
357.4102682151
 30
0.0
 40
3.473948556672143
100
AcDbArc
 50
353.4319734164
 51
357.7104623659
  0
ARC
  5
174
330
1F
100
AcDbEntity
  8
0
  6
CONTINUOUS
 62
     7
100
AcDbCircle
 10
671.9092705088
 20
357.4119570502
 30
0.0
 40
3.475270907504698
100
AcDbArc
 50
353.4064556376
 51
357.6834681735
  0
LINE
  5
175
330
1F
100
AcDbEntity
  8
0
  6
CONTINUOUS
 62
     7
100
AcDbLine
 10
716.8845347013
 20
357.2714862761
 30
0.0
 11
716.8845347013
 21
357.0129082886
 31
0.0
  0
ARC
  5
176
330
1F
100
AcDbEntity
  8
0
  6
CONTINUOUS
 62
     7
100
AcDbCircle
 10
501.8598084305
 20
357.4119570502
 30
0.0
 40
3.475270907504698
100
AcDbArc
 50
182.3165318265
 51
186.5935443624
  0
LINE
  5
177
330
1F
100
AcDbEntity
  8
0
  6
CONTINUOUS
 62
     7
100
AcDbLine
 10
716.8845347013
 20
339.6629078428
 30
0.0
 11
497.3029306974
 21
339.6629078428
 31
0.0
  0
LINE
  5
178
330
1F
100
AcDbEntity
  8
0
  6
CONTINUOUS
 62
     7
100
AcDbLine
 10
392.3029712285
 20
339.6629078428
 30
0.0
 11
366.3321546163
 21
339.6629078428
 31
0.0
  0
LINE
  5
179
330
1F
100
AcDbEntity
  8
0
  6
CONTINUOUS
 62
     7
100
AcDbLine
 10
716.8845347013
 20
340.6629078903
 30
0.0
 11
716.8845347013
 21
339.6629078428
 31
0.0
  0
LINE
  5
17A
330
1F
100
AcDbEntity
  8
0
  6
CONTINUOUS
 62
     7
100
AcDbLine
 10
716.8845347013
 20
341.1629078782
 30
0.0
 11
497.3029306974
 21
341.1629078782
 31
0.0
  0
LINE
  5
17B
330
1F
100
AcDbEntity
  8
0
  6
CONTINUOUS
 62
     7
100
AcDbLine
 10
392.3029712285
 20
341.1629078782
 30
0.0
 11
367.3692158307
 21
341.1629078782
 31
0.0
  0
LINE
  5
17C
330
1F
100
AcDbEntity
  8
0
  6
CONTINUOUS
 62
     7
100
AcDbLine
 10
716.8845347013
 20
344.9340018791
 30
0.0
 11
716.8845347013
 21
341.1629078782
 31
0.0
  0
ARC
  5
17D
330
1F
100
AcDbEntity
  8
0
  6
CONTINUOUS
 62
     7
100
AcDbCircle
 10
501.8597489159
 20
357.4138656794
 30
0.0
 40
3.475211137861684
100
AcDbArc
 50
173.4064354837
 51
177.6835522515
  0
LINE
  5
17E
330
1F
100
AcDbEntity
  8
0
  6
CONTINUOUS
 62
     7
100
AcDbLine
 10
716.8845347013
 20
340.6629078903
 30
0.0
 11
716.8845347013
 21
341.1629078782
 31
0.0
  0
SPLINE
  5
17F
330
1F
100
AcDbEntity
  8
0
  6
CONTINUOUS
 62
     7
100
AcDbSpline
210
0.0
220
0.0
230
1.0
 70
     8
 71
     3
 72
    17
 73
    13
 74
     0
 42
0.00000001
 43
0.00000001
 40
0.0
 40
0.0
 40
0.0
 40
0.0
 40
0.089667506790341
 40
0.1936988310179027
 40
0.3033902995834166
 40
0.4219035980813174
 40
0.5391534259309154
 40
0.6586673900170924
 40
0.7703264550667354
 40
0.8774509091747356
 40
0.9410645732203302
 40
1.0
 40
1.0
 40
1.0
 40
1.0
 10
498.3873776044125
 20
357.2714862761255
 30
0.0
 10
498.3870442015397
 20
357.2799359383661
 30
0.0
 10
498.386323988064
 20
357.2981888123122
 30
0.0
 10
498.3855360380006
 20
357.3267900668452
 30
0.0
 10
498.3849272574225
 20
357.3581164749577
 30
0.0
 10
498.3846218285035
 20
357.3906933879815
 30
0.0
 10
498.3843976423341
 20
357.4241988264869
 30
0.0
 10
498.3848829189052
 20
357.457054611707
 30
0.0
 10
498.3852465072224
 20
357.4889565569723
 30
0.0
 10
498.3860439087667
 20
357.5155773771031
 30
0.0
 10
498.3867564789556
 20
357.5372251178025
 30
0.0
 10
498.387175899637
 20
357.5487746325332
 30
0.0
 10
498.3873776044125
 20
357.5543289420362
 30
0.0
  0
SPLINE
  5
180
330
1F
100
AcDbEntity
  8
0
  6
CONTINUOUS
 62
     7
100
AcDbSpline
210
0.0
220
0.0
230
1.0
 70
     8
 71
     3
 72
    24
 73
    20
 74
     0
 42
0.00000001
 43
0.00000001
 40
0.0
 40
0.0
 40
0.0
 40
0.0
 40
0.0211643419272933
 40
0.0661957715365134
 40
0.1147801130487059
 40
0.1666676304245163
 40
0.193690593248304
 40
0.2650256014205427
 40
0.3309607293301937
 40
0.3918618013934717
 40
0.421906371405087
 40
0.5269170578649703
 40
0.6179975207048448
 40
0.6586674784407385
 40
0.7589717832312374
 40
0.8417693971106115
 40
0.8774500650064686
 40
0.9412352425493788
 40
1.0
 40
1.0
 40
1.0
 40
1.0
 10
668.3873346890683
 20
357.2714862761255
 30
0.0
 10
668.3873014216077
 20
357.2734819763614
 30
0.0
 10
668.3871973708785
 20
357.2797239335802
 30
0.0
 10
668.3866877644052
 20
357.2905376857113
 30
0.0
 10
668.3862775521515
 20
357.304252947101
 30
0.0
 10
668.3857821190134
 20
357.3162675581657
 30
0.0
 10
668.38563631038
 20
357.3304365170367
 30
0.0
 10
668.3851769130027
 20
357.3459236970473
 30
0.0
 10
668.38476769906
 20
357.3646087418323
 30
0.0
 10
668.3847823988295
 20
357.3794043040851
 30
0.0
 10
668.3844490097566
 20
357.3978815356653
 30
0.0
 10
668.3846165253325
 20
357.4192087451332
 30
0.0
 10
668.384648895761
 20
357.4415362678384
 30
0.0
 10
668.3848881021505
 20
357.4634190555892
 30
0.0
 10
668.3852077234744
 20
357.4845200992736
 30
0.0
 10
668.3858204461235
 20
357.5051436526325
 30
0.0
 10
668.3861789895474
 20
357.5223285353288
 30
0.0
 10
668.3867238168324
 20
357.5372410200997
 30
0.0
 10
668.3871367031339
 20
357.5487906838046
 30
0.0
 10
668.3873346890683
 20
357.5543289420362
 30
0.0
  0
SPLINE
  5
181
330
1F
100
AcDbEntity
  8
0
  6
CONTINUOUS
 62
     7
100
AcDbSpline
210
0.0
220
0.0
230
1.0
 70
     8
 71
     3
 72
    24
 73
    20
 74
     0
 42
0.00000001
 43
0.00000001
 40
0.0
 40
0.0
 40
0.0
 40
0.0
 40
0.0211697249656536
 40
0.0662064191234343
 40
0.1147893425431887
 40
0.1666753454126019
 40
0.1936975194830991
 40
0.2650304455105046
 40
0.3309636488884365
 40
0.3918563599629946
 40
0.4219000530258603
 40
0.5269142579563546
 40
0.6179854788364388
 40
0.6586608326836345
 40
0.7589556271455375
 40
0.8417574057250282
 40
0.8774304504511463
 40
0.9412137662156498
 40
1.0
 40
1.0
 40
1.0
 40
1.0
 10
505.381625040936
 20
357.5543289420362
 30
0.0
 10
505.3817050075435
 20
357.552334070697
 30
0.0
 10
505.3819550959479
 20
357.5460952892203
 30
0.0
 10
505.3823635829557
 20
357.535277328693
 30
0.0
 10
505.3828097379482
 20
357.5215625205888
 30
0.0
 10
505.3832957550097
 20
357.509547628164
 30
0.0
 10
505.3834432450248
 20
357.4953787195375
 30
0.0
 10
505.3839018206427
 20
357.4798915149407
 30
0.0
 10
505.3843112735075
 20
357.4612070985713
 30
0.0
 10
505.3842965479409
 20
357.4464121557573
 30
0.0
 10
505.3846299406806
 20
357.4279349245239
 30
0.0
 10
505.3844624518308
 20
357.4066077138311
 30
0.0
 10
505.3844299652558
 20
357.3842795734601
 30
0.0
 10
505.384190995009
 20
357.3623973991459
 30
0.0
 10
505.3838699866679
 20
357.3412957868185
 30
0.0
 10
505.3832611447789
 20
357.3206727038389
 30
0.0
 10
505.382894939467
 20
357.3034881215278
 30
0.0
 10
505.3823905208542
 20
357.288572475159
 30
0.0
 10
505.3818731702242
 20
357.2770247446122
 30
0.0
 10
505.381625040936
 20
357.2714862761255
 30
0.0
  0
SPLINE
  5
182
330
1F
100
AcDbEntity
  8
0
  6
CONTINUOUS
 62
     7
100
AcDbSpline
210
0.0
220
0.0
230
1.0
 70
     8
 71
     3
 72
    12
 73
     8
 74
     0
 42
0.00000001
 43
0.00000001
 40
0.0
 40
0.0
 40
0.0
 40
0.0
 40
0.1936995653494376
 40
0.421898961645681
 40
0.6586668085596082
 40
0.8774426681774236
 40
1.0
 40
1.0
 40
1.0
 40
1.0
 10
675.3817013348813
 20
357.5543289420362
 30
0.0
 10
675.3823606514163
 20
357.5360736707731
 30
0.0
 10
675.3837967153594
 20
357.4963116817539
 30
0.0
 10
675.384632849705
 20
357.4341964298017
 30
0.0
 10
675.384409094095
 20
357.3697145089237
 30
0.0
 10
675.3832875215398
 20
357.3152047439853
 30
0.0
 10
675.3821203966963
 20
357.2830364555398
 30
0.0
 10
675.3817013348813
 20
357.2714862761255
 30
0.0
  0
LINE
  5
183
330
1F
100
AcDbEntity
  8
0
  6
CONTINUOUS
 62
     7
100
AcDbLine
 10
716.8845347013
 20
357.554328942
 30
0.0
 11
716.8845347013
 21
357.2714862761
 31
0.0
  0
LINE
  5
184
330
1F
100
AcDbEntity
  8
0
  6
CONTINUOUS
 62
     7
100
AcDbLine
 10
716.8845347013
 20
346.8082620179
 30
0.0
 11
716.8845347013
 21
344.9340018791
 31
0.0
  0
LINE
  5
185
330
1F
100
AcDbEntity
  8
0
  6
CONTINUOUS
 62
     7
100
AcDbLine
 10
716.8845347013
 20
368.017553666
 30
0.0
 11
716.8845347013
 21
369.8918142704
 31
0.0
  0
LINE
  5
186
330
1F
100
AcDbEntity
  8
0
  6
CONTINUOUS
 62
     7
100
AcDbLine
 10
364.8891317781
 20
377.9129063127
 30
0.0
 11
99.7133719858
 21
377.9129063127
 31
0.0
  0
LINE
  5
187
330
1F
100
AcDbEntity
  8
0
  6
CONTINUOUS
 62
     7
100
AcDbLine
 10
99.7133719858
 20
336.9129079742
 30
0.0
 11
359.499262565
 21
336.9129079742
 31
0.0
  0
LINE
  5
188
330
1F
100
AcDbEntity
  8
0
  6
CONTINUOUS
 62
     7
100
AcDbLine
 10
99.7133719858
 20
375.1629081902
 30
0.0
 11
99.7133719858
 21
377.9129063127
 31
0.0
  0
LINE
  5
189
330
1F
100
AcDbEntity
  8
0
  6
CONTINUOUS
 62
     7
100
AcDbLine
 10
99.7133719858
 20
336.9129079742
 30
0.0
 11
99.7133719858
 21
339.6629078428
 31
0.0
  0
LINE
  5
18A
330
1F
100
AcDbEntity
  8
0
  6
CONTINUOUS
 62
     7
100
AcDbLine
 10
359.3295085367
 20
364.1629082498
 30
0.0
 11
99.7133719858
 21
364.1629082498
 31
0.0
  0
LINE
  5
18B
330
1F
100
AcDbEntity
  8
0
  6
CONTINUOUS
 62
     7
100
AcDbLine
 10
99.7133719858
 20
364.1629082498
 30
0.0
 11
99.7133719858
 21
368.017553666
 31
0.0
  0
LINE
  5
18C
330
1F
100
AcDbEntity
  8
0
  6
CONTINUOUS
 62
     7
100
AcDbLine
 10
362.0244133409
 20
357.8129087922
 30
0.0
 11
348.1904733117
 21
357.8129087922
 31
0.0
  0
ARC
  5
18D
330
1F
100
AcDbEntity
  8
0
  6
CONTINUOUS
 62
     7
100
AcDbCircle
 10
344.7133767541
 20
357.4128759859
 30
0.0
 40
3.500032388011892
100
AcDbArc
 50
6.5629074595
 51
173.4370925405
  0
LINE
  5
18E
330
1F
100
AcDbEntity
  8
0
  6
CONTINUOUS
 62
     7
100
AcDbLine
 10
341.2362801965
 20
357.8129087922
 30
0.0
 11
178.1903970178
 21
357.8129087922
 31
0.0
  0
ARC
  5
18F
330
1F
100
AcDbEntity
  8
0
  6
CONTINUOUS
 62
     7
100
AcDbCircle
 10
174.7133600648
 20
357.4129548456
 30
0.0
 40
3.499964161494979
100
AcDbArc
 50
6.5617364775
 51
173.4382635225
  0
LINE
  5
190
330
1F
100
AcDbEntity
  8
0
  6
CONTINUOUS
 62
     7
100
AcDbLine
 10
171.2363231119
 20
357.8129087922
 30
0.0
 11
99.7133719858
 21
357.8129087922
 31
0.0
  0
LINE
  5
191
330
1F
100
AcDbEntity
  8
0
  6
CONTINUOUS
 62
     7
100
AcDbLine
 10
99.7133719858
 20
357.8129087922
 30
0.0
 11
99.7133719858
 21
364.1629082498
 31
0.0
  0
LINE
  5
192
330
1F
100
AcDbEntity
  8
0
  6
CONTINUOUS
 62
     7
100
AcDbLine
 10
99.7133719858
 20
375.1629081902
 30
0.0
 11
366.0562503274
 21
375.1629081902
 31
0.0
  0
LINE
  5
193
330
1F
100
AcDbEntity
  8
0
  6
CONTINUOUS
 62
     7
100
AcDbLine
 10
99.7133719858
 20
374.1629061637
 30
0.0
 11
99.7133719858
 21
375.1629081902
 31
0.0
  0
LINE
  5
194
330
1F
100
AcDbEntity
  8
0
  6
CONTINUOUS
 62
     7
100
AcDbLine
 10
365.019189113
 20
373.6629088757
 30
0.0
 11
99.7133719858
 21
373.6629088757
 31
0.0
  0
LINE
  5
195
330
1F
100
AcDbEntity
  8
0
  6
CONTINUOUS
 62
     7
100
AcDbLine
 10
99.7133719858
 20
373.6629088757
 30
0.0
 11
99.7133719858
 21
374.1629061637
 31
0.0
  0
LINE
  5
196
330
1F
100
AcDbEntity
  8
0
  6
CONTINUOUS
 62
     7
100
AcDbLine
 10
99.7133719858
 20
369.8918142704
 30
0.0
 11
99.7133719858
 21
373.6629088757
 31
0.0
  0
ARC
  5
197
330
1F
100
AcDbEntity
  8
0
  6
CONTINUOUS
 62
     7
100
AcDbCircle
 10
174.7861928243
 20
357.406258019
 30
0.0
 40
3.573085477103885
100
AcDbArc
 50
173.465041213
 51
177.6249465222
  0
LINE
  5
198
330
1F
100
AcDbEntity
  8
0
  6
CONTINUOUS
 62
     7
100
AcDbLine
 10
99.7133719858
 20
357.8129087922
 30
0.0
 11
99.7133719858
 21
357.554328942
 31
0.0
  0
ARC
  5
199
330
1F
100
AcDbEntity
  8
0
  6
CONTINUOUS
 62
     7
100
AcDbCircle
 10
344.6873685443
 20
357.4155544984
 30
0.0
 40
3.473888486827621
100
AcDbArc
 50
173.4319528576
 51
177.7105464751
  0
ARC
  5
19A
330
1F
100
AcDbEntity
  8
0
  6
CONTINUOUS
 62
     7
100
AcDbCircle
 10
174.6405273054
 20
357.406258019
 30
0.0
 40
3.573085477103942
100
AcDbArc
 50
2.3750534778
 51
6.534958787
  0
LINE
  5
19B
330
1F
100
AcDbEntity
  8
0
  6
CONTINUOUS
 62
     7
100
AcDbLine
 10
365.0589454111
 20
350.6629078997
 30
0.0
 11
99.7133719858
 21
350.6629078997
 31
0.0
  0
LINE
  5
19C
330
1F
100
AcDbEntity
  8
0
  6
CONTINUOUS
 62
     7
100
AcDbLine
 10
171.2363231119
 20
357.0129082886
 30
0.0
 11
99.7133719858
 21
357.0129082886
 31
0.0
  0
LINE
  5
19D
330
1F
100
AcDbEntity
  8
0
  6
CONTINUOUS
 62
     7
100
AcDbLine
 10
341.2362801965
 20
357.0129082886
 30
0.0
 11
178.1903970178
 21
357.0129082886
 31
0.0
  0
ARC
  5
19E
330
1F
100
AcDbEntity
  8
0
  6
CONTINUOUS
 62
     7
100
AcDbCircle
 10
344.7133767541
 20
357.4129400416
 30
0.0
 40
3.500032267625936
100
AcDbArc
 50
186.5628903299
 51
353.4371096701
  0
LINE
  5
19F
330
1F
100
AcDbEntity
  8
0
  6
CONTINUOUS
 62
     7
100
AcDbLine
 10
362.3639810022
 20
357.0129082886
 30
0.0
 11
348.1904733117
 21
357.0129082886
 31
0.0
  0
ARC
  5
1A0
330
1F
100
AcDbEntity
  8
0
  6
CONTINUOUS
 62
     7
100
AcDbCircle
 10
174.7133600648
 20
357.4128831895
 30
0.0
 40
3.499966556082123
100
AcDbArc
 50
186.5620772602
 51
353.4379227398
  0
LINE
  5
1A1
330
1F
100
AcDbEntity
  8
0
  6
CONTINUOUS
 62
     7
100
AcDbLine
 10
99.7133719858
 20
350.6629078997
 30
0.0
 11
99.7133719858
 21
357.0129082886
 31
0.0
  0
LINE
  5
1A2
330
1F
100
AcDbEntity
  8
0
  6
CONTINUOUS
 62
     7
100
AcDbLine
 10
99.7133719858
 20
350.6629078997
 30
0.0
 11
99.7133719858
 21
346.8082620179
 31
0.0
  0
ARC
  5
1A3
330
1F
100
AcDbEntity
  8
0
  6
CONTINUOUS
 62
     7
100
AcDbCircle
 10
344.739384964
 20
357.4155544984
 30
0.0
 40
3.473888486827621
100
AcDbArc
 50
2.2894535249
 51
6.5680471424
  0
ARC
  5
1A4
330
1F
100
AcDbEntity
  8
0
  6
CONTINUOUS
 62
     7
100
AcDbCircle
 10
174.786259075
 20
357.4195652901
 30
0.0
 40
3.573152006192351
100
AcDbArc
 50
182.3751390824
 51
186.5349371066
  0
LINE
  5
1A5
330
1F
100
AcDbEntity
  8
0
  6
CONTINUOUS
 62
     7
100
AcDbLine
 10
99.7133719858
 20
357.2714862761
 30
0.0
 11
99.7133719858
 21
357.0129082886
 31
0.0
  0
ARC
  5
1A6
330
1F
100
AcDbEntity
  8
0
  6
CONTINUOUS
 62
     7
100
AcDbCircle
 10
344.6874283624
 20
357.4102682151
 30
0.0
 40
3.473948556672199
100
AcDbArc
 50
182.2895376341
 51
186.5680265836
  0
ARC
  5
1A7
330
1F
100
AcDbEntity
  8
0
  6
CONTINUOUS
 62
     7
100
AcDbCircle
 10
174.6404610547
 20
357.4195652901
 30
0.0
 40
3.573152006192407
100
AcDbArc
 50
353.4650628935
 51
357.6248609176
  0
LINE
  5
1A8
330
1F
100
AcDbEntity
  8
0
  6
CONTINUOUS
 62
     7
100
AcDbLine
 10
358.3321440156
 20
339.6629078428
 30
0.0
 11
99.7133719858
 21
339.6629078428
 31
0.0
  0
LINE
  5
1A9
330
1F
100
AcDbEntity
  8
0
  6
CONTINUOUS
 62
     7
100
AcDbLine
 10
99.7133719858
 20
339.6629078428
 30
0.0
 11
99.7133719858
 21
340.6629078903
 31
0.0
  0
LINE
  5
1AA
330
1F
100
AcDbEntity
  8
0
  6
CONTINUOUS
 62
     7
100
AcDbLine
 10
359.3692052301
 20
341.1629078782
 30
0.0
 11
99.7133719858
 21
341.1629078782
 31
0.0
  0
LINE
  5
1AB
330
1F
100
AcDbEntity
  8
0
  6
CONTINUOUS
 62
     7
100
AcDbLine
 10
99.7133719858
 20
344.9340018791
 30
0.0
 11
99.7133719858
 21
341.1629078782
 31
0.0
  0
LINE
  5
1AC
330
1F
100
AcDbEntity
  8
0
  6
CONTINUOUS
 62
     7
100
AcDbLine
 10
99.7133719858
 20
340.6629078903
 30
0.0
 11
99.7133719858
 21
341.1629078782
 31
0.0
  0
ARC
  5
1AD
330
1F
100
AcDbEntity
  8
0
  6
CONTINUOUS
 62
     7
100
AcDbCircle
 10
344.7393251458
 20
357.4102682151
 30
0.0
 40
3.473948556672199
100
AcDbArc
 50
353.4319734164
 51
357.7104623659
  0
SPLINE
  5
1AE
330
1F
100
AcDbEntity
  8
0
  6
CONTINUOUS
 62
     7
100
AcDbSpline
210
0.0
220
0.0
230
1.0
 70
     8
 71
     3
 72
    12
 73
     8
 74
     0
 42
0.00000001
 43
0.00000001
 40
0.0
 40
0.0
 40
0.0
 40
0.0
 40
0.193695337802139
 40
0.4219029493583532
 40
0.6586590451405284
 40
0.8774367120850887
 40
1.0
 40
1.0
 40
1.0
 40
1.0
 10
341.2162530358688
 20
357.2714862761255
 30
0.0
 10
341.215604629696
 20
357.2897416994687
 30
0.0
 10
341.2141922855486
 20
357.3295052634121
 30
0.0
 10
341.213150852361
 20
357.3916182779889
 30
0.0
 10
341.2134594162617
 20
357.4561013456665
 30
0.0
 10
341.2144856273766
 20
357.5106146967559
 30
0.0
 10
341.2157860873568
 20
357.5427796585068
 30
0.0
 10
341.2162530358688
 20
357.5543289420362
 30
0.0
  0
SPLINE
  5
1AF
330
1F
100
AcDbEntity
  8
0
  6
CONTINUOUS
 62
     7
100
AcDbSpline
210
0.0
220
0.0
230
1.0
 70
     8
 71
     3
 72
    12
 73
     8
 74
     0
 42
0.00000001
 43
0.00000001
 40
0.0
 40
0.0
 40
0.0
 40
0.0
 40
0.1936995653494376
 40
0.421898961645681
 40
0.6586668085596082
 40
0.8774426681774236
 40
1.0
 40
1.0
 40
1.0
 40
1.0
 10
178.2105433877365
 20
357.5543289420362
 30
0.0
 10
178.2112027042717
 20
357.5360736707731
 30
0.0
 10
178.2126387682148
 20
357.4963116817539
 30
0.0
 10
178.2134749025603
 20
357.4341964298017
 30
0.0
 10
178.2132511469501
 20
357.3697145089237
 30
0.0
 10
178.2121295743951
 20
357.3152047439853
 30
0.0
 10
178.2109624495515
 20
357.2830364555398
 30
0.0
 10
178.2105433877365
 20
357.2714862761255
 30
0.0
  0
SPLINE
  5
1B0
330
1F
100
AcDbEntity
  8
0
  6
CONTINUOUS
 62
     7
100
AcDbSpline
210
0.0
220
0.0
230
1.0
 70
     8
 71
     3
 72
    12
 73
     8
 74
     0
 42
0.00000001
 43
0.00000001
 40
0.0
 40
0.0
 40
0.0
 40
0.0
 40
0.1936964767131819
 40
0.4218988473310044
 40
0.6586629188634284
 40
0.8774446224152547
 40
1.0
 40
1.0
 40
1.0
 40
1.0
 10
348.2105004723923
 20
357.5543289420362
 30
0.0
 10
348.2111501017877
 20
357.5360734863741
 30
0.0
 10
348.2125650882539
 20
357.4963104724459
 30
0.0
 10
348.213583518815
 20
357.4341980665804
 30
0.0
 10
348.2133661262268
 20
357.3697123341926
 30
0.0
 10
348.2120673595477
 20
357.3152061053681
 30
0.0
 10
348.2109144270564
 20
357.28303658284
 30
0.0
 10
348.2105004723923
 20
357.2714862761255
 30
0.0
  0
SPLINE
  5
1B1
330
1F
100
AcDbEntity
  8
0
  6
CONTINUOUS
 62
     7
100
AcDbSpline
210
0.0
220
0.0
230
1.0
 70
     8
 71
     3
 72
    12
 73
     8
 74
     0
 42
0.00000001
 43
0.00000001
 40
0.0
 40
0.0
 40
0.0
 40
0.0
 40
0.1936995650127441
 40
0.4219055439865251
 40
0.6586668067380774
 40
0.8774492482904541
 40
1.0
 40
1.0
 40
1.0
 40
1.0
 10
171.2161767419235
 20
357.2714862761255
 30
0.0
 10
171.2155174249684
 20
357.2897415473634
 30
0.0
 10
171.2140813377032
 20
357.3295041567516
 30
0.0
 10
171.2132452331967
 20
357.3916194097218
 30
0.0
 10
171.2134690261304
 20
357.4561019499084
 30
0.0
 10
171.2145904794142
 20
357.5106110973908
 30
0.0
 10
171.215757676627
 20
357.5427793836122
 30
0.0
 10
171.2161767419235
 20
357.5543289420362
 30
0.0
  0
LINE
  5
1B2
330
1F
100
AcDbEntity
  8
0
  6
CONTINUOUS
 62
     7
100
AcDbLine
 10
99.7133719858
 20
357.2714862761
 30
0.0
 11
99.7133719858
 21
357.554328942
 31
0.0
  0
LINE
  5
1B3
330
1F
100
AcDbEntity
  8
0
  6
CONTINUOUS
 62
     7
100
AcDbLine
 10
99.7133719858
 20
346.8082620179
 30
0.0
 11
99.7133719858
 21
344.9340018791
 31
0.0
  0
LINE
  5
1B4
330
1F
100
AcDbEntity
  8
0
  6
CONTINUOUS
 62
     7
100
AcDbLine
 10
99.7133719858
 20
368.017553666
 30
0.0
 11
99.7133719858
 21
369.8918142704
 31
0.0
  0
DIMENSION
  5
1B5
330
1F
100
AcDbEntity
  8
OPISY
100
AcDbDimension
  2
*D3
 10
730.8845347013
 20
252.412907878
 30
0.0
 11
730.8845347013
 21
294.662907878
 31
0.0
 70
   160
  3
SLDDIMSTYLE0
100
AcDbAlignedDimension
 13
716.8845347013
 23
336.912907878
 33
0.0
 14
497.3029539643
 24
252.412907878
 34
0.0
 50
90.0
100
AcDbRotatedDimension
  0
DIMENSION
  5
1C0
330
1F
100
AcDbEntity
  8
OPISY
100
AcDbDimension
  2
*D4
 10
742.8845347013
 20
252.412907878
 30
0.0
 11
742.8845347013
 21
327.412907878
 31
0.0
 70
   160
  3
SLDDIMSTYLE0
100
AcDbAlignedDimension
 13
497.3029539643
 23
402.412907878
 33
0.0
 14
497.3029539643
 24
252.412907878
 34
0.0
 50
90.0
100
AcDbRotatedDimension
  0
DIMENSION
  5
1CA
330
1F
100
AcDbEntity
  8
OPISY
100
AcDbDimension
  2
*D5
 10
730.8845347013
 20
377.912907878
 30
0.0
 11
730.8845347013
 21
357.412907878
 31
0.0
 70
   160
  3
SLDDIMSTYLE0
100
AcDbAlignedDimension
 13
716.8845347013
 23
336.912907878
 33
0.0
 14
716.8845347013
 24
377.912907878
 34
0.0
 50
90.0
100
AcDbRotatedDimension
  0
INSERT
  5
1DF
330
1F
100
AcDbEntity
  8
OPISY
100
AcDbBlockReference
  2
SW_CENTERMARKSYMBOL_0
 10
398.5529354657
 20
396.4129065511
 30
0.0
  0
INSERT
  5
1EB
330
1F
100
AcDbEntity
  8
OPISY
100
AcDbBlockReference
  2
SW_CENTERMARKSYMBOL_1
 10
344.7133767541
 20
357.4129076091
 30
0.0
  0
INSERT
  5
1F7
330
1F
100
AcDbEntity
  8
OPISY
100
AcDbBlockReference
  2
SW_CENTERMARKSYMBOL_2
 10
398.5529354657
 20
357.4129076091
 30
0.0
  0
INSERT
  5
203
330
1F
100
AcDbEntity
  8
OPISY
100
AcDbBlockReference
  2
SW_CENTERMARKSYMBOL_3
 10
409.8029545392
 20
388.4129089651
 30
0.0
  0
INSERT
  5
20F
330
1F
100
AcDbEntity
  8
OPISY
100
AcDbBlockReference
  2
SW_CENTERMARKSYMBOL_4
 10
469.8028973188
 20
388.4129089651
 30
0.0
  0
INSERT
  5
21B
330
1F
100
AcDbEntity
  8
OPISY
100
AcDbBlockReference
  2
SW_CENTERMARKSYMBOL_5
 10
481.0529163923
 20
396.4129065511
 30
0.0
  0
INSERT
  5
227
330
1F
100
AcDbEntity
  8
OPISY
100
AcDbBlockReference
  2
SW_CENTERMARKSYMBOL_6
 10
481.0529163923
 20
357.4129076091
 30
0.0
  0
INSERT
  5
233
330
1F
100
AcDbEntity
  8
OPISY
100
AcDbBlockReference
  2
SW_CENTERMARKSYMBOL_7
 10
469.8028973188
 20
326.4129081157
 30
0.0
  0
INSERT
  5
23F
330
1F
100
AcDbEntity
  8
OPISY
100
AcDbBlockReference
  2
SW_CENTERMARKSYMBOL_8
 10
409.8029545392
 20
326.4129081157
 30
0.0
  0
INSERT
  5
24B
330
1F
100
AcDbEntity
  8
OPISY
100
AcDbBlockReference
  2
SW_CENTERMARKSYMBOL_9
 10
398.5529354657
 20
318.4129086671
 30
0.0
  0
INSERT
  5
257
330
1F
100
AcDbEntity
  8
OPISY
100
AcDbBlockReference
  2
SW_CENTERMARKSYMBOL_10
 10
439.802925929
 20
318.4129086671
 30
0.0
  0
INSERT
  5
263
330
1F
100
AcDbEntity
  8
OPISY
100
AcDbBlockReference
  2
SW_CENTERMARKSYMBOL_11
 10
481.0529163923
 20
318.4129086671
 30
0.0
  0
INSERT
  5
26F
330
1F
100
AcDbEntity
  8
OPISY
100
AcDbBlockReference
  2
SW_CENTERMARKSYMBOL_12
 10
501.8845013227
 20
357.4129076091
 30
0.0
  0
INSERT
  5
27B
330
1F
100
AcDbEntity
  8
OPISY
100
AcDbBlockReference
  2
SW_CENTERMARKSYMBOL_13
 10
174.7134196695
 20
357.4129076091
 30
0.0
  0
INSERT
  5
287
330
1F
100
AcDbEntity
  8
OPISY
100
AcDbBlockReference
  2
SW_CENTERMARKSYMBOL_14
 10
671.8845776166
 20
357.4129076091
 30
0.0
  0
LINE
  5
288
330
1F
100
AcDbEntity
  8
0
  6
HIDDEN
 62
     7
100
AcDbLine
 10
362.1942006496
 20
384.262907878
 30
0.0
 11
366.1942006496
 21
374.837907878
 31
0.0
  0
LINE
  5
289
330
1F
100
AcDbEntity
  8
0
  6
HIDDEN
 62
     7
100
AcDbLine
 10
366.1942006496
 20
374.837907878
 30
0.0
 11
358.1942006496
 21
366.837907878
 31
0.0
  0
LINE
  5
28A
330
1F
100
AcDbEntity
  8
0
  6
HIDDEN
 62
     7
100
AcDbLine
 10
358.1942006496
 20
366.837907878
 30
0.0
 11
366.1942006496
 21
347.987907878
 31
0.0
  0
LINE
  5
28B
330
1F
100
AcDbEntity
  8
0
  6
HIDDEN
 62
     7
100
AcDbLine
 10
366.1942006496
 20
347.987907878
 30
0.0
 11
358.1942006496
 21
339.987907878
 31
0.0
  0
LINE
  5
28C
330
1F
100
AcDbEntity
  8
0
  6
HIDDEN
 62
     7
100
AcDbLine
 10
358.1942006496
 20
339.987907878
 30
0.0
 11
362.1942006496
 21
330.562907878
 31
0.0
  0
LINE
  5
28D
330
1F
100
AcDbEntity
  8
0
  6
HIDDEN
 62
     7
100
AcDbLine
 10
370.1942006496
 20
384.262907878
 30
0.0
 11
374.1942006496
 21
374.837907878
 31
0.0
  0
LINE
  5
28E
330
1F
100
AcDbEntity
  8
0
  6
HIDDEN
 62
     7
100
AcDbLine
 10
374.1942006496
 20
374.837907878
 30
0.0
 11
366.1942006496
 21
366.837907878
 31
0.0
  0
LINE
  5
28F
330
1F
100
AcDbEntity
  8
0
  6
HIDDEN
 62
     7
100
AcDbLine
 10
366.1942006496
 20
366.837907878
 30
0.0
 11
374.1942006496
 21
347.987907878
 31
0.0
  0
LINE
  5
290
330
1F
100
AcDbEntity
  8
0
  6
HIDDEN
 62
     7
100
AcDbLine
 10
374.1942006496
 20
347.987907878
 30
0.0
 11
366.1942006496
 21
339.987907878
 31
0.0
  0
LINE
  5
291
330
1F
100
AcDbEntity
  8
0
  6
HIDDEN
 62
     7
100
AcDbLine
 10
366.1942006496
 20
339.987907878
 30
0.0
 11
370.1942006496
 21
330.562907878
 31
0.0
  0
LINE
  5
292
330
1F
100
AcDbEntity
  8
OPISY
  6
CENTERX2
 48
2.0
100
AcDbLine
 10
439.802925929
 20
433.0129114327
 30
0.0
 11
439.802925929
 21
367.0129080651
 31
0.0
  0
INSERT
  5
296
330
1F
100
AcDbEntity
  8
0
  6
CONTINUOUS
 62
     7
100
AcDbBlockReference
  2
SW_BROKEN_VIEW_1
 10
0.0
 20
0.0
 30
0.0
  0
LINE
  5
297
330
1F
100
AcDbEntity
  8
0
  6
CONTINUOUS
 62
     7
100
AcDbLine
 10
397.8029302205
 20
492.5942581534
 30
0.0
 11
397.8029302205
 21
490.4253475755
 31
0.0
  0
LINE
  5
298
330
1F
100
AcDbEntity
  8
0
  6
CONTINUOUS
 62
     7
100
AcDbLine
 10
421.8029788579
 20
490.4253475755
 30
0.0
 11
421.8029788579
 21
492.5942581534
 31
0.0
  0
ARC
  5
299
330
1F
100
AcDbEntity
  8
0
  6
CONTINUOUS
 62
     7
100
AcDbCircle
 10
398.103270562
 20
492.5940658729
 30
0.0
 40
0.3003404030573746
100
AcDbArc
 50
135.1908987497
 51
179.963318747
  0
ARC
  5
29A
330
1F
100
AcDbEntity
  8
0
  6
CONTINUOUS
 62
     7
100
AcDbCircle
 10
421.5026385164
 20
492.5940658729
 30
0.0
 40
0.3003404030574721
100
AcDbArc
 50
0.036681253
 51
44.8091012503
  0
LINE
  5
29B
330
1F
100
AcDbEntity
  8
0
  6
CONTINUOUS
 62
     7
100
AcDbLine
 10
397.8029302205
 20
500.8253466725
 30
0.0
 11
397.8029302205
 21
498.6564360946
 31
0.0
  0
LINE
  5
29C
330
1F
100
AcDbEntity
  8
0
  6
CONTINUOUS
 62
     7
100
AcDbLine
 10
421.8029788579
 20
498.6564360946
 30
0.0
 11
421.8029788579
 21
500.8253466725
 31
0.0
  0
ARC
  5
29D
330
1F
100
AcDbEntity
  8
0
  6
CONTINUOUS
 62
     7
100
AcDbCircle
 10
398.1030144596
 20
500.8252628454
 30
0.0
 40
0.3000842507517135
100
AcDbArc
 50
90.0065790013
 51
179.9839947035
  0
ARC
  5
29E
330
1F
100
AcDbEntity
  8
0
  6
CONTINUOUS
 62
     7
100
AcDbCircle
 10
421.5028946189
 20
500.8252628454
 30
0.0
 40
0.3000842507517135
100
AcDbArc
 50
0.0160052965
 51
89.9934209987
  0
ARC
  5
29F
330
1F
100
AcDbEntity
  8
0
  6
CONTINUOUS
 62
     7
100
AcDbCircle
 10
398.1030144594
 20
490.4254304708
 30
0.0
 40
0.3000842503099028
100
AcDbArc
 50
180.0158273926
 51
269.9934210337
  0
ARC
  5
2A0
330
1F
100
AcDbEntity
  8
0
  6
CONTINUOUS
 62
     7
100
AcDbCircle
 10
421.5028946191
 20
490.4254304708
 30
0.0
 40
0.3000842503099028
100
AcDbArc
 50
270.0065789663
 51
359.9841726074
  0
ARC
  5
2A1
330
1F
100
AcDbEntity
  8
0
  6
CONTINUOUS
 62
     7
100
AcDbCircle
 10
398.103270562
 20
498.6566283751
 30
0.0
 40
0.3003404030573746
100
AcDbArc
 50
180.036681253
 51
224.8091012503
  0
ARC
  5
2A2
330
1F
100
AcDbEntity
  8
0
  6
CONTINUOUS
 62
     7
100
AcDbCircle
 10
421.5026385164
 20
498.6566283751
 30
0.0
 40
0.3003404030574152
100
AcDbArc
 50
315.1908987497
 51
359.963318747
  0
ARC
  5
2A3
330
1F
100
AcDbEntity
  8
0
  6
CONTINUOUS
 62
     7
100
AcDbCircle
 10
395.0529027716
 20
495.625347124
 30
0.0
 40
4.000056059149071
100
AcDbArc
 50
315.1789832885
 51
44.8210167115
  0
ARC
  5
2A4
330
1F
100
AcDbEntity
  8
0
  6
CONTINUOUS
 62
     7
100
AcDbCircle
 10
424.5530063068
 20
495.625347124
 30
0.0
 40
4.00005605914903
100
AcDbArc
 50
135.1789832885
 51
224.8210167115
  0
ARC
  5
2A5
330
1F
100
AcDbEntity
  8
0
  6
CONTINUOUS
 62
     7
100
AcDbCircle
 10
458.1030168436
 20
490.4254304708
 30
0.0
 40
0.3000842503099028
100
AcDbArc
 50
180.0158273926
 51
269.9934210337
  0
ARC
  5
2A6
330
1F
100
AcDbEntity
  8
0
  6
CONTINUOUS
 62
     7
100
AcDbCircle
 10
481.5029987484
 20
490.4253287092
 30
0.0
 40
0.2999824942570011
100
AcDbArc
 50
269.9871481627
 51
0.003603411
  0
ARC
  5
2A7
330
1F
100
AcDbEntity
  8
0
  6
CONTINUOUS
 62
     7
100
AcDbCircle
 10
458.1028780582
 20
492.5942887734
 30
0.0
 40
0.2999454550428184
100
AcDbArc
 50
135.1759702559
 51
180.0058490541
  0
ARC
  5
2A8
330
1F
100
AcDbEntity
  8
0
  6
CONTINUOUS
 62
     7
100
AcDbCircle
 10
481.5033151614
 20
492.5943440984
 30
0.0
 40
0.2996660929866188
100
AcDbArc
 50
359.9835674315
 51
44.8622150717
  0
LINE
  5
2A9
330
1F
100
AcDbEntity
  8
0
  6
CONTINUOUS
 62
     7
100
AcDbLine
 10
457.8029326047
 20
500.8253466725
 30
0.0
 11
457.8029326047
 21
498.6564360946
 31
0.0
  0
LINE
  5
2AA
330
1F
100
AcDbEntity
  8
0
  6
CONTINUOUS
 62
     7
100
AcDbLine
 10
481.8029812421
 20
498.6564360946
 30
0.0
 11
481.8029812421
 21
500.8253466725
 31
0.0
  0
ARC
  5
2AB
330
1F
100
AcDbEntity
  8
0
  6
CONTINUOUS
 62
     7
100
AcDbCircle
 10
458.1028780582
 20
498.6564054746
 30
0.0
 40
0.2999454550428184
100
AcDbArc
 50
179.9941509459
 51
224.8240297441
  0
ARC
  5
2AC
330
1F
100
AcDbEntity
  8
0
  6
CONTINUOUS
 62
     7
100
AcDbCircle
 10
481.5033151614
 20
498.6563501497
 30
0.0
 40
0.2996660929866756
100
AcDbArc
 50
315.1377849283
 51
0.0164325685
  0
LINE
  5
2AD
330
1F
100
AcDbEntity
  8
0
  6
CONTINUOUS
 62
     7
100
AcDbLine
 10
457.8029326047
 20
492.5942581534
 30
0.0
 11
457.8029326047
 21
490.4253475755
 31
0.0
  0
LINE
  5
2AE
330
1F
100
AcDbEntity
  8
0
  6
CONTINUOUS
 62
     7
100
AcDbLine
 10
481.8029812421
 20
490.4253475755
 30
0.0
 11
481.8029812421
 21
492.5942581534
 31
0.0
  0
ARC
  5
2AF
330
1F
100
AcDbEntity
  8
0
  6
CONTINUOUS
 62
     7
100
AcDbCircle
 10
458.1030168438
 20
500.8252628454
 30
0.0
 40
0.3000842507517135
100
AcDbArc
 50
90.0065790013
 51
179.9839947035
  0
ARC
  5
2B0
330
1F
100
AcDbEntity
  8
0
  6
CONTINUOUS
 62
     7
100
AcDbCircle
 10
481.5029987485
 20
500.8253646076
 30
0.0
 40
0.2999824941595046
100
AcDbArc
 50
359.9965744502
 51
90.012851845
  0
ARC
  5
2B1
330
1F
100
AcDbEntity
  8
0
  6
CONTINUOUS
 62
     7
100
AcDbCircle
 10
455.0530505891
 20
495.625347124
 30
0.0
 40
3.999910625818472
100
AcDbArc
 50
315.1769130006
 51
44.8230869994
  0
ARC
  5
2B2
330
1F
100
AcDbEntity
  8
0
  6
CONTINUOUS
 62
     7
100
AcDbCircle
 10
484.553008691
 20
495.625347124
 30
0.0
 40
4.000056059149071
100
AcDbArc
 50
135.1789832885
 51
224.8210167115
  0
LINE
  5
2B3
330
1F
100
AcDbEntity
  8
0
  6
CONTINUOUS
 62
     7
100
AcDbLine
 10
462.0529821958
 20
503.6653468773
 30
0.0
 11
462.0529821958
 21
501.4253465846
 31
0.0
  0
LINE
  5
2B4
330
1F
100
AcDbEntity
  8
0
  6
CONTINUOUS
 62
     7
100
AcDbLine
 10
477.552931651
 20
501.4253465846
 30
0.0
 11
477.552931651
 21
503.6653468773
 31
0.0
  0
LINE
  5
2B5
330
1F
100
AcDbEntity
  8
0
  6
CONTINUOUS
 62
     7
100
AcDbLine
 10
475.0529936399
 20
501.1253470942
 30
0.0
 11
475.0529936399
 21
501.4253465846
 31
0.0
  0
LINE
  5
2B6
330
1F
100
AcDbEntity
  8
0
  6
CONTINUOUS
 62
     7
100
AcDbLine
 10
464.5529798116
 20
501.4253465846
 30
0.0
 11
464.5529798116
 21
501.1253470942
 31
0.0
  0
LINE
  5
2B7
330
1F
100
AcDbEntity
  8
0
  6
CONTINUOUS
 62
     7
100
AcDbLine
 10
402.0529798116
 20
503.6653468773
 30
0.0
 11
402.0529798116
 21
501.4253465846
 31
0.0
  0
LINE
  5
2B8
330
1F
100
AcDbEntity
  8
0
  6
CONTINUOUS
 62
     7
100
AcDbLine
 10
417.5529292669
 20
501.4253465846
 30
0.0
 11
417.5529292669
 21
503.6653468773
 31
0.0
  0
LINE
  5
2B9
330
1F
100
AcDbEntity
  8
0
  6
CONTINUOUS
 62
     7
100
AcDbLine
 10
415.052931651
 20
501.1253470942
 30
0.0
 11
415.052931651
 21
501.4253465846
 31
0.0
  0
LINE
  5
2BA
330
1F
100
AcDbEntity
  8
0
  6
CONTINUOUS
 62
     7
100
AcDbLine
 10
404.5529774274
 20
501.4253465846
 30
0.0
 11
404.5529774274
 21
501.1253470942
 31
0.0
  0
LINE
  5
2BB
330
1F
100
AcDbEntity
  8
0
  6
CONTINUOUS
 62
     7
100
AcDbLine
 10
716.8845347013
 20
491.758714655
 30
0.0
 11
497.3029306974
 21
491.758714655
 31
0.0
  0
LINE
  5
2BC
330
1F
100
AcDbEntity
  8
0
  6
CONTINUOUS
 62
     7
100
AcDbLine
 10
487.3029402341
 20
491.758714655
 30
0.0
 11
481.8029812421
 21
491.758714655
 31
0.0
  0
LINE
  5
2BD
330
1F
100
AcDbEntity
  8
0
  6
CONTINUOUS
 62
     7
100
AcDbLine
 10
457.8029326047
 20
491.758714655
 30
0.0
 11
421.8029788579
 21
491.758714655
 31
0.0
  0
LINE
  5
2BE
330
1F
100
AcDbEntity
  8
0
  6
CONTINUOUS
 62
     7
100
AcDbLine
 10
397.8029302205
 20
491.758714655
 30
0.0
 11
371.7902711477
 21
491.758714655
 31
0.0
  0
LINE
  5
2BF
330
1F
100
AcDbEntity
  8
0
  6
CONTINUOUS
 62
     7
100
AcDbLine
 10
369.1358378972
 20
499.491979593
 30
0.0
 11
397.8029302205
 21
499.491979593
 31
0.0
  0
LINE
  5
2C0
330
1F
100
AcDbEntity
  8
0
  6
CONTINUOUS
 62
     7
100
AcDbLine
 10
421.8029788579
 20
499.491979593
 30
0.0
 11
457.8029326047
 21
499.491979593
 31
0.0
  0
LINE
  5
2C1
330
1F
100
AcDbEntity
  8
0
  6
CONTINUOUS
 62
     7
100
AcDbLine
 10
481.8029812421
 20
499.491979593
 30
0.0
 11
487.3029402341
 21
499.491979593
 31
0.0
  0
LINE
  5
2C2
330
1F
100
AcDbEntity
  8
0
  6
CONTINUOUS
 62
     7
100
AcDbLine
 10
497.3029306974
 20
499.491979593
 30
0.0
 11
716.8845347013
 21
499.491979593
 31
0.0
  0
LINE
  5
2C3
330
1F
100
AcDbEntity
  8
0
  6
CONTINUOUS
 62
     7
100
AcDbLine
 10
454.3029478635
 20
501.6253471762
 30
0.0
 11
454.3029478635
 21
503.1653467953
 31
0.0
  0
LINE
  5
2C4
330
1F
100
AcDbEntity
  8
0
  6
CONTINUOUS
 62
     7
100
AcDbLine
 10
425.3029635991
 20
503.1653467953
 30
0.0
 11
425.3029635991
 21
501.6253471762
 31
0.0
  0
LINE
  5
2C5
330
1F
100
AcDbEntity
  8
0
  6
CONTINUOUS
 62
     7
100
AcDbLine
 10
425.3029635991
 20
503.1653467953
 30
0.0
 11
454.3029478635
 21
503.1653467953
 31
0.0
  0
LINE
  5
2C6
330
1F
100
AcDbEntity
  8
0
  6
CONTINUOUS
 62
     7
100
AcDbLine
 10
424.8029402341
 20
520.4653472096
 30
0.0
 11
424.8029402341
 21
518.665346542
 31
0.0
  0
LINE
  5
2C7
330
1F
100
AcDbEntity
  8
0
  6
CONTINUOUS
 62
     7
100
AcDbLine
 10
454.8029712285
 20
520.4653472096
 30
0.0
 11
454.8029712285
 21
518.665346542
 31
0.0
  0
LINE
  5
2C8
330
1F
100
AcDbEntity
  8
0
  6
CONTINUOUS
 62
     7
100
AcDbLine
 10
424.8029402341
 20
518.665346542
 30
0.0
 11
454.8029712285
 21
518.665346542
 31
0.0
  0
LINE
  5
2C9
330
1F
100
AcDbEntity
  8
0
  6
CONTINUOUS
 62
     7
100
AcDbLine
 10
424.8029402341
 20
520.4653472096
 30
0.0
 11
454.8029712285
 21
520.4653472096
 31
0.0
  0
LINE
  5
2CA
330
1F
100
AcDbEntity
  8
0
  6
CONTINUOUS
 62
     7
100
AcDbLine
 10
454.8029712285
 20
503.1653467953
 30
0.0
 11
454.8029712285
 21
501.6253471762
 31
0.0
  0
LINE
  5
2CB
330
1F
100
AcDbEntity
  8
0
  6
CONTINUOUS
 62
     7
100
AcDbLine
 10
454.3029478635
 20
503.1653467953
 30
0.0
 11
454.8029712285
 21
503.1653467953
 31
0.0
  0
LINE
  5
2CC
330
1F
100
AcDbEntity
  8
0
  6
CONTINUOUS
 62
     7
100
AcDbLine
 10
424.8029402341
 20
501.6253471762
 30
0.0
 11
424.8029402341
 21
503.1653467953
 31
0.0
  0
LINE
  5
2CD
330
1F
100
AcDbEntity
  8
0
  6
CONTINUOUS
 62
     7
100
AcDbLine
 10
424.8029402341
 20
503.1653467953
 30
0.0
 11
425.3029635991
 21
503.1653467953
 31
0.0
  0
LINE
  5
2CE
330
1F
100
AcDbEntity
  8
0
  6
CONTINUOUS
 62
     7
100
AcDbLine
 10
424.8029402341
 20
503.1653467953
 30
0.0
 11
424.8029402341
 21
503.6653468773
 31
0.0
  0
LINE
  5
2CF
330
1F
100
AcDbEntity
  8
0
  6
CONTINUOUS
 62
     7
100
AcDbLine
 10
424.8029402341
 20
518.16534646
 30
0.0
 11
424.8029402341
 21
518.665346542
 31
0.0
  0
LINE
  5
2D0
330
1F
100
AcDbEntity
  8
0
  6
CONTINUOUS
 62
     7
100
AcDbLine
 10
454.8029712285
 20
503.1653467953
 30
0.0
 11
454.8029712285
 21
503.6653468773
 31
0.0
  0
LINE
  5
2D1
330
1F
100
AcDbEntity
  8
0
  6
CONTINUOUS
 62
     7
100
AcDbLine
 10
454.8029712285
 20
518.16534646
 30
0.0
 11
454.8029712285
 21
518.665346542
 31
0.0
  0
LINE
  5
2D2
330
1F
100
AcDbEntity
  8
0
  6
CONTINUOUS
 62
     7
100
AcDbLine
 10
497.3029306974
 20
486.1653477341
 30
0.0
 11
487.3029402341
 21
486.1653477341
 31
0.0
  0
LINE
  5
2D3
330
1F
100
AcDbEntity
  8
0
  6
CONTINUOUS
 62
     7
100
AcDbLine
 10
497.3029306974
 20
488.1653461993
 30
0.0
 11
497.3029306974
 21
486.1653477341
 31
0.0
  0
LINE
  5
2D4
330
1F
100
AcDbEntity
  8
0
  6
CONTINUOUS
 62
     7
100
AcDbLine
 10
487.3029402341
 20
486.1653477341
 30
0.0
 11
487.3029402341
 21
488.1653461993
 31
0.0
  0
LINE
  5
2D5
330
1F
100
AcDbEntity
  8
0
  6
CONTINUOUS
 62
     7
100
AcDbLine
 10
487.3029402341
 20
535.6653474659
 30
0.0
 11
497.3029306974
 21
535.6653474659
 31
0.0
  0
LINE
  5
2D6
330
1F
100
AcDbEntity
  8
0
  6
CONTINUOUS
 62
     7
100
AcDbLine
 10
497.3029306974
 20
535.6653474659
 30
0.0
 11
497.3029306974
 21
533.665347138
 31
0.0
  0
LINE
  5
2D7
330
1F
100
AcDbEntity
  8
0
  6
CONTINUOUS
 62
     7
100
AcDbLine
 10
487.3029402341
 20
533.665347138
 30
0.0
 11
487.3029402341
 21
535.6653474659
 31
0.0
  0
LINE
  5
2D8
330
1F
100
AcDbEntity
  8
0
  6
CONTINUOUS
 62
     7
100
AcDbLine
 10
497.3029306974
 20
533.665347138
 30
0.0
 11
497.3029306974
 21
488.1653461993
 31
0.0
  0
LINE
  5
2D9
330
1F
100
AcDbEntity
  8
0
  6
CONTINUOUS
 62
     7
100
AcDbLine
 10
487.3029402341
 20
533.665347138
 30
0.0
 11
487.3029402341
 21
488.1653461993
 31
0.0
  0
LINE
  5
2DA
330
1F
100
AcDbEntity
  8
0
  6
CONTINUOUS
 62
     7
100
AcDbLine
 10
398.1029800023
 20
501.1253470942
 30
0.0
 11
421.5029290761
 21
501.1253470942
 31
0.0
  0
LINE
  5
2DB
330
1F
100
AcDbEntity
  8
0
  6
CONTINUOUS
 62
     7
100
AcDbLine
 10
398.1029800023
 20
490.1253462225
 30
0.0
 11
421.5029290761
 21
490.1253462225
 31
0.0
  0
LINE
  5
2DC
330
1F
100
AcDbEntity
  8
0
  6
CONTINUOUS
 62
     7
100
AcDbLine
 10
458.1029823865
 20
490.1253462225
 30
0.0
 11
481.5029314603
 21
490.1253462225
 31
0.0
  0
LINE
  5
2DD
330
1F
100
AcDbEntity
  8
0
  6
CONTINUOUS
 62
     7
100
AcDbLine
 10
458.1029823865
 20
501.1253470942
 30
0.0
 11
481.5029314603
 21
501.1253470942
 31
0.0
  0
LINE
  5
2DE
330
1F
100
AcDbEntity
  8
0
  6
CONTINUOUS
 62
     7
100
AcDbLine
 10
473.6779144849
 20
501.4253465846
 30
0.0
 11
462.0529821958
 21
501.4253465846
 31
0.0
  0
LINE
  5
2DF
330
1F
100
AcDbEntity
  8
0
  6
CONTINUOUS
 62
     7
100
AcDbLine
 10
477.552931651
 20
501.4253465846
 30
0.0
 11
473.6779144849
 21
501.4253465846
 31
0.0
  0
LINE
  5
2E0
330
1F
100
AcDbEntity
  8
0
  6
CONTINUOUS
 62
     7
100
AcDbLine
 10
413.6779717054
 20
501.4253465846
 30
0.0
 11
402.0529798116
 21
501.4253465846
 31
0.0
  0
LINE
  5
2E1
330
1F
100
AcDbEntity
  8
0
  6
CONTINUOUS
 62
     7
100
AcDbLine
 10
417.5529292669
 20
501.4253465846
 30
0.0
 11
413.6779717054
 21
501.4253465846
 31
0.0
  0
LINE
  5
2E2
330
1F
100
AcDbEntity
  8
0
  6
CONTINUOUS
 62
     7
100
AcDbLine
 10
413.2670572843
 20
490.1253462225
 30
0.0
 11
413.2670572843
 21
488.625346908
 31
0.0
  0
LINE
  5
2E3
330
1F
100
AcDbEntity
  8
0
  6
CONTINUOUS
 62
     7
100
AcDbLine
 10
406.3388517942
 20
490.1253462225
 30
0.0
 11
406.3388517942
 21
488.625346908
 31
0.0
  0
LINE
  5
2E4
330
1F
100
AcDbEntity
  8
0
  6
CONTINUOUS
 62
     7
100
AcDbLine
 10
406.3388517942
 20
488.625346908
 30
0.0
 11
413.2670572843
 21
488.625346908
 31
0.0
  0
LINE
  5
2E5
330
1F
100
AcDbEntity
  8
0
  6
CONTINUOUS
 62
     7
100
AcDbLine
 10
402.8747490491
 20
490.1253462225
 30
0.0
 11
402.8747490491
 21
488.625346908
 31
0.0
  0
LINE
  5
2E6
330
1F
100
AcDbEntity
  8
0
  6
CONTINUOUS
 62
     7
100
AcDbLine
 10
402.8747490491
 20
488.625346908
 30
0.0
 11
406.3388517942
 21
488.625346908
 31
0.0
  0
LINE
  5
2E7
330
1F
100
AcDbEntity
  8
0
  6
CONTINUOUS
 62
     7
100
AcDbLine
 10
416.7311600293
 20
490.1253462225
 30
0.0
 11
416.7311600293
 21
488.625346908
 31
0.0
  0
LINE
  5
2E8
330
1F
100
AcDbEntity
  8
0
  6
CONTINUOUS
 62
     7
100
AcDbLine
 10
413.2670572843
 20
488.625346908
 30
0.0
 11
416.7311600293
 21
488.625346908
 31
0.0
  0
LINE
  5
2E9
330
1F
100
AcDbEntity
  8
0
  6
CONTINUOUS
 62
     7
100
AcDbLine
 10
473.2670000638
 20
490.1253462225
 30
0.0
 11
473.2670000638
 21
488.625346908
 31
0.0
  0
LINE
  5
2EA
330
1F
100
AcDbEntity
  8
0
  6
CONTINUOUS
 62
     7
100
AcDbLine
 10
466.3388541784
 20
490.1253462225
 30
0.0
 11
466.3388541784
 21
488.625346908
 31
0.0
  0
LINE
  5
2EB
330
1F
100
AcDbEntity
  8
0
  6
CONTINUOUS
 62
     7
100
AcDbLine
 10
466.3388541784
 20
488.625346908
 30
0.0
 11
473.2670000638
 21
488.625346908
 31
0.0
  0
LINE
  5
2EC
330
1F
100
AcDbEntity
  8
0
  6
CONTINUOUS
 62
     7
100
AcDbLine
 10
462.8747514333
 20
490.1253462225
 30
0.0
 11
462.8747514333
 21
488.625346908
 31
0.0
  0
LINE
  5
2ED
330
1F
100
AcDbEntity
  8
0
  6
CONTINUOUS
 62
     7
100
AcDbLine
 10
462.8747514333
 20
488.625346908
 30
0.0
 11
466.3388541784
 21
488.625346908
 31
0.0
  0
LINE
  5
2EE
330
1F
100
AcDbEntity
  8
0
  6
CONTINUOUS
 62
     7
100
AcDbLine
 10
476.7311028089
 20
490.1253462225
 30
0.0
 11
476.7311028089
 21
488.625346908
 31
0.0
  0
LINE
  5
2EF
330
1F
100
AcDbEntity
  8
0
  6
CONTINUOUS
 62
     7
100
AcDbLine
 10
473.2670000638
 20
488.625346908
 30
0.0
 11
476.7311028089
 21
488.625346908
 31
0.0
  0
LINE
  5
2F0
330
1F
100
AcDbEntity
  8
0
  6
CONTINUOUS
 62
     7
100
AcDbLine
 10
482.3029450025
 20
517.1653467618
 30
0.0
 11
397.3029664602
 21
517.1653467618
 31
0.0
  0
LINE
  5
2F1
330
1F
100
AcDbEntity
  8
0
  6
CONTINUOUS
 62
     7
100
AcDbLine
 10
397.3029664602
 20
504.6653470412
 30
0.0
 11
482.3029450025
 21
504.6653470412
 31
0.0
  0
CIRCLE
  5
2F2
330
1F
100
AcDbEntity
  8
0
  6
CONTINUOUS
 62
     7
100
AcDbCircle
 10
459.8029587829
 20
510.9153406795
 30
0.0
 40
3.999997371937976
  0
CIRCLE
  5
2F3
330
1F
100
AcDbEntity
  8
0
  6
CONTINUOUS
 62
     7
100
AcDbCircle
 10
419.8029550717
 20
510.9153476444
 30
0.0
 40
4.000009258358153
  0
LINE
  5
2F4
330
1F
100
AcDbEntity
  8
0
  6
CONTINUOUS
 62
     7
100
AcDbLine
 10
397.3029664602
 20
517.1653467618
 30
0.0
 11
392.3029712285
 21
517.1653467618
 31
0.0
  0
LINE
  5
2F5
330
1F
100
AcDbEntity
  8
0
  6
CONTINUOUS
 62
     7
100
AcDbLine
 10
392.3029712285
 20
504.6653470412
 30
0.0
 11
397.3029664602
 21
504.6653470412
 31
0.0
  0
LINE
  5
2F6
330
1F
100
AcDbEntity
  8
0
  6
CONTINUOUS
 62
     7
100
AcDbLine
 10
392.3029712285
 20
504.6653470412
 30
0.0
 11
392.3029712285
 21
517.1653467618
 31
0.0
  0
LINE
  5
2F7
330
1F
100
AcDbEntity
  8
0
  6
CONTINUOUS
 62
     7
100
AcDbLine
 10
487.3029402341
 20
517.1653467618
 30
0.0
 11
482.3029450025
 21
517.1653467618
 31
0.0
  0
LINE
  5
2F8
330
1F
100
AcDbEntity
  8
0
  6
CONTINUOUS
 62
     7
100
AcDbLine
 10
482.3029450025
 20
518.16534646
 30
0.0
 11
486.3030127134
 21
518.16534646
 31
0.0
  0
LINE
  5
2F9
330
1F
100
AcDbEntity
  8
0
  6
CONTINUOUS
 62
     7
100
AcDbLine
 10
487.3029402341
 20
517.1653467618
 30
0.0
 11
486.3030127134
 21
518.16534646
 31
0.0
  0
LINE
  5
2FA
330
1F
100
AcDbEntity
  8
0
  6
CONTINUOUS
 62
     7
100
AcDbLine
 10
393.3029583539
 20
518.16534646
 30
0.0
 11
397.3029664602
 21
518.16534646
 31
0.0
  0
LINE
  5
2FB
330
1F
100
AcDbEntity
  8
0
  6
CONTINUOUS
 62
     7
100
AcDbLine
 10
393.3029583539
 20
518.16534646
 30
0.0
 11
392.3029712285
 21
517.1653467618
 31
0.0
  0
LINE
  5
2FC
330
1F
100
AcDbEntity
  8
0
  6
CONTINUOUS
 62
     7
100
AcDbLine
 10
482.3029450025
 20
503.6653468773
 30
0.0
 11
397.3029664602
 21
503.6653468773
 31
0.0
  0
LINE
  5
2FD
330
1F
100
AcDbEntity
  8
0
  6
CONTINUOUS
 62
     7
100
AcDbLine
 10
482.3029450025
 20
504.6653470412
 30
0.0
 11
487.3029402341
 21
504.6653470412
 31
0.0
  0
LINE
  5
2FE
330
1F
100
AcDbEntity
  8
0
  6
CONTINUOUS
 62
     7
100
AcDbLine
 10
397.3029664602
 20
518.16534646
 30
0.0
 11
482.3029450025
 21
518.16534646
 31
0.0
  0
CIRCLE
  5
2FF
330
1F
100
AcDbEntity
  8
0
  6
CONTINUOUS
 62
     7
100
AcDbCircle
 10
419.8029434727
 20
510.915340327
 30
0.0
 40
3.399999463246049
  0
CIRCLE
  5
300
330
1F
100
AcDbEntity
  8
0
  6
CONTINUOUS
 62
     7
100
AcDbCircle
 10
459.8029649304
 20
510.915340327
 30
0.0
 40
3.399999463246049
  0
LINE
  5
301
330
1F
100
AcDbEntity
  8
0
  6
CONTINUOUS
 62
     7
100
AcDbLine
 10
487.3029402341
 20
504.6653470412
 30
0.0
 11
486.3030127134
 21
503.6653468773
 31
0.0
  0
LINE
  5
302
330
1F
100
AcDbEntity
  8
0
  6
CONTINUOUS
 62
     7
100
AcDbLine
 10
486.3030127134
 20
503.6653468773
 30
0.0
 11
482.3029450025
 21
503.6653468773
 31
0.0
  0
LINE
  5
303
330
1F
100
AcDbEntity
  8
0
  6
CONTINUOUS
 62
     7
100
AcDbLine
 10
397.3029664602
 20
503.6653468773
 30
0.0
 11
393.3029583539
 21
503.6653468773
 31
0.0
  0
LINE
  5
304
330
1F
100
AcDbEntity
  8
0
  6
CONTINUOUS
 62
     7
100
AcDbLine
 10
393.3029583539
 20
503.6653468773
 30
0.0
 11
392.3029712285
 21
504.6653470412
 31
0.0
  0
LINE
  5
305
330
1F
100
AcDbEntity
  8
0
  6
CONTINUOUS
 62
     7
100
AcDbLine
 10
716.8845347013
 20
491.758714655
 30
0.0
 11
716.8845347013
 21
499.4983302817
 31
0.0
  0
LINE
  5
306
330
1F
100
AcDbEntity
  8
0
  6
CONTINUOUS
 62
     7
100
AcDbLine
 10
716.8845347013
 20
485.6253464162
 30
0.0
 11
716.8845347013
 21
484.6253462523
 31
0.0
  0
LINE
  5
307
330
1F
100
AcDbEntity
  8
0
  6
CONTINUOUS
 62
     7
100
AcDbLine
 10
716.8845347013
 20
484.6253462523
 30
0.0
 11
369.1192082013
 21
484.6253462523
 31
0.0
  0
LINE
  5
308
330
1F
100
AcDbEntity
  8
0
  6
CONTINUOUS
 62
     7
100
AcDbLine
 10
716.8845347013
 20
485.6253464162
 30
0.0
 11
716.8845347013
 21
491.5587149948
 31
0.0
  0
LINE
  5
309
330
1F
100
AcDbEntity
  8
0
  6
CONTINUOUS
 62
     7
100
AcDbLine
 10
716.8845347013
 20
491.758714655
 30
0.0
 11
716.8845347013
 21
491.5587149948
 31
0.0
  0
LINE
  5
30A
330
1F
100
AcDbEntity
  8
0
  6
CONTINUOUS
 62
     7
100
AcDbLine
 10
716.8845347013
 20
499.6919792533
 30
0.0
 11
716.8845347013
 21
500.6253470123
 31
0.0
  0
LINE
  5
30B
330
1F
100
AcDbEntity
  8
0
  6
CONTINUOUS
 62
     7
100
AcDbLine
 10
716.8845347013
 20
499.6919792533
 30
0.0
 11
716.8845347013
 21
499.491979593
 31
0.0
  0
LINE
  5
30C
330
1F
100
AcDbEntity
  8
0
  6
CONTINUOUS
 62
     7
100
AcDbLine
 10
371.269207343
 20
501.6253471762
 30
0.0
 11
402.0529798116
 21
501.6253471762
 31
0.0
  0
LINE
  5
30D
330
1F
100
AcDbEntity
  8
0
  6
CONTINUOUS
 62
     7
100
AcDbLine
 10
417.5529292669
 20
501.6253471762
 30
0.0
 11
462.0529821958
 21
501.6253471762
 31
0.0
  0
LINE
  5
30E
330
1F
100
AcDbEntity
  8
0
  6
CONTINUOUS
 62
     7
100
AcDbLine
 10
477.552931651
 20
501.6253471762
 30
0.0
 11
487.3029402341
 21
501.6253471762
 31
0.0
  0
LINE
  5
30F
330
1F
100
AcDbEntity
  8
0
  6
CONTINUOUS
 62
     7
100
AcDbLine
 10
497.3029306974
 20
501.6253471762
 30
0.0
 11
716.8845347013
 21
501.6253471762
 31
0.0
  0
LINE
  5
310
330
1F
100
AcDbEntity
  8
0
  6
CONTINUOUS
 62
     7
100
AcDbLine
 10
716.8845347013
 20
501.6253471762
 30
0.0
 11
716.8845347013
 21
500.6253470123
 31
0.0
  0
LINE
  5
311
330
1F
100
AcDbEntity
  8
0
  6
CONTINUOUS
 62
     7
100
AcDbLine
 10
363.790260547
 20
491.758714655
 30
0.0
 11
99.7133719858
 21
491.758714655
 31
0.0
  0
LINE
  5
312
330
1F
100
AcDbEntity
  8
0
  6
CONTINUOUS
 62
     7
100
AcDbLine
 10
99.7133719858
 20
499.491979593
 30
0.0
 11
361.1358272966
 21
499.491979593
 31
0.0
  0
LINE
  5
313
330
1F
100
AcDbEntity
  8
0
  6
CONTINUOUS
 62
     7
100
AcDbLine
 10
99.7133719858
 20
491.7523630351
 30
0.0
 11
99.7133719858
 21
499.491979593
 31
0.0
  0
LINE
  5
314
330
1F
100
AcDbEntity
  8
0
  6
CONTINUOUS
 62
     7
100
AcDbLine
 10
361.1191976007
 20
484.6253462523
 30
0.0
 11
99.7133719858
 21
484.6253462523
 31
0.0
  0
LINE
  5
315
330
1F
100
AcDbEntity
  8
0
  6
CONTINUOUS
 62
     7
100
AcDbLine
 10
99.7133719858
 20
484.6253462523
 30
0.0
 11
99.7133719858
 21
485.6253464162
 31
0.0
  0
LINE
  5
316
330
1F
100
AcDbEntity
  8
0
  6
CONTINUOUS
 62
     7
100
AcDbLine
 10
99.7133719858
 20
485.6253464162
 30
0.0
 11
99.7133719858
 21
491.5587149948
 31
0.0
  0
LINE
  5
317
330
1F
100
AcDbEntity
  8
0
  6
CONTINUOUS
 62
     7
100
AcDbLine
 10
99.7133719858
 20
491.5587149948
 30
0.0
 11
99.7133719858
 21
491.758714655
 31
0.0
  0
LINE
  5
318
330
1F
100
AcDbEntity
  8
0
  6
CONTINUOUS
 62
     7
100
AcDbLine
 10
99.7133719858
 20
499.6919792533
 30
0.0
 11
99.7133719858
 21
500.6253470123
 31
0.0
  0
LINE
  5
319
330
1F
100
AcDbEntity
  8
0
  6
CONTINUOUS
 62
     7
100
AcDbLine
 10
99.7133719858
 20
499.491979593
 30
0.0
 11
99.7133719858
 21
499.6919792533
 31
0.0
  0
LINE
  5
31A
330
1F
100
AcDbEntity
  8
0
  6
CONTINUOUS
 62
     7
100
AcDbLine
 10
99.7133719858
 20
501.6253471762
 30
0.0
 11
363.2691967424
 21
501.6253471762
 31
0.0
  0
LINE
  5
31B
330
1F
100
AcDbEntity
  8
0
  6
CONTINUOUS
 62
     7
100
AcDbLine
 10
99.7133719858
 20
500.6253470123
 30
0.0
 11
99.7133719858
 21
501.6253471762
 31
0.0
  0
DIMENSION
  5
31C
330
1F
100
AcDbEntity
  8
OPISY
100
AcDbDimension
  2
*D22
 10
730.8845347013
 20
486.1653468591
 30
0.0
 11
730.8845347013
 21
510.9153468591
 31
0.0
 70
   160
  3
SLDDIMSTYLE0
100
AcDbAlignedDimension
 13
497.3029539643
 23
535.6653468591
 33
0.0
 14
497.3029539643
 24
486.1653468591
 34
0.0
 50
90.0
100
AcDbRotatedDimension
  0
DIMENSION
  5
326
330
1F
100
AcDbEntity
  8
OPISY
100
AcDbDimension
  2
*D23
 10
730.8845347013
 20
486.1653468591
 30
0.0
 11
730.8845347013
 21
463.0032833412
 31
0.0
 70
   160
  3
SLDDIMSTYLE1
100
AcDbAlignedDimension
 13
716.8845347013
 23
484.6253468591
 33
0.0
 14
497.3029539643
 24
486.1653468591
 34
0.0
 50
90.0
100
AcDbRotatedDimension
  0
DIMENSION
  5
333
330
1F
100
AcDbEntity
  8
OPISY
100
AcDbDimension
  2
*D24
 10
85.7133719858
 20
484.6253468591
 30
0.0
 11
85.7133719858
 21
501.3953468591
 31
0.0
 70
   160
  3
SLDDIMSTYLE2
100
AcDbAlignedDimension
 13
397.3029539643
 23
518.1653468591
 33
0.0
 14
99.7133719858
 24
484.6253468591
 34
0.0
 50
90.0
100
AcDbRotatedDimension
  0
DIMENSION
  5
340
330
1F
100
AcDbEntity
  8
OPISY
100
AcDbDimension
  2
*D25
 10
716.8845347013
 20
470.6253468591
 30
0.0
 11
408.2989533435
 21
470.6253468591
 31
0.0
 70
   160
  1
L max = 3000mm
  3
SLDDIMSTYLE0
100
AcDbAlignedDimension
 13
99.7133719858
 23
484.6253468591
 33
0.0
 14
716.8845347013
 24
484.6253468591
 34
0.0
100
AcDbRotatedDimension
  0
INSERT
  5
356
330
1F
100
AcDbEntity
  8
OPISY
100
AcDbBlockReference
  2
SW_CENTERMARKSYMBOL_15
 10
419.8029450025
 20
510.9153468433
 30
0.0
  0
INSERT
  5
362
330
1F
100
AcDbEntity
  8
OPISY
100
AcDbBlockReference
  2
SW_CENTERMARKSYMBOL_16
 10
459.8029664602
 20
510.9153468433
 30
0.0
  0
LINE
  5
363
330
1F
100
AcDbEntity
  8
0
  6
HIDDEN
 62
     7
100
AcDbLine
 10
362.1942006496
 20
507.9753468591
 30
0.0
 11
366.1942006496
 21
504.5503468591
 31
0.0
  0
LINE
  5
364
330
1F
100
AcDbEntity
  8
0
  6
HIDDEN
 62
     7
100
AcDbLine
 10
366.1942006496
 20
504.5503468591
 30
0.0
 11
358.1942006496
 21
496.5503468591
 31
0.0
  0
LINE
  5
365
330
1F
100
AcDbEntity
  8
0
  6
HIDDEN
 62
     7
100
AcDbLine
 10
358.1942006496
 20
496.5503468591
 30
0.0
 11
366.1942006496
 21
489.7003468591
 31
0.0
  0
LINE
  5
366
330
1F
100
AcDbEntity
  8
0
  6
HIDDEN
 62
     7
100
AcDbLine
 10
366.1942006496
 20
489.7003468591
 30
0.0
 11
358.1942006496
 21
481.7003468591
 31
0.0
  0
LINE
  5
367
330
1F
100
AcDbEntity
  8
0
  6
HIDDEN
 62
     7
100
AcDbLine
 10
358.1942006496
 20
481.7003468591
 30
0.0
 11
362.1942006496
 21
478.2753468591
 31
0.0
  0
LINE
  5
368
330
1F
100
AcDbEntity
  8
0
  6
HIDDEN
 62
     7
100
AcDbLine
 10
370.1942006496
 20
507.9753468591
 30
0.0
 11
374.1942006496
 21
504.5503468591
 31
0.0
  0
LINE
  5
369
330
1F
100
AcDbEntity
  8
0
  6
HIDDEN
 62
     7
100
AcDbLine
 10
374.1942006496
 20
504.5503468591
 30
0.0
 11
366.1942006496
 21
496.5503468591
 31
0.0
  0
LINE
  5
36A
330
1F
100
AcDbEntity
  8
0
  6
HIDDEN
 62
     7
100
AcDbLine
 10
366.1942006496
 20
496.5503468591
 30
0.0
 11
374.1942006496
 21
489.7003468591
 31
0.0
  0
LINE
  5
36B
330
1F
100
AcDbEntity
  8
0
  6
HIDDEN
 62
     7
100
AcDbLine
 10
374.1942006496
 20
489.7003468591
 30
0.0
 11
366.1942006496
 21
481.7003468591
 31
0.0
  0
LINE
  5
36C
330
1F
100
AcDbEntity
  8
0
  6
HIDDEN
 62
     7
100
AcDbLine
 10
366.1942006496
 20
481.7003468591
 30
0.0
 11
370.1942006496
 21
478.2753468591
 31
0.0
  0
LINE
  5
36D
330
1F
100
AcDbEntity
  8
OPISY
  6
CENTERX2
 48
2.0
100
AcDbLine
 10
409.8029545392
 20
505.1253468185
 30
0.0
 11
409.8029545392
 21
486.1253474295
 31
0.0
  0
LINE
  5
36E
330
1F
100
AcDbEntity
  8
OPISY
  6
CENTERX2
 48
2.0
100
AcDbLine
 10
469.8028973188
 20
505.1253468185
 30
0.0
 11
469.8028973188
 21
486.1253474295
 31
0.0
  0
LINE
  5
36F
330
1F
100
AcDbEntity
  8
0
  6
CONTINUOUS
 62
     7
100
AcDbLine
 10
301.6045962068
 20
174.9226372261
 30
0.0
 11
306.5666232797
 21
177.787147047
 31
0.0
  0
SPLINE
  5
370
330
1F
100
AcDbEntity
  8
0
  6
CONTINUOUS
 62
     7
100
AcDbSpline
210
0.0
220
0.0
230
1.0
 70
     8
 71
     3
 72
    10
 73
     6
 74
     0
 42
0.00000001
 43
0.00000001
 40
0.0
 40
0.0
 40
0.0
 40
0.0
 40
0.353420941404862
 40
0.7101053195354675
 40
0.9999999999999999
 40
0.9999999999999999
 40
0.9999999999999999
 40
0.9999999999999999
 10
294.0470848771197
 20
182.9419057387966
 30
0.0
 10
294.1235833742844
 20
182.1931621852943
 30
0.0
 10
294.2772867444274
 20
180.6887612910056
 30
0.0
 10
294.3411518474528
 20
178.5569845500614
 30
0.0
 10
294.2644984194334
 20
177.181956370335
 30
0.0
 10
294.2301307412249
 20
176.5654604453701
 30
0.0
  0
SPLINE
  5
371
330
1F
100
AcDbEntity
  8
0
  6
CONTINUOUS
 62
     7
100
AcDbSpline
210
0.0
220
0.0
230
1.0
 70
     8
 71
     3
 72
     9
 73
     5
 74
     0
 42
0.00000001
 43
0.00000001
 40
0.0
 40
0.0
 40
0.0
 40
0.0
 40
0.9184211626654772
 40
1.0
 40
1.0
 40
1.0
 40
1.0
 10
307.2420631142717
 20
178.5872797984738
 30
0.0
 10
307.2473979717839
 20
179.4066033070241
 30
0.0
 10
307.2532066984652
 20
180.2987032954134
 30
0.0
 10
307.1741827999955
 20
181.1861817064413
 30
0.0
 10
307.1677361222368
 20
181.2585811633725
 30
0.0
  0
LINE
  5
372
330
1F
100
AcDbEntity
  8
0
  6
CONTINUOUS
 62
     7
100
AcDbLine
 10
252.1372113916
 20
189.0428583641
 30
0.0
 11
251.7236743661
 21
188.8041119594
 31
0.0
  0
LINE
  5
373
330
1F
100
AcDbEntity
  8
0
  6
CONTINUOUS
 62
     7
100
AcDbLine
 10
262.5777397843
 20
196.8020420093
 30
0.0
 11
251.387265751
 21
190.341941597
 31
0.0
  0
LINE
  5
374
330
1F
100
AcDbEntity
  8
0
  6
CONTINUOUS
 62
     7
100
AcDbLine
 10
263.8904128762
 20
182.549140932
 30
0.0
 11
264.6746907922
 21
183.0018978138
 31
0.0
  0
SPLINE
  5
375
330
1F
100
AcDbEntity
  8
0
  6
CONTINUOUS
 62
     7
100
AcDbSpline
210
0.0
220
0.0
230
1.0
 70
     8
 71
     3
 72
    11
 73
     7
 74
     0
 42
0.00000001
 43
0.00000001
 40
0.0
 40
0.0
 40
0.0
 40
0.0
 40
0.1031012663334308
 40
0.430802720622648
 40
0.7467771665298125
 40
1.0
 40
1.0
 40
1.0
 40
1.0
 10
269.9641857834917
 20
195.1475362796444
 30
0.0
 10
269.9146016654626
 20
195.2011519270031
 30
0.0
 10
269.7074172757233
 20
195.4251818305286
 30
0.0
 10
269.297131480143
 20
195.7610981541723
 30
0.0
 10
268.7596381734292
 20
196.1096330840842
 30
0.0
 10
268.3747927161014
 20
196.2339345656702
 30
0.0
 10
268.2035837861162
 20
196.2892334479947
 30
0.0
  0
SPLINE
  5
376
330
1F
100
AcDbEntity
  8
0
  6
CONTINUOUS
 62
     7
100
AcDbSpline
210
0.0
220
0.0
230
1.0
 70
     8
 71
     3
 72
    21
 73
    17
 74
     0
 42
0.00000001
 43
0.00000001
 40
0.0
 40
0.0
 40
0.0
 40
0.0
 40
0.042784473436209
 40
0.1068817890579845
 40
0.1772235302934467
 40
0.2581151342796817
 40
0.3484376175181798
 40
0.4441957536903947
 40
0.541854881059097
 40
0.5934535781045169
 40
0.6435575485205043
 40
0.7344230218370479
 40
0.8187268731878756
 40
0.8962828930670158
 40
0.9588583619668756
 40
1.0
 40
1.0
 40
1.0
 40
1.0
 10
249.9634896012407
 20
132.6143364925045
 30
0.0
 10
250.1276201309877
 20
132.52868477481
 30
0.0
 10
250.5376418806899
 20
132.3147144232354
 30
0.0
 10
251.3260883778883
 20
132.3204296528432
 30
0.0
 10
252.2191685765509
 20
132.5654273301326
 30
0.0
 10
253.1246776859464
 20
133.0890960334787
 30
0.0
 10
253.988141794119
 20
133.8466414853811
 30
0.0
 10
254.7582830312032
 20
134.7935773746509
 30
0.0
 10
255.2912522895897
 20
135.7025669780343
 30
0.0
 10
255.6343511587178
 20
136.4854558609038
 30
0.0
 10
255.9006805122468
 20
137.2670594842174
 30
0.0
 10
256.0948277350943
 20
138.2168154527918
 30
0.0
 10
256.0986194754344
 20
139.3118322105798
 30
0.0
 10
255.8375119846802
 20
140.2437985014531
 30
0.0
 10
255.4120671669979
 20
140.9298818870652
 30
0.0
 10
255.0220936083324
 20
141.1523443489806
 30
0.0
 10
254.8674021454913
 20
141.2405889053005
 30
0.0
  0
LINE
  5
377
330
1F
100
AcDbEntity
  8
0
  6
CONTINUOUS
 62
     7
100
AcDbLine
 10
249.1529856416
 20
133.0389897842
 30
0.0
 11
249.8744402619
 21
132.6225023288
 31
0.0
  0
LINE
  5
378
330
1F
100
AcDbEntity
  8
0
  6
CONTINUOUS
 62
     7
100
AcDbLine
 10
254.8740778657
 20
141.2829976101
 30
0.0
 11
254.1525636407
 21
141.6994850654
 31
0.0
  0
SPLINE
  5
379
330
1F
100
AcDbEntity
  8
0
  6
CONTINUOUS
 62
     7
100
AcDbSpline
210
0.0
220
0.0
230
1.0
 70
     8
 71
     3
 72
    21
 73
    17
 74
     0
 42
0.00000001
 43
0.00000001
 40
0.0
 40
0.0
 40
0.0
 40
0.0
 40
0.042784473436209
 40
0.1068817890579845
 40
0.1772235302934467
 40
0.2581151342796817
 40
0.3484376175181798
 40
0.4441957536903947
 40
0.541854881059097
 40
0.5934535781045169
 40
0.6435575485205043
 40
0.7344230218370479
 40
0.8187268731878756
 40
0.8962828930670158
 40
0.9588583619668756
 40
1.0
 40
1.0
 40
1.0
 40
1.0
 10
274.7122321816545
 20
146.9014804381985
 30
0.0
 10
274.8763627114015
 20
146.815828720504
 30
0.0
 10
275.2863844611038
 20
146.6018583689295
 30
0.0
 10
276.0748309583019
 20
146.6075735985371
 30
0.0
 10
276.9679111569648
 20
146.8525712758266
 30
0.0
 10
277.8734202663602
 20
147.3762399791727
 30
0.0
 10
278.7368843745327
 20
148.1337854310751
 30
0.0
 10
279.507025611617
 20
149.0807213203448
 30
0.0
 10
280.0399948700035
 20
149.9897109237283
 30
0.0
 10
280.3830937391315
 20
150.7725998065978
 30
0.0
 10
280.6494230926606
 20
151.5542034299115
 30
0.0
 10
280.843570315508
 20
152.5039593984857
 30
0.0
 10
280.8473620558481
 20
153.5989761562738
 30
0.0
 10
280.5862545650941
 20
154.530942447147
 30
0.0
 10
280.1608097474117
 20
155.2170258327591
 30
0.0
 10
279.7708361887461
 20
155.4394882946746
 30
0.0
 10
279.6161447259051
 20
155.5277328509945
 30
0.0
  0
LINE
  5
37A
330
1F
100
AcDbEntity
  8
0
  6
CONTINUOUS
 62
     7
100
AcDbLine
 10
273.901728222
 20
147.3261337299
 30
0.0
 11
274.6231828424
 21
146.9096462745
 31
0.0
  0
LINE
  5
37B
330
1F
100
AcDbEntity
  8
0
  6
CONTINUOUS
 62
     7
100
AcDbLine
 10
279.6227608415
 20
155.5701415558
 30
0.0
 11
278.9013062211
 21
155.9866290111
 31
0.0
  0
LINE
  5
37C
330
1F
100
AcDbEntity
  8
0
  6
CONTINUOUS
 62
     7
100
AcDbLine
 10
184.2698727342
 20
85.580013277
 30
0.0
 11
191.3409505578
 21
81.4979593773
 31
0.0
  0
LINE
  5
37D
330
1F
100
AcDbEntity
  8
0
  6
CONTINUOUS
 62
     7
100
AcDbLine
 10
249.2022190782
 20
154.3629090805
 30
0.0
 11
242.1312008592
 21
158.4449331779
 31
0.0
  0
LINE
  5
37E
330
1F
100
AcDbEntity
  8
0
  6
CONTINUOUS
 62
     7
100
AcDbLine
 10
296.5783749314
 20
167.4230914135
 30
0.0
 11
289.5073567124
 21
171.5051453132
 31
0.0
  0
LINE
  5
37F
330
1F
100
AcDbEntity
  8
0
  6
CONTINUOUS
 62
     7
100
AcDbLine
 10
169.3807516786
 20
157.3091368694
 30
0.0
 11
169.3807516786
 21
156.9050173778
 31
0.0
  0
LINE
  5
380
330
1F
100
AcDbEntity
  8
0
  6
CONTINUOUS
 62
     7
100
AcDbLine
 10
169.3807516786
 20
151.9550006408
 30
0.0
 11
169.3807516786
 21
150.1839976329
 31
0.0
  0
LINE
  5
381
330
1F
100
AcDbEntity
  8
0
  6
CONTINUOUS
 62
     7
100
AcDbLine
 10
265.1725087854
 20
173.8222460765
 30
0.0
 11
264.8896251412
 21
173.6588995475
 31
0.0
  0
LINE
  5
382
330
1F
100
AcDbEntity
  8
0
  6
CONTINUOUS
 62
     7
100
AcDbLine
 10
222.7461014482
 20
198.3145098705
 30
0.0
 11
222.4632178041
 21
198.1511335392
 31
0.0
  0
LINE
  5
383
330
1F
100
AcDbEntity
  8
0
  6
CONTINUOUS
 62
     7
100
AcDbLine
 10
287.8505264016
 20
171.0269372482
 30
0.0
 11
287.8505264016
 21
171.4059929866
 31
0.0
  0
LINE
  5
384
330
1F
100
AcDbEntity
  8
0
  6
CONTINUOUS
 62
     7
100
AcDbLine
 10
161.1779604646
 20
173.4470050354
 30
0.0
 11
161.1779604646
 21
163.2402460594
 31
0.0
  0
LINE
  5
385
330
1F
100
AcDbEntity
  8
0
  6
CONTINUOUS
 62
     7
100
AcDbLine
 10
241.2317667695
 20
194.8609571476
 30
0.0
 11
241.2317667695
 21
197.9393880386
 31
0.0
  0
LINE
  5
386
330
1F
100
AcDbEntity
  8
0
  6
CONTINUOUS
 62
     7
100
AcDbLine
 10
434.1076288911
 20
51.9319694061
 30
0.0
 11
432.991651127
 21
52.5761764068
 31
0.0
  0
LINE
  5
387
330
1F
100
AcDbEntity
  8
0
  6
CONTINUOUS
 62
     7
100
AcDbLine
 10
72.9079519006
 20
224.2692928333
 30
0.0
 11
161.1779604646
 21
173.3120899219
 31
0.0
  0
LINE
  5
388
330
1F
100
AcDbEntity
  8
0
  6
CONTINUOUS
 62
     7
100
AcDbLine
 10
249.616530964
 20
122.2575526256
 30
0.0
 11
406.7734156343
 21
31.5328161735
 31
0.0
  0
LINE
  5
389
330
1F
100
AcDbEntity
  8
0
  6
CONTINUOUS
 62
     7
100
AcDbLine
 10
72.9079519006
 20
231.1203401107
 30
0.0
 11
165.9592662545
 21
177.4029653091
 31
0.0
  0
LINE
  5
38A
330
1F
100
AcDbEntity
  8
0
  6
CONTINUOUS
 62
     7
100
AcDbLine
 10
250.1014147493
 20
128.8287560959
 30
0.0
 11
407.9308186265
 21
37.71578479
 31
0.0
  0
LINE
  5
38B
330
1F
100
AcDbEntity
  8
0
  6
CONTINUOUS
 62
     7
100
AcDbLine
 10
411.4382539483
 20
37.6297156829
 30
0.0
 11
411.4604864808
 21
37.6168410797
 31
0.0
  0
LINE
  5
38C
330
1F
100
AcDbEntity
  8
0
  6
CONTINUOUS
 62
     7
100
AcDbLine
 10
72.9079519006
 20
219.3637709636
 30
0.0
 11
161.1779604646
 21
168.4065680523
 31
0.0
  0
LINE
  5
38D
330
1F
100
AcDbEntity
  8
0
  6
CONTINUOUS
 62
     7
100
AcDbLine
 10
249.616530964
 20
117.3520605583
 30
0.0
 11
408.096519539
 21
25.8635203857
 31
0.0
  0
LINE
  5
38E
330
1F
100
AcDbEntity
  8
0
  6
CONTINUOUS
 62
     7
100
AcDbLine
 10
417.3342262002
 20
34.3925278206
 30
0.0
 11
414.0768323632
 21
36.2729947586
 31
0.0
  0
LINE
  5
38F
330
1F
100
AcDbEntity
  8
0
  6
CONTINUOUS
 62
     7
100
AcDbLine
 10
432.7845249864
 20
53.5185854454
 30
0.0
 11
275.8670721742
 21
144.1050689239
 31
0.0
  0
LINE
  5
390
330
1F
100
AcDbEntity
  8
0
  6
CONTINUOUS
 62
     7
100
AcDbLine
 10
192.0732532235
 20
192.4782316703
 30
0.0
 11
72.9079519006
 21
261.2709026355
 31
0.0
  0
LINE
  5
391
330
1F
100
AcDbEntity
  8
0
  6
CONTINUOUS
 62
     7
100
AcDbLine
 10
429.4204984399
 20
45.8479444999
 30
0.0
 11
428.9257798883
 21
46.1335103531
 31
0.0
  0
LINE
  5
392
330
1F
100
AcDbEntity
  8
0
  6
CONTINUOUS
 62
     7
100
AcDbLine
 10
415.6618986817
 20
39.3346469421
 30
0.0
 11
423.5468183251
 21
34.7827594299
 31
0.0
  0
LINE
  5
393
330
1F
100
AcDbEntity
  8
0
  6
CONTINUOUS
 62
     7
100
AcDbLine
 10
432.9502258988
 20
45.7490007896
 30
0.0
 11
432.8921709748
 21
45.7824986
 31
0.0
  0
LINE
  5
394
330
1F
100
AcDbEntity
  8
0
  6
CONTINUOUS
 62
     7
100
AcDbLine
 10
72.9079519006
 20
261.2709026355
 30
0.0
 11
72.9079519006
 21
219.3637709636
 31
0.0
  0
LINE
  5
395
330
1F
100
AcDbEntity
  8
0
  6
CONTINUOUS
 62
     7
100
AcDbLine
 10
270.9556494447
 20
194.5688943882
 30
0.0
 11
305.3998027536
 21
183.5427205581
 31
0.0
  0
LINE
  5
396
330
1F
100
AcDbEntity
  8
0
  6
CONTINUOUS
 62
     7
100
AcDbLine
 10
305.3998027536
 20
183.5427205581
 30
0.0
 11
300.2787504884
 21
180.5863897819
 31
0.0
  0
LINE
  5
397
330
1F
100
AcDbEntity
  8
0
  6
CONTINUOUS
 62
     7
100
AcDbLine
 10
300.2787504884
 20
180.5863897819
 30
0.0
 11
295.2152167054
 21
181.9589059372
 31
0.0
  0
SPLINE
  5
398
330
1F
100
AcDbEntity
  8
0
  6
CONTINUOUS
 62
     7
100
AcDbSpline
210
0.0
220
0.0
230
1.0
 70
     8
 71
     3
 72
    12
 73
     8
 74
     0
 42
0.00000001
 43
0.00000001
 40
0.0
 40
0.0
 40
0.0
 40
0.0
 40
0.2747853696366573
 40
0.5076144519237321
 40
0.7009717568083934
 40
0.8800271176541048
 40
1.0
 40
1.0
 40
1.0
 40
1.0
 10
295.2152167054277
 20
181.9589059371609
 30
0.0
 10
295.0230275574596
 20
182.023247434218
 30
0.0
 10
294.6679941394119
 20
182.1421062868845
 30
0.0
 10
294.2491234306954
 20
182.4600485075861
 30
0.0
 10
294.0199274999421
 20
182.8620152296624
 30
0.0
 10
294.053451489193
 20
183.2489537059132
 30
0.0
 10
294.1789890546048
 20
183.4309351193391
 30
0.0
 10
294.2293558808428
 20
183.5039477367062
 30
0.0
  0
SPLINE
  5
399
330
1F
100
AcDbEntity
  8
0
  6
CONTINUOUS
 62
     7
100
AcDbSpline
210
0.0
220
0.0
230
1.0
 70
     8
 71
     3
 72
    12
 73
     8
 74
     0
 42
0.00000001
 43
0.00000001
 40
0.0
 40
0.0
 40
0.0
 40
0.0
 40
0.2509326371625155
 40
0.6268529579072486
 40
0.7518393206500688
 40
0.8764203213782306
 40
1.0
 40
1.0
 40
1.0
 40
1.0
 10
294.2293558808428
 20
183.5039477367062
 30
0.0
 10
291.9390328654361
 20
184.1269975515031
 30
0.0
 10
286.2175939445958
 20
185.6834336681655
 30
0.0
 10
279.3583774212398
 20
187.5617469373626
 30
0.0
 10
273.6636921308908
 20
189.1661811420987
 30
0.0
 10
270.2701461123694
 20
190.1375660137914
 30
0.0
 10
268.0311593280573
 20
190.8428568822302
 30
0.0
 10
266.9161830636126
 20
191.1940794009823
 30
0.0
  0
SPLINE
  5
39A
330
1F
100
AcDbEntity
  8
0
  6
CONTINUOUS
 62
     7
100
AcDbSpline
210
0.0
220
0.0
230
1.0
 70
     8
 71
     3
 72
    10
 73
     6
 74
     0
 42
0.00000001
 43
0.00000001
 40
0.0
 40
0.0
 40
0.0
 40
0.0
 40
0.3546576577176855
 40
0.7102944579272081
 40
1.0
 40
1.0
 40
1.0
 40
1.0
 10
265.537468025313
 20
191.4410512466092
 30
0.0
 10
265.703215847658
 20
191.4296424223133
 30
0.0
 10
266.0351690906327
 20
191.4067932761227
 30
0.0
 10
266.496671509483
 20
191.3196681373688
 30
0.0
 10
266.7862059531045
 20
191.2329905129818
 30
0.0
 10
266.9161830636126
 20
191.1940794009823
 30
0.0
  0
LINE
  5
39B
330
1F
100
AcDbEntity
  8
0
  6
CONTINUOUS
 62
     7
100
AcDbLine
 10
267.1596680375
 20
183.0018978138
 30
0.0
 11
268.0001531335
 21
182.7943246383
 31
0.0
  0
SPLINE
  5
39C
330
1F
100
AcDbEntity
  8
0
  6
CONTINUOUS
 62
     7
100
AcDbSpline
210
0.0
220
0.0
230
1.0
 70
     8
 71
     3
 72
    10
 73
     6
 74
     0
 42
0.00000001
 43
0.00000001
 40
0.0
 40
0.0
 40
0.0
 40
0.0
 40
0.1120924141799298
 40
0.5554738549860698
 40
1.0
 40
1.0
 40
1.0
 40
1.0
 10
271.7742000313861
 20
181.882433177914
 30
0.0
 10
272.6182099558824
 20
181.6889694991193
 30
0.0
 10
276.8007003575423
 20
180.7302604174554
 30
0.0
 10
284.3555595316193
 20
179.1172316601808
 30
0.0
 10
291.0645096796976
 20
177.6909643475312
 30
0.0
 10
294.423309394942
 20
176.9769113082546
 30
0.0
  0
SPLINE
  5
39D
330
1F
100
AcDbEntity
  8
0
  6
CONTINUOUS
 62
     7
100
AcDbSpline
210
0.0
220
0.0
230
1.0
 70
     8
 71
     3
 72
    16
 73
    12
 74
     0
 42
0.00000001
 43
0.00000001
 40
0.0
 40
0.0
 40
0.0
 40
0.0
 40
0.2887065069764647
 40
0.5588448562236931
 40
0.7976403237307051
 40
0.9034341288216349
 40
0.9524290742155673
 40
0.9758007501963271
 40
0.9877442809729868
 40
0.9940973998514594
 40
1.0
 40
1.0
 40
1.0
 40
1.0
 10
300.525513717757
 20
180.4220895785946
 30
0.0
 10
300.8702103171397
 20
180.1819451728603
 30
0.0
 10
301.5374343556283
 20
179.7171012477931
 30
0.0
 10
302.4890798226847
 20
179.0526289005801
 30
0.0
 10
303.2139240323883
 20
178.5283405892165
 30
0.0
 10
303.6726029551051
 20
178.1854235136401
 30
0.0
 10
303.8811211818263
 20
178.0313412751612
 30
0.0
 10
303.983601550609
 20
177.9637110315483
 30
0.0
 10
304.0393658127783
 20
177.9385635010911
 30
0.0
 10
304.0756040273772
 20
177.9357545634447
 30
0.0
 10
304.0921933353494
 20
177.9429065250281
 30
0.0
 10
304.1001830788713
 20
177.946351053204
 30
0.0
  0
SPLINE
  5
39E
330
1F
100
AcDbEntity
  8
0
  6
CONTINUOUS
 62
     7
100
AcDbSpline
210
0.0
220
0.0
230
1.0
 70
     8
 71
     3
 72
    13
 73
     9
 74
     0
 42
0.00000001
 43
0.00000001
 40
0.0
 40
0.0
 40
0.0
 40
0.0
 40
0.006530556576435
 40
0.0152224458229406
 40
0.26571602900047
 40
0.5245248763946778
 40
0.7720872406809789
 40
1.0
 40
1.0
 40
1.0
 40
1.0
 10
304.1067395897966
 20
177.7262907046933
 30
0.0
 10
304.098343075794
 20
177.7200945598687
 30
0.0
 10
304.0787711636593
 20
177.7056516134215
 30
0.0
 10
303.8197259201424
 20
177.3679674981909
 30
0.0
 10
303.4604624354297
 20
176.6196574490299
 30
0.0
 10
302.6575950299332
 20
175.7132662729239
 30
0.0
 10
301.7634608371448
 20
174.9338083841947
 30
0.0
 10
301.0444473677302
 20
174.6791896786399
 30
0.0
 10
300.6997976990802
 20
174.5571415443081
 30
0.0
  0
LINE
  5
39F
330
1F
100
AcDbEntity
  8
0
  6
CONTINUOUS
 62
     7
100
AcDbLine
 10
300.2787504884
 20
180.5863897819
 30
0.0
 11
300.5255137178
 21
180.4220895786
 31
0.0
  0
LINE
  5
3A0
330
1F
100
AcDbEntity
  8
0
  6
CONTINUOUS
 62
     7
100
AcDbLine
 10
300.6997976991
 20
174.5571415443
 30
0.0
 11
300.4591737481
 21
174.5143454094
 31
0.0
  0
LINE
  5
3A1
330
1F
100
AcDbEntity
  8
0
  6
CONTINUOUS
 62
     7
100
AcDbLine
 10
295.4047594758
 20
175.5819540043
 30
0.0
 11
300.4591737481
 21
174.5143454094
 31
0.0
  0
SPLINE
  5
3A2
330
1F
100
AcDbEntity
  8
0
  6
CONTINUOUS
 62
     7
100
AcDbSpline
210
0.0
220
0.0
230
1.0
 70
     8
 71
     3
 72
    12
 73
     8
 74
     0
 42
0.00000001
 43
0.00000001
 40
0.0
 40
0.0
 40
0.0
 40
0.0
 40
0.5005235668118742
 40
0.9709381071557125
 40
0.9888485775459904
 40
0.9951919878980258
 40
0.9999999999999999
 40
0.9999999999999999
 40
0.9999999999999999
 40
0.9999999999999999
 10
307.1292315217119
 20
181.6587667483944
 30
0.0
 10
307.1526341422053
 20
181.3097413253846
 30
0.0
 10
307.1980315970924
 20
180.6326861255169
 30
0.0
 10
307.1065479952513
 20
179.9238449332923
 30
0.0
 10
306.9602542910816
 20
179.6090162627697
 30
0.0
 10
306.948301418865
 20
179.5922379163189
 30
0.0
 10
306.9420752034748
 20
179.587452599607
 30
0.0
 10
306.9393907281023
 20
179.5853893775601
 30
0.0
  0
LINE
  5
3A3
330
1F
100
AcDbEntity
  8
0
  6
CONTINUOUS
 62
     7
100
AcDbLine
 10
304.1001830789
 20
177.9463510532
 30
0.0
 11
306.9393907281
 21
179.5853893776
 31
0.0
  0
ARC
  5
3A4
330
1F
100
AcDbEntity
  8
0
  6
CONTINUOUS
 62
     7
100
AcDbCircle
 10
302.2412935618
 20
178.9075116023
 30
0.0
 40
5.609041128257623
100
AcDbArc
 50
29.3736903998
 51
55.7288257518
  0
LINE
  5
3A5
330
1F
100
AcDbEntity
  8
0
  6
CONTINUOUS
 62
     7
100
AcDbLine
 10
306.945947239
 20
179.365329029
 30
0.0
 11
304.1067395898
 21
177.7262907047
 31
0.0
  0
SPLINE
  5
3A6
330
1F
100
AcDbEntity
  8
0
  6
CONTINUOUS
 62
     7
100
AcDbSpline
210
0.0
220
0.0
230
1.0
 70
     8
 71
     3
 72
    15
 73
    11
 74
     0
 42
0.00000001
 43
0.00000001
 40
0.0
 40
0.0
 40
0.0
 40
0.0
 40
0.009416273057009
 40
0.0189682354535361
 40
0.0432788456662059
 40
0.0926818132755474
 40
0.1853086529886978
 40
0.3653723092287046
 40
0.6943473141427982
 40
1.0
 40
1.0
 40
1.0
 40
1.0
 10
306.9459472390276
 20
179.3653290290493
 30
0.0
 10
306.9484641018775
 20
179.3664303879015
 30
0.0
 10
306.9535340957968
 20
179.3686489762857
 30
0.0
 10
306.966383525974
 20
179.3674015484734
 30
0.0
 10
306.9867777827894
 20
179.3531983957612
 30
0.0
 10
307.0152621655181
 20
179.3145717777146
 30
0.0
 10
307.0628977293783
 20
179.2349385495623
 30
0.0
 10
307.1368898591229
 20
179.0792397522748
 30
0.0
 10
307.2361302462631
 20
178.8606133135568
 30
0.0
 10
307.2264566046059
 20
178.675829367734
 30
0.0
 10
307.2217975350481
 20
178.586832763638
 30
0.0
  0
LWPOLYLINE
  5
3A7
330
1F
100
AcDbEntity
  8
0
  6
CONTINUOUS
 62
     7
100
AcDbPolyline
 90
        3
 70
   128
 43
0.0
 10
307.2266851159
 20
178.3805708904
 10
306.7943726274
 20
177.9382150192
 10
306.5666232797
 20
177.787147047
  0
SPLINE
  5
3A8
330
1F
100
AcDbEntity
  8
0
  6
CONTINUOUS
 62
     7
100
AcDbSpline
210
0.0
220
0.0
230
1.0
 70
     8
 71
     3
 72
    11
 73
     7
 74
     0
 42
0.00000001
 43
0.00000001
 40
0.0
 40
0.0
 40
0.0
 40
0.0
 40
0.1849660890346346
 40
0.439632757803394
 40
0.7586582226278704
 40
0.9999999999999999
 40
0.9999999999999999
 40
0.9999999999999999
 40
0.9999999999999999
 10
294.2554031106096
 20
176.565907480206
 30
0.0
 10
294.2585858774788
 20
176.4617174494283
 30
0.0
 10
294.2661507699596
 20
176.2140755665
 30
0.0
 10
294.5824136376811
 20
175.8971657354099
 30
0.0
 10
294.9770947470925
 20
175.6897416346923
 30
0.0
 10
295.2760177961897
 20
175.6144017598281
 30
0.0
 10
295.4047594758136
 20
175.5819540042538
 30
0.0
  0
ARC
  5
3A9
330
1F
100
AcDbEntity
  8
0
  6
CONTINUOUS
 62
     7
100
AcDbCircle
 10
253.1685916158
 20
186.8691853316
 30
0.0
 40
2.405950876239007
100
AcDbArc
 50
56.0112967702
 51
115.3837450216
  0
ARC
  5
3AA
330
1F
100
AcDbEntity
  8
0
  6
CONTINUOUS
 62
     7
100
AcDbCircle
 10
250.6355357216
 20
182.4549062775
 30
0.0
 40
7.491110124659206
100
AcDbArc
 50
23.7730636304
 51
58.822746319
  0
ARC
  5
3AB
330
1F
100
AcDbEntity
  8
0
  6
CONTINUOUS
 62
     7
100
AcDbCircle
 10
249.2755307532
 20
181.6056626989
 30
0.0
 40
9.968266184929885
100
AcDbArc
 50
18.4366042508
 51
58.5496090743
  0
ARC
  5
3AC
330
1F
100
AcDbEntity
  8
0
  6
CONTINUOUS
 62
     7
100
AcDbCircle
 10
252.8108411635
 20
187.893284036
 30
0.0
 40
2.772424858603863
100
AcDbArc
 50
53.071221729
 51
144.9269317224
  0
ARC
  5
3AD
330
1F
100
AcDbEntity
  8
0
  6
CONTINUOUS
 62
     7
100
AcDbCircle
 10
265.0947611052
 20
190.7044140396
 30
0.0
 40
6.596700932019053
100
AcDbArc
 50
42.3336401075
 51
112.4301968926
  0
SPLINE
  5
3AE
330
1F
100
AcDbEntity
  8
0
  6
CONTINUOUS
 62
     7
100
AcDbSpline
210
0.0
220
0.0
230
1.0
 70
     8
 71
     3
 72
     9
 73
     5
 74
     0
 42
0.00000001
 43
0.00000001
 40
0.0
 40
0.0
 40
0.0
 40
0.0
 40
0.6460179971201367
 40
1.0
 40
1.0
 40
1.0
 40
1.0
 10
265.7831583710771
 20
183.1748108882565
 30
0.0
 10
265.505730703404
 20
183.1568341894087
 30
0.0
 10
265.0762880734621
 20
183.1290072574533
 30
0.0
 10
264.6774649980499
 20
182.9726841808881
 30
0.0
 10
264.5362888070208
 20
182.9173486251492
 30
0.0
  0
SPLINE
  5
3AF
330
1F
100
AcDbEntity
  8
0
  6
CONTINUOUS
 62
     7
100
AcDbSpline
210
0.0
220
0.0
230
1.0
 70
     8
 71
     3
 72
     9
 73
     5
 74
     0
 42
0.00000001
 43
0.00000001
 40
0.0
 40
0.0
 40
0.0
 40
0.0
 40
0.5081738305673451
 40
1.0
 40
1.0
 40
1.0
 40
1.0
 10
265.537468025313
 20
191.4410512466092
 30
0.0
 10
265.2605697965616
 20
191.4581807559662
 30
0.0
 10
264.7156809965181
 20
191.4918887281733
 30
0.0
 10
264.1804271907192
 20
191.5991891343824
 30
0.0
 10
263.9171753617388
 20
191.6519622821469
 30
0.0
  0
SPLINE
  5
3B0
330
1F
100
AcDbEntity
  8
0
  6
CONTINUOUS
 62
     7
100
AcDbSpline
210
0.0
220
0.0
230
1.0
 70
     8
 71
     3
 72
     9
 73
     5
 74
     0
 42
0.00000001
 43
0.00000001
 40
0.0
 40
0.0
 40
0.0
 40
0.0
 40
0.686479747940668
 40
0.9999999999999999
 40
0.9999999999999999
 40
0.9999999999999999
 40
0.9999999999999999
 10
267.15966803752
 20
183.0018978137631
 30
0.0
 10
266.8474147661976
 20
183.0684771003698
 30
0.0
 10
266.3925531737626
 20
183.165463627367
 30
0.0
 10
265.9286130085996
 20
183.1725798182858
 30
0.0
 10
265.7831583710771
 20
183.1748108882565
 30
0.0
  0
ARC
  5
3B1
330
1F
100
AcDbEntity
  8
0
  6
CONTINUOUS
 62
     7
100
AcDbCircle
 10
271.8107144467
 20
197.1521882566
 30
0.0
 40
2.721129061315445
100
AcDbArc
 50
227.4695040574
 51
251.685561733
  0
LINE
  5
3B2
330
1F
100
AcDbEntity
  8
0
  6
CONTINUOUS
 62
     7
100
AcDbLine
 10
252.7985249253
 20
174.9929707069
 30
0.0
 11
252.7985249253
 21
177.7333538551
 31
0.0
  0
LINE
  5
3B3
330
1F
100
AcDbEntity
  8
0
  6
CONTINUOUS
 62
     7
100
AcDbLine
 10
252.7985249253
 20
177.7333538551
 30
0.0
 11
248.5558663102
 21
175.2841393966
 31
0.0
  0
LINE
  5
3B4
330
1F
100
AcDbEntity
  8
0
  6
CONTINUOUS
 62
     7
100
AcDbLine
 10
248.5558663102
 20
176.7539005298
 30
0.0
 11
248.5558663102
 21
175.2841393966
 31
0.0
  0
LINE
  5
3B5
330
1F
100
AcDbEntity
  8
0
  6
CONTINUOUS
 62
     7
100
AcDbLine
 10
260.5766926499
 20
183.6933712978
 30
0.0
 11
248.5558663102
 21
176.7539005298
 31
0.0
  0
LINE
  5
3B6
330
1F
100
AcDbEntity
  8
0
  6
CONTINUOUS
 62
     7
100
AcDbLine
 10
260.5766926499
 20
181.3974003811
 30
0.0
 11
260.5766926499
 21
183.6933712978
 31
0.0
  0
LINE
  5
3B7
330
1F
100
AcDbEntity
  8
0
  6
CONTINUOUS
 62
     7
100
AcDbLine
 10
227.342692444
 20
189.0000324268
 30
0.0
 11
227.342692444
 21
187.5302414913
 31
0.0
  0
LINE
  5
3B8
330
1F
100
AcDbEntity
  8
0
  6
CONTINUOUS
 62
     7
100
AcDbLine
 10
227.342692444
 20
189.0000324268
 30
0.0
 11
248.5558663102
 21
176.7539005298
 31
0.0
  0
LINE
  5
3B9
330
1F
100
AcDbEntity
  8
0
  6
CONTINUOUS
 62
     7
100
AcDbLine
 10
227.342692444
 20
187.5302414913
 30
0.0
 11
248.5558663102
 21
175.2841393966
 31
0.0
  0
LINE
  5
3BA
330
1F
100
AcDbEntity
  8
0
  6
CONTINUOUS
 62
     7
100
AcDbLine
 10
239.363459179
 20
195.9395031948
 30
0.0
 11
227.342692444
 21
189.0000324268
 31
0.0
  0
LINE
  5
3BB
330
1F
100
AcDbEntity
  8
0
  6
CONTINUOUS
 62
     7
100
AcDbLine
 10
260.5766926499
 20
183.6933712978
 30
0.0
 11
239.363459179
 21
195.9395031948
 31
0.0
  0
LINE
  5
3BC
330
1F
100
AcDbEntity
  8
0
  6
CONTINUOUS
 62
     7
100
AcDbLine
 10
249.9329124185
 20
132.5902860183
 30
0.0
 11
249.8744402619
 21
132.6225023288
 31
0.0
  0
LWPOLYLINE
  5
3BD
330
1F
100
AcDbEntity
  8
0
  6
CONTINUOUS
 62
     7
100
AcDbPolyline
 90
       19
 70
   128
 43
0.0
 10
254.1621003839
 20
135.6184701938
 10
254.6356592866
 20
136.5435640831
 10
254.8876081201
 20
137.4884467144
 10
254.8876081201
 20
138.3392136116
 10
254.6356592866
 20
138.9931659717
 10
254.1621003839
 20
139.3715064544
 10
253.5240326615
 20
139.4285480995
 10
252.7985249253
 20
139.1574363727
 10
252.0729575845
 20
138.5908644218
 10
251.4349494668
 20
137.797168972
 10
250.9613905641
 20
136.8720750827
 10
250.7094417306
 20
135.9271924514
 10
250.7094417306
 20
135.0764255542
 10
250.9613905641
 20
134.4224731941
 10
251.4349494668
 20
134.0441327114
 10
252.0729575845
 20
133.9870910663
 10
252.7985249253
 20
134.2582027931
 10
253.5240326615
 20
134.824774744
 10
254.1621003839
 20
135.6184701938
  0
SPLINE
  5
3BE
330
1F
100
AcDbEntity
  8
0
  6
CONTINUOUS
 62
     7
100
AcDbSpline
210
0.0
220
0.0
230
1.0
 70
     8
 71
     3
 72
    16
 73
    12
 74
     0
 42
0.00000001
 43
0.00000001
 40
0.0
 40
0.0
 40
0.0
 40
0.0
 40
0.0879668233128212
 40
0.1767970180434596
 40
0.2670177847830928
 40
0.3583516093892785
 40
0.4825659306153643
 40
0.6089967023574394
 40
0.7390863988616697
 40
0.8706064521330475
 40
1.0
 40
1.0
 40
1.0
 40
1.0
 10
254.7935519906145
 20
137.9128913898129
 30
0.0
 10
254.7461043114069
 20
137.8440578192663
 30
0.0
 10
254.6507432664004
 20
137.705715094639
 30
0.0
 10
254.5165803596081
 20
137.4902323564886
 30
0.0
 10
254.3895355554373
 20
137.2668084077963
 30
0.0
 10
254.2582620416121
 20
137.007456046345
 30
0.0
 10
254.1287406200378
 20
136.7091118791572
 30
0.0
 10
254.0083558439915
 20
136.3676033075945
 30
0.0
 10
253.9094143135434
 20
136.0121442215895
 30
0.0
 10
253.83034282172
 20
135.6488420695069
 30
0.0
 10
253.7919312886397
 20
135.4038548572293
 30
0.0
 10
253.7728820534807
 20
135.2823596019406
 30
0.0
  0
SPLINE
  5
3BF
330
1F
100
AcDbEntity
  8
0
  6
CONTINUOUS
 62
     7
100
AcDbSpline
210
0.0
220
0.0
230
1.0
 70
     8
 71
     3
 72
    15
 73
    11
 74
     0
 42
0.00000001
 43
0.00000001
 40
0.0
 40
0.0
 40
0.0
 40
0.0
 40
0.0907860515898522
 40
0.1930045991488257
 40
0.3104366988656017
 40
0.4437940161303639
 40
0.5683374020184668
 40
0.7031362329408762
 40
0.8480209248001763
 40
1.0
 40
1.0
 40
1.0
 40
1.0
 10
253.7728820534807
 20
139.3650393504757
 30
0.0
 10
253.7934894182459
 20
139.3151141848192
 30
0.0
 10
253.837299189751
 20
139.2089768827091
 30
0.0
 10
253.9228421530925
 20
139.0451141080151
 30
0.0
 10
254.0313599190594
 20
138.8652942903747
 30
0.0
 10
254.1579674102792
 20
138.6813160775538
 30
0.0
 10
254.2987353846303
 20
138.4949202821591
 30
0.0
 10
254.4498075934423
 20
138.3078903004317
 30
0.0
 10
254.616010009898
 20
138.1122158151389
 30
0.0
 10
254.7334359243703
 20
137.980383034936
 30
0.0
 10
254.7935519906145
 20
137.9128913898129
 30
0.0
  0
SPLINE
  5
3C0
330
1F
100
AcDbEntity
  8
0
  6
CONTINUOUS
 62
     7
100
AcDbSpline
210
0.0
220
0.0
230
1.0
 70
     8
 71
     3
 72
     9
 73
     5
 74
     0
 42
0.00000001
 43
0.00000001
 40
0.0
 40
0.0
 40
0.0
 40
0.0
 40
0.4971018446100083
 40
0.9999999999999999
 40
0.9999999999999999
 40
0.9999999999999999
 40
0.9999999999999999
 10
251.7316613885028
 20
138.1866555232662
 30
0.0
 10
252.0307420970712
 20
138.4496114894363
 30
0.0
 10
252.6323908574036
 20
138.9785895429707
 30
0.0
 10
253.3912521228772
 20
139.2357259338293
 30
0.0
 10
253.7728820534807
 20
139.3650393504757
 30
0.0
  0
SPLINE
  5
3C1
330
1F
100
AcDbEntity
  8
0
  6
CONTINUOUS
 62
     7
100
AcDbSpline
210
0.0
220
0.0
230
1.0
 70
     8
 71
     3
 72
    16
 73
    12
 74
     0
 42
0.00000001
 43
0.00000001
 40
0.0
 40
0.0
 40
0.0
 40
0.0
 40
0.1293908589256505
 40
0.2569526191935861
 40
0.3844876132731641
 40
0.5133033892231554
 40
0.6416564783654818
 40
0.7318874689591394
 40
0.8215333645917697
 40
0.9110644317950507
 40
1.0
 40
1.0
 40
1.0
 40
1.0
 10
250.7110510560136
 20
135.556123735394
 30
0.0
 10
250.7300709734265
 20
135.6776208889097
 30
0.0
 10
250.7678419383666
 20
135.9188976845017
 30
0.0
 10
250.8453569118224
 20
136.276182383152
 30
0.0
 10
250.9423541534442
 20
136.6280908989814
 30
0.0
 10
251.062972275998
 20
136.9735228937751
 30
0.0
 10
251.194136210867
 20
137.2768000737882
 30
0.0
 10
251.3265251617185
 20
137.5382016814151
 30
0.0
 10
251.4528266757873
 20
137.7609764345327
 30
0.0
 10
251.5874879533116
 20
137.9773771447899
 30
0.0
 10
251.6837106004931
 20
138.117051416601
 30
0.0
 10
251.7316613885027
 20
138.1866555232663
 30
0.0
  0
SPLINE
  5
3C2
330
1F
100
AcDbEntity
  8
0
  6
CONTINUOUS
 62
     7
100
AcDbSpline
210
0.0
220
0.0
230
1.0
 70
     8
 71
     3
 72
    15
 73
    11
 74
     0
 42
0.00000001
 43
0.00000001
 40
0.0
 40
0.0
 40
0.0
 40
0.0
 40
0.1703246314472343
 40
0.3326333473852754
 40
0.4861266176539507
 40
0.6268257539760712
 40
0.7340670711088072
 40
0.8311726118956102
 40
0.9196843163436069
 40
1.0
 40
1.0
 40
1.0
 40
1.0
 10
251.7316613885027
 20
134.1039757747311
 30
0.0
 10
251.6643347866999
 20
134.1796553506907
 30
0.0
 10
251.5328501462495
 20
134.3274528269933
 30
0.0
 10
251.3465588832063
 20
134.5485750192584
 30
0.0
 10
251.1780217790051
 20
134.7614692826127
 30
0.0
 10
251.0378160092093
 20
134.9548027248958
 30
0.0
 10
250.9257647678945
 20
135.1268143180961
 30
0.0
 10
250.8387016137943
 20
135.2777236131901
 30
0.0
 10
250.7672071342979
 20
135.4189651784764
 30
0.0
 10
250.7291539628575
 20
135.5119082443096
 30
0.0
 10
250.7110510560136
 20
135.556123735394
 30
0.0
  0
SPLINE
  5
3C3
330
1F
100
AcDbEntity
  8
0
  6
CONTINUOUS
 62
     7
100
AcDbSpline
210
0.0
220
0.0
230
1.0
 70
     8
 71
     3
 72
     9
 73
     5
 74
     0
 42
0.00000001
 43
0.00000001
 40
0.0
 40
0.0
 40
0.0
 40
0.0
 40
0.5726542606907037
 40
1.0
 40
1.0
 40
1.0
 40
1.0
 10
253.7728820534807
 20
135.2823596019406
 30
0.0
 10
253.3380566619883
 20
135.1322412313507
 30
0.0
 10
252.5787409258793
 20
134.8700963720617
 30
0.0
 10
251.9852760672623
 20
134.3333514361773
 30
0.0
 10
251.7316613885027
 20
134.1039757747311
 30
0.0
  0
SPLINE
  5
3C4
330
1F
100
AcDbEntity
  8
0
  6
CONTINUOUS
 62
     7
100
AcDbSpline
210
0.0
220
0.0
230
1.0
 70
     8
 71
     3
 72
    10
 73
     6
 74
     0
 42
0.00000001
 43
0.00000001
 40
0.0
 40
0.0
 40
0.0
 40
0.0
 40
0.1234653464817399
 40
0.6367105572145653
 40
1.0
 40
1.0
 40
1.0
 40
1.0
 10
251.8556986542804
 20
136.3891284484524
 30
0.0
 10
251.8738546097705
 20
136.5047440317355
 30
0.0
 10
251.9674848377364
 20
137.1009733750499
 30
0.0
 10
252.2369791851118
 20
138.0283752240261
 30
0.0
 10
252.6889745349768
 20
138.7291969513852
 30
0.0
 10
252.8763089867694
 20
139.0196602363247
 30
0.0
  0
LINE
  5
3C5
330
1F
100
AcDbEntity
  8
0
  6
CONTINUOUS
 62
     7
100
AcDbLine
 10
250.7767353746
 20
135.9432559032
 30
0.0
 11
251.8556986543
 21
136.3891284485
 31
0.0
  0
LINE
  5
3C6
330
1F
100
AcDbEntity
  8
0
  6
CONTINUOUS
 62
     7
100
AcDbLine
 10
252.8763089868
 20
139.0196602363
 30
0.0
 11
254.7935519906
 21
137.9128913898
 31
0.0
  0
LINE
  5
3C7
330
1F
100
AcDbEntity
  8
0
  6
CONTINUOUS
 62
     7
100
AcDbLine
 10
251.8556986543
 20
136.3891284485
 30
0.0
 11
253.7728820535
 21
135.2823596019
 31
0.0
  0
LINE
  5
3C8
330
1F
100
AcDbEntity
  8
0
  6
CONTINUOUS
 62
     7
100
AcDbLine
 10
274.6816549989
 20
146.877429964
 30
0.0
 11
274.6231828424
 21
146.9096462745
 31
0.0
  0
LWPOLYLINE
  5
3C9
330
1F
100
AcDbEntity
  8
0
  6
CONTINUOUS
 62
     7
100
AcDbPolyline
 90
       19
 70
   128
 43
0.0
 10
278.9108429643
 20
149.9056141395
 10
279.384401867
 20
150.8307080288
 10
279.6363507005
 20
151.7755906601
 10
279.6363507005
 20
152.6263277549
 10
279.384401867
 20
153.2803099174
 10
278.9108429643
 20
153.6586504001
 10
278.272775242
 20
153.7156920452
 10
277.5472675058
 20
153.4445803184
 10
276.8217001649
 20
152.8780083675
 10
276.1836920472
 20
152.0843129177
 10
275.7101331445
 20
151.1592190284
 10
275.458184311
 20
150.2143363971
 10
275.458184311
 20
149.3635694999
 10
275.7101331445
 20
148.7096171398
 10
276.1836920472
 20
148.3312766571
 10
276.8217001649
 20
148.274235012
 10
277.5472675058
 20
148.5453467388
 10
278.272775242
 20
149.1119186897
 10
278.9108429643
 20
149.9056141395
  0
SPLINE
  5
3CA
330
1F
100
AcDbEntity
  8
0
  6
CONTINUOUS
 62
     7
100
AcDbSpline
210
0.0
220
0.0
230
1.0
 70
     8
 71
     3
 72
    16
 73
    12
 74
     0
 42
0.00000001
 43
0.00000001
 40
0.0
 40
0.0
 40
0.0
 40
0.0
 40
0.087955917561838
 40
0.1767869455170623
 40
0.2670085585248054
 40
0.3583526799996025
 40
0.4825598484290469
 40
0.6089987745105696
 40
0.7390840475647454
 40
0.870615549963097
 40
1.0
 40
1.0
 40
1.0
 40
1.0
 10
279.5422349663835
 20
152.2000353355069
 30
0.0
 10
279.4948113289348
 20
152.1311990214533
 30
0.0
 10
279.3994922163352
 20
151.9928415119247
 30
0.0
 10
279.2653145593643
 20
151.7773809548775
 30
0.0
 10
279.1382951735569
 20
151.5539339408962
 30
0.0
 10
279.0069099705657
 20
151.2946349646413
 30
0.0
 10
278.8775290172232
 20
150.996221868409
 30
0.0
 10
278.7569958806822
 20
150.6547745425457
 30
0.0
 10
278.6581786660826
 20
150.299265489048
 30
0.0
 10
278.5790855228939
 20
149.9359768230638
 30
0.0
 10
278.5406728989608
 20
149.6909893131995
 30
0.0
 10
278.5216246338945
 20
149.5695035476346
 30
0.0
  0
SPLINE
  5
3CB
330
1F
100
AcDbEntity
  8
0
  6
CONTINUOUS
 62
     7
100
AcDbSpline
210
0.0
220
0.0
230
1.0
 70
     8
 71
     3
 72
    15
 73
    11
 74
     0
 42
0.00000001
 43
0.00000001
 40
0.0
 40
0.0
 40
0.0
 40
0.0
 40
0.0907879099078746
 40
0.193008549798939
 40
0.3104258429890229
 40
0.4438047505110878
 40
0.5683506857029055
 40
0.703152275849805
 40
0.8480399333831191
 40
1.0
 40
1.0
 40
1.0
 40
1.0
 10
278.5216246338945
 20
153.6521832961697
 30
0.0
 10
278.5422309365653
 20
153.6022574768795
 30
0.0
 10
278.586038450135
 20
153.4961187851912
 30
0.0
 10
278.6715962008959
 20
153.3322771136631
 30
0.0
 10
278.7800226147787
 20
153.152399955124
 30
0.0
 10
278.9067221785393
 20
152.9684815022447
 30
0.0
 10
279.047473044156
 20
152.7820610744968
 30
0.0
 10
279.1985497296276
 20
152.5950334977294
 30
0.0
 10
279.3647521033452
 20
152.3993769780064
 30
0.0
 10
279.4821417410752
 20
152.267529639075
 30
0.0
 10
279.5422349663835
 20
152.2000353355069
 30
0.0
  0
SPLINE
  5
3CC
330
1F
100
AcDbEntity
  8
0
  6
CONTINUOUS
 62
     7
100
AcDbSpline
210
0.0
220
0.0
230
1.0
 70
     8
 71
     3
 72
     9
 73
     5
 74
     0
 42
0.00000001
 43
0.00000001
 40
0.0
 40
0.0
 40
0.0
 40
0.0
 40
0.4971018446100083
 40
0.9999999999999999
 40
0.9999999999999999
 40
0.9999999999999999
 40
0.9999999999999999
 10
276.4804039689166
 20
152.4737994689602
 30
0.0
 10
276.779484677485
 20
152.7367554351303
 30
0.0
 10
277.3811334378173
 20
153.2657334886646
 30
0.0
 10
278.139994703291
 20
153.5228698795233
 30
0.0
 10
278.5216246338945
 20
153.6521832961697
 30
0.0
  0
SPLINE
  5
3CD
330
1F
100
AcDbEntity
  8
0
  6
CONTINUOUS
 62
     7
100
AcDbSpline
210
0.0
220
0.0
230
1.0
 70
     8
 71
     3
 72
    16
 73
    12
 74
     0
 42
0.00000001
 43
0.00000001
 40
0.0
 40
0.0
 40
0.0
 40
0.0
 40
0.1293905770273339
 40
0.2569520593819318
 40
0.3844811833939133
 40
0.513303589368407
 40
0.6416563988733613
 40
0.7318777574722305
 40
0.8215337534093765
 40
0.91106462555516
 40
1.0
 40
1.0
 40
1.0
 40
1.0
 10
275.4597936364275
 20
149.8432676810879
 30
0.0
 10
275.4788114738995
 20
149.9647654295491
 30
0.0
 10
275.516578308361
 20
150.2060434066213
 30
0.0
 10
275.5941227947678
 20
150.5633141443432
 30
0.0
 10
275.6910034877801
 20
150.9152572847686
 30
0.0
 10
275.8117278377345
 20
151.2606573851125
 30
0.0
 10
275.9429023368367
 20
151.5639208963072
 30
0.0
 10
276.0751851586718
 20
151.8253794148104
 30
0.0
 10
276.2015846765336
 20
152.0481006188521
 30
0.0
 10
276.336225428782
 20
152.2645239294986
 30
0.0
 10
276.4324514830486
 20
152.4041963065257
 30
0.0
 10
276.4804039689165
 20
152.4737994689602
 30
0.0
  0
SPLINE
  5
3CE
330
1F
100
AcDbEntity
  8
0
  6
CONTINUOUS
 62
     7
100
AcDbSpline
210
0.0
220
0.0
230
1.0
 70
     8
 71
     3
 72
    15
 73
    11
 74
     0
 42
0.00000001
 43
0.00000001
 40
0.0
 40
0.0
 40
0.0
 40
0.0
 40
0.1703246314472343
 40
0.3326333473852754
 40
0.4861266176539507
 40
0.6268257539760712
 40
0.7340670711088072
 40
0.8311726118956102
 40
0.9196843163436069
 40
1.0
 40
1.0
 40
1.0
 40
1.0
 10
276.4804039689165
 20
148.3911197204251
 30
0.0
 10
276.4130773671137
 20
148.4667992963846
 30
0.0
 10
276.2815927266634
 20
148.6145967726873
 30
0.0
 10
276.09530146362
 20
148.8357189649524
 30
0.0
 10
275.9267643594191
 20
149.0486132283067
 30
0.0
 10
275.7865585896232
 20
149.2419466705896
 30
0.0
 10
275.6745073483082
 20
149.4139582637902
 30
0.0
 10
275.5874441942082
 20
149.5648675588839
 30
0.0
 10
275.5159497147115
 20
149.7061091241705
 30
0.0
 10
275.4778965432712
 20
149.7990521900036
 30
0.0
 10
275.4597936364275
 20
149.8432676810879
 30
0.0
  0
SPLINE
  5
3CF
330
1F
100
AcDbEntity
  8
0
  6
CONTINUOUS
 62
     7
100
AcDbSpline
210
0.0
220
0.0
230
1.0
 70
     8
 71
     3
 72
     9
 73
     5
 74
     0
 42
0.00000001
 43
0.00000001
 40
0.0
 40
0.0
 40
0.0
 40
0.0
 40
0.5726752638924425
 40
1.0
 40
1.0
 40
1.0
 40
1.0
 10
278.5216246338945
 20
149.5695035476346
 30
0.0
 10
278.0867740808506
 20
149.4193932814052
 30
0.0
 10
277.3274422562347
 20
149.1572721881889
 30
0.0
 10
276.7339975649949
 20
148.6204970252689
 30
0.0
 10
276.4804039689165
 20
148.3911197204251
 30
0.0
  0
SPLINE
  5
3D0
330
1F
100
AcDbEntity
  8
0
  6
CONTINUOUS
 62
     7
100
AcDbSpline
210
0.0
220
0.0
230
1.0
 70
     8
 71
     3
 72
    10
 73
     6
 74
     0
 42
0.00000001
 43
0.00000001
 40
0.0
 40
0.0
 40
0.0
 40
0.0
 40
0.1234653464817399
 40
0.6367105572145653
 40
1.0
 40
1.0
 40
1.0
 40
1.0
 10
276.6044412346942
 20
150.6762723941463
 30
0.0
 10
276.6225971901844
 20
150.7918879774295
 30
0.0
 10
276.7162274181499
 20
151.3881173207439
 30
0.0
 10
276.9857217655256
 20
152.3155191697201
 30
0.0
 10
277.4377171153907
 20
153.0163408970792
 30
0.0
 10
277.6250515671832
 20
153.3068041820187
 30
0.0
  0
LINE
  5
3D1
330
1F
100
AcDbEntity
  8
0
  6
CONTINUOUS
 62
     7
100
AcDbLine
 10
275.525477955
 20
150.2303998489
 30
0.0
 11
276.6044412347
 21
150.6762723941
 31
0.0
  0
LINE
  5
3D2
330
1F
100
AcDbEntity
  8
0
  6
CONTINUOUS
 62
     7
100
AcDbLine
 10
277.6250515672
 20
153.306804182
 30
0.0
 11
279.5422349664
 21
152.2000353355
 31
0.0
  0
LINE
  5
3D3
330
1F
100
AcDbEntity
  8
0
  6
CONTINUOUS
 62
     7
100
AcDbLine
 10
276.6044412347
 20
150.6762723941
 30
0.0
 11
278.5216246339
 21
149.5695035476
 31
0.0
  0
ARC
  5
3D4
330
1F
100
AcDbEntity
  8
0
  6
CONTINUOUS
 62
     7
100
AcDbCircle
 10
248.754407431
 20
153.5870777451
 30
0.0
 40
0.8733967895967998
100
AcDbArc
 50
350.784375443
 51
129.2037167767
  0
LINE
  5
3D5
330
1F
100
AcDbEntity
  8
0
  6
CONTINUOUS
 62
     7
100
AcDbLine
 10
249.616530964
 20
142.4238901157
 30
0.0
 11
249.616530964
 21
153.4472029228
 31
0.0
  0
ARC
  5
3D6
330
1F
100
AcDbEntity
  8
0
  6
CONTINUOUS
 62
     7
100
AcDbCircle
 10
250.478700576
 20
142.2840547949
 30
0.0
 40
0.873435948858451
100
AcDbArc
 50
170.7874173069
 51
309.2027664573
  0
LINE
  5
3D7
330
1F
100
AcDbEntity
  8
0
  6
CONTINUOUS
 62
     7
100
AcDbLine
 10
295.5785070153
 20
167.3240880985
 30
0.0
 11
251.0307703706
 21
141.6072170753
 31
0.0
  0
ARC
  5
3D8
330
1F
100
AcDbEntity
  8
0
  6
CONTINUOUS
 62
     7
100
AcDbCircle
 10
296.1305632843
 20
166.6472898804
 30
0.0
 40
0.8733967895967973
100
AcDbArc
 50
350.784375443
 51
129.2037167767
  0
LINE
  5
3D9
330
1F
100
AcDbEntity
  8
0
  6
CONTINUOUS
 62
     7
100
AcDbLine
 10
296.9926868173
 20
157.933733942
 30
0.0
 11
296.9926868173
 21
166.5074150581
 31
0.0
  0
ARC
  5
3DA
330
1F
100
AcDbEntity
  8
0
  6
CONTINUOUS
 62
     7
100
AcDbCircle
 10
293.922234652
 20
158.073451803
 30
0.0
 40
3.073629382301196
100
AcDbArc
 50
302.606431451
 51
357.3946100036
  0
LINE
  5
3DB
330
1F
100
AcDbEntity
  8
0
  6
CONTINUOUS
 62
     7
100
AcDbLine
 10
251.0307703706
 20
129.7673802395
 30
0.0
 11
295.5785070153
 21
155.4842512626
 31
0.0
  0
ARC
  5
3DC
330
1F
100
AcDbEntity
  8
0
  6
CONTINUOUS
 62
     7
100
AcDbCircle
 10
252.6868101631
 20
127.1782392609
 30
0.0
 40
3.073453887930507
100
AcDbArc
 50
122.6033774964
 51
177.3955726425
  0
LINE
  5
3DD
330
1F
100
AcDbEntity
  8
0
  6
CONTINUOUS
 62
     7
100
AcDbLine
 10
249.616530964
 20
116.294584753
 30
0.0
 11
249.616530964
 21
127.3178975601
 31
0.0
  0
ARC
  5
3DE
330
1F
100
AcDbEntity
  8
0
  6
CONTINUOUS
 62
     7
100
AcDbCircle
 10
246.5460053112
 20
116.4343450412
 30
0.0
 40
3.073704722776197
100
AcDbArc
 50
302.6071592333
 51
357.3938822213
  0
LINE
  5
3DF
330
1F
100
AcDbEntity
  8
0
  6
CONTINUOUS
 62
     7
100
AcDbLine
 10
248.2023511621
 20
113.8451020736
 30
0.0
 11
192.3408780786
 21
81.5969924945
 31
0.0
  0
ARC
  5
3E0
330
1F
100
AcDbEntity
  8
0
  6
CONTINUOUS
 62
     7
100
AcDbCircle
 10
191.7888218655
 20
82.2737908093
 30
0.0
 40
0.8733968292216272
100
AcDbArc
 50
170.7843822896
 51
309.2037099301
  0
LINE
  5
3E1
330
1F
100
AcDbEntity
  8
0
  6
CONTINUOUS
 62
     7
100
AcDbLine
 10
190.9266982766
 20
119.5662539024
 30
0.0
 11
190.9266982766
 21
82.4136655349
 31
0.0
  0
ARC
  5
3E2
330
1F
100
AcDbEntity
  8
0
  6
CONTINUOUS
 62
     7
100
AcDbCircle
 10
193.9971086549
 20
119.4265916684
 30
0.0
 40
3.073585110314062
100
AcDbArc
 50
122.6060346692
 51
177.3956104844
  0
LINE
  5
3E3
330
1F
100
AcDbEntity
  8
0
  6
CONTINUOUS
 62
     7
100
AcDbLine
 10
248.2023511621
 20
154.2638759632
 30
0.0
 11
192.3408780786
 21
122.0157663841
 31
0.0
  0
LWPOLYLINE
  5
3E4
330
1F
100
AcDbEntity
  8
0
  6
CONTINUOUS
 62
     7
100
AcDbPolyline
 90
       25
 70
   128
 43
0.0
 10
281.3038502427
 20
152.0012240429
 10
281.4363513681
 20
153.2400767822
 10
281.3038502427
 20
154.3259243984
 10
280.9152875634
 20
155.184767725
 10
280.2972470018
 20
155.7581048031
 10
279.4918094369
 20
156.0068349857
 10
278.5538111421
 20
155.9140007515
 10
277.5472675058
 20
155.485949995
 10
276.5406642648
 20
154.7518293876
 10
275.6027255746
 20
153.7617068309
 10
274.7972284051
 20
152.5830249805
 10
274.1791878434
 20
151.2961308975
 10
273.7906847688
 20
149.9887030143
 10
273.6581836434
 20
148.749850275
 10
273.7906847688
 20
147.6640026588
 10
274.1791878434
 20
146.8051295299
 10
274.7972284051
 20
146.2318222541
 10
275.6027255746
 20
145.9830920715
 10
276.5406642648
 20
146.0759263057
 10
277.5472675058
 20
146.5039770622
 10
278.5538111421
 20
147.2380976696
 10
279.4918094369
 20
148.2282202263
 10
280.2972470018
 20
149.4069020767
 10
280.9152875634
 20
150.6937961597
 10
281.3038502427
 20
152.0012240429
  0
LWPOLYLINE
  5
3E5
330
1F
100
AcDbEntity
  8
0
  6
CONTINUOUS
 62
     7
100
AcDbPolyline
 90
       25
 70
   128
 43
0.0
 10
256.5551076623
 20
137.7140800972
 10
256.6876087876
 20
138.9529328365
 10
256.5551076623
 20
140.0387804527
 10
256.166544983
 20
140.8976535816
 10
255.5485044213
 20
141.4709608574
 10
254.7430668565
 20
141.71969104
 10
253.8050685617
 20
141.6268568058
 10
252.7985249253
 20
141.1988060493
 10
251.7919216844
 20
140.4646854419
 10
250.8539829942
 20
139.4745628853
 10
250.0485454293
 20
138.2958810348
 10
249.430445263
 20
137.0089869518
 10
249.0419421884
 20
135.7015590686
 10
248.909441063
 20
134.4627063293
 10
249.0419421884
 20
133.3768587131
 10
249.430445263
 20
132.5179855842
 10
250.0485454293
 20
131.9446783085
 10
250.8539829942
 20
131.6959481258
 10
251.7919216844
 20
131.78878236
 10
252.7985249253
 20
132.2168331165
 10
253.8050685617
 20
132.9509537239
 10
254.7430668565
 20
133.9410762806
 10
255.5485044213
 20
135.119758131
 10
256.166544983
 20
136.406652214
 10
256.5551076623
 20
137.7140800972
  0
ARC
  5
3E6
330
1F
100
AcDbEntity
  8
0
  6
CONTINUOUS
 62
     7
100
AcDbCircle
 10
186.9260726182
 20
123.5085899412
 30
0.0
 40
3.073629382301226
100
AcDbArc
 50
122.606431451
 51
177.3946100036
  0
LINE
  5
3E7
330
1F
100
AcDbEntity
  8
0
  6
CONTINUOUS
 62
     7
100
AcDbLine
 10
183.855620453
 20
123.6483078022
 30
0.0
 11
183.855620453
 21
86.4956896324
 31
0.0
  0
LINE
  5
3E8
330
1F
100
AcDbEntity
  8
0
  6
CONTINUOUS
 62
     7
100
AcDbLine
 10
241.1312733384
 20
158.3459298629
 30
0.0
 11
185.2698002549
 21
126.0977904815
 31
0.0
  0
ARC
  5
3E9
330
1F
100
AcDbEntity
  8
0
  6
CONTINUOUS
 62
     7
100
AcDbCircle
 10
185.0277097185
 20
86.4744010865
 30
0.0
 40
1.172282580474848
100
AcDbArc
 50
178.9594566152
 51
229.7245660995
  0
ARC
  5
3EA
330
1F
100
AcDbEntity
  8
0
  6
CONTINUOUS
 62
     7
100
AcDbCircle
 10
241.717113676
 20
157.5280832606
 30
0.0
 40
1.006022845725502
100
AcDbArc
 50
65.6941048268
 51
125.6148037925
  0
LINE
  5
3EB
330
1F
100
AcDbEntity
  8
0
  6
CONTINUOUS
 62
     7
100
AcDbLine
 10
288.5074291917
 20
171.4061121959
 30
0.0
 11
249.616530964
 21
148.954890253
 31
0.0
  0
ARC
  5
3EC
330
1F
100
AcDbEntity
  8
0
  6
CONTINUOUS
 62
     7
100
AcDbCircle
 10
289.0932831261
 20
170.5884042226
 30
0.0
 40
1.005918069290824
100
AcDbArc
 50
65.6922592319
 51
125.6200315637
  0
LWPOLYLINE
  5
3ED
330
1F
100
AcDbEntity
  8
0
  6
CONTINUOUS
 62
     7
100
AcDbPolyline
 90
        9
 70
   128
 43
0.0
 10
169.6810994836
 20
157.1357469577
 10
169.7896395417
 20
156.8830530662
 10
170.5050144883
 20
155.7483594436
 10
171.5508971902
 20
154.702595951
 10
172.895458767
 20
153.7775616665
 10
174.4978104325
 20
153.0013899822
 10
176.3093147966
 20
152.3976247329
 10
178.2748971673
 20
151.9846241493
 10
178.7125740739
 20
151.9219796676
  0
ARC
  5
3EE
330
1F
100
AcDbEntity
  8
0
  6
CONTINUOUS
 62
     7
100
AcDbCircle
 10
178.9151810588
 20
163.1921652082
 30
0.0
 40
10.75078576903951
100
AcDbArc
 50
216.53900878
 51
263.4664559557
  0
LWPOLYLINE
  5
3EF
330
1F
100
AcDbEntity
  8
0
  6
CONTINUOUS
 62
     7
100
AcDbPolyline
 90
       11
 70
   128
 43
0.0
 10
169.3807516786
 20
156.9050173778
 10
169.4264088365
 20
156.3012521286
 10
169.7896395417
 20
155.1120500583
 10
170.5050144883
 20
153.9773564357
 10
171.5508971902
 20
152.9315929432
 10
172.895458767
 20
152.0065586586
 10
174.4978104325
 20
151.2303869743
 10
176.3093147966
 20
150.626621725
 10
178.2748971673
 20
150.2136211414
 10
180.3348932954
 20
150.0039320011
 10
182.0614610406
 20
149.9887328167
  0
LWPOLYLINE
  5
3F0
330
1F
100
AcDbEntity
  8
0
  6
CONTINUOUS
 62
     7
100
AcDbPolyline
 90
        9
 70
   128
 43
0.0
 10
169.9447308274
 20
154.8062484283
 10
170.5840502473
 20
153.825960638
 10
171.6223631593
 20
152.7877967376
 10
172.9570899697
 20
151.8694977779
 10
174.5478187295
 20
151.0989587326
 10
176.346150467
 20
150.4995744247
 10
178.2974873277
 20
150.0895540733
 10
180.3424630853
 20
149.8814146537
 10
182.2601829263
 20
149.8739938755
  0
LWPOLYLINE
  5
3F1
330
1F
100
AcDbEntity
  8
0
  6
CONTINUOUS
 62
     7
100
AcDbPolyline
 90
       16
 70
   128
 43
0.0
 10
170.1553736421
 20
154.4300239105
 10
169.8738609048
 20
153.9076190014
 10
169.5132528039
 20
152.7270596046
 10
169.5132528039
 20
151.5282909889
 10
169.8738609048
 20
150.3477613945
 10
170.5840502473
 20
149.2212932129
 10
171.6223631593
 20
148.1831293125
 10
172.9570899697
 20
147.2648303527
 10
174.5478187295
 20
146.4942913074
 10
176.346150467
 20
145.8949069996
 10
178.2974873277
 20
145.4849164505
 10
180.3424630853
 20
145.2767472286
 10
182.4190293046
 20
145.2767472286
 10
184.4640050622
 20
145.4849164505
 10
186.4152823182
 20
145.8949069996
 10
188.1552611085
 20
146.4708368797
  0
LWPOLYLINE
  5
3F2
330
1F
100
AcDbEntity
  8
0
  6
CONTINUOUS
 62
     7
100
AcDbPolyline
 90
       17
 70
   128
 43
0.0
 10
169.9447308274
 20
154.0537695903
 10
169.7896395417
 20
153.7479679603
 10
169.4264088365
 20
152.5587658901
 10
169.4264088365
 20
151.3512353916
 10
169.7896395417
 20
150.1620333213
 10
170.5050144883
 20
149.0273396988
 10
171.5508971902
 20
147.9815762062
 10
172.895458767
 20
147.0565419216
 10
174.4978104325
 20
146.2803702373
 10
176.3093147966
 20
145.6766049881
 10
178.2748971673
 20
145.2636044044
 10
180.3348932954
 20
145.0539152641
 10
182.4265990945
 20
145.0539152641
 10
184.4865356179
 20
145.2636044044
 10
186.4521775933
 20
145.6766049881
 10
188.2636223527
 20
146.2803702373
 10
188.3932028504
 20
146.3334779758
  0
LWPOLYLINE
  5
3F3
330
1F
100
AcDbEntity
  8
0
  6
CONTINUOUS
 62
     7
100
AcDbPolyline
 90
       16
 70
   128
 43
0.0
 10
169.3807516786
 20
150.1839976329
 10
169.4264088365
 20
149.5802323837
 10
169.7896395417
 20
148.3910303135
 10
170.5050144883
 20
147.2563366909
 10
171.5508971902
 20
146.2105731983
 10
172.895458767
 20
145.2855389137
 10
174.4978104325
 20
144.5093672294
 10
176.3093147966
 20
143.9056019802
 10
178.2748971673
 20
143.4926013965
 10
180.3348932954
 20
143.2829122562
 10
182.4265990945
 20
143.2829122562
 10
184.4865356179
 20
143.4926013965
 10
186.4521775933
 20
143.9056019802
 10
188.2636223527
 20
144.5093672294
 10
189.8660336228
 20
145.2855389137
 10
190.0354896279
 20
145.385406496
  0
ARC
  5
3F4
330
1F
100
AcDbEntity
  8
0
  6
CONTINUOUS
 62
     7
100
AcDbCircle
 10
181.3807163926
 20
160.7836344819
 30
0.0
 40
17.67142736922958
100
AcDbArc
 50
241.6948238347
 51
298.3051761653
  0
LWPOLYLINE
  5
3F5
330
1F
100
AcDbEntity
  8
0
  6
CONTINUOUS
 62
     7
100
AcDbPolyline
 90
        8
 70
   128
 43
0.0
 10
269.3670068475
 20
174.1537075061
 10
268.5536418649
 20
174.3454258461
 10
267.4068484994
 20
174.4095008392
 10
266.2861023637
 20
174.2551248092
 10
265.3129969331
 20
173.899016859
 10
264.5928536149
 20
173.3798306007
 10
264.2037544938
 20
172.7537732143
 10
264.1710911485
 20
172.160915615
  0
LWPOLYLINE
  5
3F6
330
1F
100
AcDbEntity
  8
0
  6
CONTINUOUS
 62
     7
100
AcDbPolyline
 90
        8
 70
   128
 43
0.0
 10
226.9405995103
 20
198.6459414978
 10
226.1272345277
 20
198.83768964
 10
224.9804411622
 20
198.9017348308
 10
223.8596950265
 20
198.7473588009
 10
222.8865895959
 20
198.391280653
 10
222.1664462777
 20
197.8720645923
 10
221.7773471566
 20
197.2460072059
 10
221.7446838113
 20
196.653179409
  0
ARC
  5
3F7
330
1F
100
AcDbEntity
  8
0
  6
CONTINUOUS
 62
     7
100
AcDbCircle
 10
221.0477523564
 20
193.2755539509
 30
0.0
 40
5.652843785451497
100
AcDbArc
 50
121.4194010339
 51
149.9981434818
  0
ARC
  5
3F8
330
1F
100
AcDbEntity
  8
0
  6
CONTINUOUS
 62
     7
100
AcDbCircle
 10
228.8440122943
 20
192.7818233331
 30
0.0
 40
6.378673958790698
100
AcDbArc
 50
31.3680197472
 51
64.6604725952
  0
LINE
  5
3F9
330
1F
100
AcDbEntity
  8
0
  6
CONTINUOUS
 62
     7
100
AcDbLine
 10
218.1009326669
 20
195.3116874714
 30
0.0
 11
218.8523088189
 21
193.6929445285
 31
0.0
  0
LINE
  5
3FA
330
1F
100
AcDbEntity
  8
0
  6
CONTINUOUS
 62
     7
100
AcDbLine
 10
230.761495659
 20
200.297168972
 30
0.0
 11
229.6592269631
 21
200.9334783573
 31
0.0
  0
LINE
  5
3FB
330
1F
100
AcDbEntity
  8
0
  6
CONTINUOUS
 62
     7
100
AcDbLine
 10
232.2382007333
 20
197.1156518478
 30
0.0
 11
230.761495659
 21
200.297168972
 31
0.0
  0
LINE
  5
3FC
330
1F
100
AcDbEntity
  8
0
  6
CONTINUOUS
 62
     7
100
AcDbLine
 10
231.8347368928
 20
196.2464075107
 30
0.0
 11
232.2382007333
 21
197.1156518478
 31
0.0
  0
LINE
  5
3FD
330
1F
100
AcDbEntity
  8
0
  6
CONTINUOUS
 62
     7
100
AcDbLine
 10
227.8003369065
 20
193.9173858184
 30
0.0
 11
231.8347368928
 21
196.2464075107
 31
0.0
  0
LINE
  5
3FE
330
1F
100
AcDbEntity
  8
0
  6
CONTINUOUS
 62
     7
100
AcDbLine
 10
226.2946043702
 20
193.684480669
 30
0.0
 11
227.8003369065
 21
193.9173858184
 31
0.0
  0
LINE
  5
3FF
330
1F
100
AcDbEntity
  8
0
  6
CONTINUOUS
 62
     7
100
AcDbLine
 10
220.783439705
 20
194.5369462986
 30
0.0
 11
226.2946043702
 21
193.684480669
 31
0.0
  0
LINE
  5
400
330
1F
100
AcDbEntity
  8
0
  6
CONTINUOUS
 62
     7
100
AcDbLine
 10
219.6811710092
 20
195.1732854862
 30
0.0
 11
220.783439705
 21
194.5369462986
 31
0.0
  0
LINE
  5
401
330
1F
100
AcDbEntity
  8
0
  6
CONTINUOUS
 62
     7
100
AcDbLine
 10
218.2044659349
 20
198.3548026104
 30
0.0
 11
219.6811710092
 21
195.1732854862
 31
0.0
  0
LINE
  5
402
330
1F
100
AcDbEntity
  8
0
  6
CONTINUOUS
 62
     7
100
AcDbLine
 10
218.6079297753
 20
199.2240469474
 30
0.0
 11
218.2044659349
 21
198.3548026104
 31
0.0
  0
LINE
  5
403
330
1F
100
AcDbEntity
  8
0
  6
CONTINUOUS
 62
     7
100
AcDbLine
 10
222.6423893663
 20
201.5530686397
 30
0.0
 11
218.6079297753
 21
199.2240469474
 31
0.0
  0
LINE
  5
404
330
1F
100
AcDbEntity
  8
0
  6
CONTINUOUS
 62
     7
100
AcDbLine
 10
224.1481219026
 20
201.7859737892
 30
0.0
 11
222.6423893663
 21
201.5530686397
 31
0.0
  0
LINE
  5
405
330
1F
100
AcDbEntity
  8
0
  6
CONTINUOUS
 62
     7
100
AcDbLine
 10
229.6592269631
 20
200.9334783573
 30
0.0
 11
224.1481219026
 21
201.7859737892
 31
0.0
  0
LWPOLYLINE
  5
406
330
1F
100
AcDbEntity
  8
0
  6
CONTINUOUS
 62
     7
100
AcDbPolyline
 90
       22
 70
   128
 43
0.0
 10
222.9870234223
 20
199.9936323185
 10
222.0216665956
 20
199.5823602695
 10
221.3092122766
 20
199.0250568409
 10
220.9129605981
 20
198.371313097
 10
220.8680783006
 20
197.6791541595
 10
221.1786184999
 20
197.0101516266
 10
221.8169842454
 20
196.4236717243
 10
222.7263723107
 20
195.9718983192
 10
223.8260780068
 20
195.6949155349
 10
225.0182901116
 20
195.6173698921
 10
226.197150776
 20
195.7461457271
 10
227.2579346391
 20
196.0697691459
 10
228.1062875482
 20
196.5595405121
 10
228.6669288369
 20
197.1718888302
 10
228.8899694177
 20
197.8524546642
 10
228.755680153
 20
198.5407094974
 10
228.2758627626
 20
199.1755585689
 10
227.4932537767
 20
199.7005264778
 10
226.4773522111
 20
200.0690321941
 10
225.3184591027
 20
200.2482931633
 10
224.1195116731
 20
200.2223949451
 10
222.9870234223
 20
199.9936323185
  0
LINE
  5
407
330
1F
100
AcDbEntity
  8
0
  6
CONTINUOUS
 62
     7
100
AcDbLine
 10
220.3970823976
 20
194.4334130306
 30
0.0
 11
220.3970823976
 21
193.0868248958
 31
0.0
  0
LINE
  5
408
330
1F
100
AcDbEntity
  8
0
  6
CONTINUOUS
 62
     7
100
AcDbLine
 10
220.783439705
 20
194.5369462986
 30
0.0
 11
220.3970823976
 21
194.4334130306
 31
0.0
  0
LINE
  5
409
330
1F
100
AcDbEntity
  8
0
  6
CONTINUOUS
 62
     7
100
AcDbLine
 10
226.6809616777
 20
193.4614102859
 30
0.0
 11
226.2946043702
 21
193.684480669
 31
0.0
  0
LINE
  5
40A
330
1F
100
AcDbEntity
  8
0
  6
CONTINUOUS
 62
     7
100
AcDbLine
 10
226.6809616777
 20
192.4324553032
 30
0.0
 11
226.6809616777
 21
193.4614102859
 31
0.0
  0
LINE
  5
40B
330
1F
100
AcDbEntity
  8
0
  6
CONTINUOUS
 62
     7
100
AcDbLine
 10
227.8003369065
 20
193.9173858184
 30
0.0
 11
227.5175128671
 21
193.5907821674
 31
0.0
  0
LINE
  5
40C
330
1F
100
AcDbEntity
  8
0
  6
CONTINUOUS
 62
     7
100
AcDbLine
 10
227.5175128671
 20
193.5907821674
 30
0.0
 11
226.6809616777
 21
193.4614102859
 31
0.0
  0
LINE
  5
40D
330
1F
100
AcDbEntity
  8
0
  6
CONTINUOUS
 62
     7
100
AcDbLine
 10
227.5175128671
 20
193.5907821674
 30
0.0
 11
227.5175128671
 21
192.5248425026
 31
0.0
  0
LINE
  5
40E
330
1F
100
AcDbEntity
  8
0
  6
CONTINUOUS
 62
     7
100
AcDbLine
 10
232.1176205369
 20
196.2463777084
 30
0.0
 11
231.8347368928
 21
196.2464075107
 31
0.0
  0
LINE
  5
40F
330
1F
100
AcDbEntity
  8
0
  6
CONTINUOUS
 62
     7
100
AcDbLine
 10
232.1176205369
 20
193.9632813949
 30
0.0
 11
232.1176205369
 21
196.2463777084
 31
0.0
  0
LINE
  5
410
330
1F
100
AcDbEntity
  8
0
  6
CONTINUOUS
 62
     7
100
AcDbLine
 10
220.3970823976
 20
194.4334130306
 30
0.0
 11
219.7847042771
 21
194.7869281788
 31
0.0
  0
LINE
  5
411
330
1F
100
AcDbEntity
  8
0
  6
CONTINUOUS
 62
     7
100
AcDbLine
 10
219.7847042771
 20
194.7869281788
 30
0.0
 11
219.6811710092
 21
195.1732854862
 31
0.0
  0
LWPOLYLINE
  5
412
330
1F
100
AcDbEntity
  8
0
  6
CONTINUOUS
 62
     7
100
AcDbPolyline
 90
        6
 70
   128
 43
0.0
 10
222.4636350366
 20
198.816887619
 10
221.8132887574
 20
198.2910256405
 10
221.4939270707
 20
197.6717631836
 10
221.5401802751
 20
197.026185276
 10
221.9470415803
 20
196.4242677707
 10
222.2609196397
 20
196.1689512748
  0
LWPOLYLINE
  5
413
330
1F
100
AcDbEntity
  8
0
  6
CONTINUOUS
 62
     7
100
AcDbPolyline
 90
       11
 70
   128
 43
0.0
 10
227.4746571275
 20
196.1689512748
 10
227.6348744126
 20
196.2884585876
 10
228.1264339181
 20
196.8689482231
 10
228.2648955079
 20
197.5100855846
 10
228.0352388116
 20
198.1424610634
 10
227.4622593614
 20
198.6975293178
 10
226.6081844064
 20
199.1151194591
 10
225.5655203553
 20
199.3499915619
 10
224.4472180101
 20
199.3766944427
 10
223.374513218
 20
199.1923372764
 10
222.4636350366
 20
198.816887619
  0
LINE
  5
414
330
1F
100
AcDbEntity
  8
0
  6
CONTINUOUS
 62
     7
100
AcDbLine
 10
219.7847042771
 20
193.2983021755
 30
0.0
 11
219.7847042771
 21
194.7869281788
 31
0.0
  0
LINE
  5
415
330
1F
100
AcDbEntity
  8
0
  6
CONTINUOUS
 62
     7
100
AcDbLine
 10
218.1009326669
 20
198.4145264644
 30
0.0
 11
218.1009326669
 21
195.3116874714
 31
0.0
  0
LINE
  5
416
330
1F
100
AcDbEntity
  8
0
  6
CONTINUOUS
 62
     7
100
AcDbLine
 10
218.2044659349
 20
198.3548026104
 30
0.0
 11
218.1009326669
 21
198.4145264644
 31
0.0
  0
LINE
  5
417
330
1F
100
AcDbEntity
  8
0
  6
CONTINUOUS
 62
     7
100
AcDbLine
 10
232.2382007333
 20
197.1156518478
 30
0.0
 11
232.3417340013
 21
196.7292945404
 31
0.0
  0
LINE
  5
418
330
1F
100
AcDbEntity
  8
0
  6
CONTINUOUS
 62
     7
100
AcDbLine
 10
232.3417340013
 20
196.7292945404
 30
0.0
 11
232.1176205369
 21
196.2463777084
 31
0.0
  0
LINE
  5
419
330
1F
100
AcDbEntity
  8
0
  6
CONTINUOUS
 62
     7
100
AcDbLine
 10
232.3417340013
 20
196.7292945404
 30
0.0
 11
232.3417340013
 21
194.104723217
 31
0.0
  0
LINE
  5
41A
330
1F
100
AcDbEntity
  8
0
  6
CONTINUOUS
 62
     7
100
AcDbLine
 10
218.1009326669
 20
198.4145264644
 30
0.0
 11
218.3251057359
 21
198.8974432964
 31
0.0
  0
LINE
  5
41B
330
1F
100
AcDbEntity
  8
0
  6
CONTINUOUS
 62
     7
100
AcDbLine
 10
218.3251057359
 20
198.8974432964
 30
0.0
 11
218.6079297753
 21
199.2240469474
 31
0.0
  0
ARC
  5
41C
330
1F
100
AcDbEntity
  8
0
  6
CONTINUOUS
 62
     7
100
AcDbCircle
 10
263.4744419267
 20
168.7830446238
 30
0.0
 40
5.653225878223859
100
AcDbArc
 50
121.420387363
 51
149.9971571527
  0
ARC
  5
41D
330
1F
100
AcDbEntity
  8
0
  6
CONTINUOUS
 62
     7
100
AcDbCircle
 10
271.27027568
 20
168.2894293872
 30
0.0
 40
6.37888013232737
100
AcDbArc
 50
31.3685734408
 51
64.6599189015
  0
LINE
  5
41E
330
1F
100
AcDbEntity
  8
0
  6
CONTINUOUS
 62
     7
100
AcDbLine
 10
260.5273400041
 20
170.8194236774
 30
0.0
 11
261.2787161561
 21
169.2007105369
 31
0.0
  0
LINE
  5
41F
330
1F
100
AcDbEntity
  8
0
  6
CONTINUOUS
 62
     7
100
AcDbLine
 10
273.1879029962
 20
175.8049349804
 30
0.0
 11
272.0856343003
 21
176.4412443657
 31
0.0
  0
LINE
  5
420
330
1F
100
AcDbEntity
  8
0
  6
CONTINUOUS
 62
     7
100
AcDbLine
 10
274.6646080705
 20
172.6234178562
 30
0.0
 11
273.1879029962
 21
175.8049349804
 31
0.0
  0
LINE
  5
421
330
1F
100
AcDbEntity
  8
0
  6
CONTINUOUS
 62
     7
100
AcDbLine
 10
274.26114423
 20
171.7541735191
 30
0.0
 11
274.6646080705
 21
172.6234178562
 31
0.0
  0
LINE
  5
422
330
1F
100
AcDbEntity
  8
0
  6
CONTINUOUS
 62
     7
100
AcDbLine
 10
270.2267442437
 20
169.4251518268
 30
0.0
 11
274.26114423
 21
171.7541735191
 31
0.0
  0
LINE
  5
423
330
1F
100
AcDbEntity
  8
0
  6
CONTINUOUS
 62
     7
100
AcDbLine
 10
268.7210117074
 20
169.192216875
 30
0.0
 11
270.2267442437
 21
169.4251518268
 31
0.0
  0
LINE
  5
424
330
1F
100
AcDbEntity
  8
0
  6
CONTINUOUS
 62
     7
100
AcDbLine
 10
263.2098470422
 20
170.0447123069
 30
0.0
 11
268.7210117074
 21
169.192216875
 31
0.0
  0
LINE
  5
425
330
1F
100
AcDbEntity
  8
0
  6
CONTINUOUS
 62
     7
100
AcDbLine
 10
262.1075783464
 20
170.6810514946
 30
0.0
 11
263.2098470422
 21
170.0447123069
 31
0.0
  0
LINE
  5
426
330
1F
100
AcDbEntity
  8
0
  6
CONTINUOUS
 62
     7
100
AcDbLine
 10
260.630873272
 20
173.8625388164
 30
0.0
 11
262.1075783464
 21
170.6810514946
 31
0.0
  0
LINE
  5
427
330
1F
100
AcDbEntity
  8
0
  6
CONTINUOUS
 62
     7
100
AcDbLine
 10
261.0343371125
 20
174.7317831535
 30
0.0
 11
260.630873272
 21
173.8625388164
 31
0.0
  0
LINE
  5
428
330
1F
100
AcDbEntity
  8
0
  6
CONTINUOUS
 62
     7
100
AcDbLine
 10
265.0687967034
 20
177.0608346481
 30
0.0
 11
261.0343371125
 21
174.7317831535
 31
0.0
  0
LINE
  5
429
330
1F
100
AcDbEntity
  8
0
  6
CONTINUOUS
 62
     7
100
AcDbLine
 10
266.5745292398
 20
177.2937397976
 30
0.0
 11
265.0687967034
 21
177.0608346481
 31
0.0
  0
LINE
  5
42A
330
1F
100
AcDbEntity
  8
0
  6
CONTINUOUS
 62
     7
100
AcDbLine
 10
272.0856343003
 20
176.4412443657
 30
0.0
 11
266.5745292398
 21
177.2937397976
 31
0.0
  0
LWPOLYLINE
  5
42B
330
1F
100
AcDbEntity
  8
0
  6
CONTINUOUS
 62
     7
100
AcDbPolyline
 90
       22
 70
   128
 43
0.0
 10
265.4134307595
 20
175.5013983268
 10
264.4480739328
 20
175.0900964756
 10
263.7356196138
 20
174.5328228492
 10
263.3393679353
 20
173.879049303
 10
263.2944856378
 20
173.1869201679
 10
263.6050258371
 20
172.5178878326
 10
264.2433915826
 20
171.9314377327
 10
265.1527796479
 20
171.4796345253
 10
266.252485344
 20
171.2026815433
 10
267.4446974488
 20
171.1251359005
 10
268.6235581132
 20
171.2538819332
 10
269.6843419763
 20
171.5775351543
 10
270.5326948854
 20
172.0672767181
 10
271.0933361741
 20
172.6796548385
 10
271.3163767549
 20
173.3601908703
 10
271.1820874902
 20
174.0484755058
 10
270.7022700997
 20
174.683294775
 10
269.9196611138
 20
175.2082924862
 10
268.9037595483
 20
175.5767982025
 10
267.7448664399
 20
175.7560591716
 10
266.5459190103
 20
175.7301609535
 10
265.4134307595
 20
175.5013983268
  0
LINE
  5
42C
330
1F
100
AcDbEntity
  8
0
  6
CONTINUOUS
 62
     7
100
AcDbLine
 10
262.8234897348
 20
169.941179039
 30
0.0
 11
262.8234897348
 21
168.5945611019
 31
0.0
  0
LINE
  5
42D
330
1F
100
AcDbEntity
  8
0
  6
CONTINUOUS
 62
     7
100
AcDbLine
 10
263.2098470422
 20
170.0447123069
 30
0.0
 11
262.8234897348
 21
169.941179039
 31
0.0
  0
LINE
  5
42E
330
1F
100
AcDbEntity
  8
0
  6
CONTINUOUS
 62
     7
100
AcDbLine
 10
269.1073690148
 20
168.969146492
 30
0.0
 11
268.7210117074
 21
169.192216875
 31
0.0
  0
LINE
  5
42F
330
1F
100
AcDbEntity
  8
0
  6
CONTINUOUS
 62
     7
100
AcDbLine
 10
269.1073690148
 20
167.9401915092
 30
0.0
 11
269.1073690148
 21
168.969146492
 31
0.0
  0
LINE
  5
430
330
1F
100
AcDbEntity
  8
0
  6
CONTINUOUS
 62
     7
100
AcDbLine
 10
270.2267442437
 20
169.4251518268
 30
0.0
 11
269.9439202043
 21
169.0985481758
 31
0.0
  0
LINE
  5
431
330
1F
100
AcDbEntity
  8
0
  6
CONTINUOUS
 62
     7
100
AcDbLine
 10
269.9439202043
 20
169.0985481758
 30
0.0
 11
269.1073690148
 21
168.969146492
 31
0.0
  0
LINE
  5
432
330
1F
100
AcDbEntity
  8
0
  6
CONTINUOUS
 62
     7
100
AcDbLine
 10
269.9439202043
 20
169.0985481758
 30
0.0
 11
269.9439202043
 21
168.0326085109
 31
0.0
  0
LINE
  5
433
330
1F
100
AcDbEntity
  8
0
  6
CONTINUOUS
 62
     7
100
AcDbLine
 10
274.5440278741
 20
171.7541437168
 30
0.0
 11
274.26114423
 21
171.7541735191
 31
0.0
  0
LINE
  5
434
330
1F
100
AcDbEntity
  8
0
  6
CONTINUOUS
 62
     7
100
AcDbLine
 10
274.5440278741
 20
169.4710474033
 30
0.0
 11
274.5440278741
 21
171.7541437168
 31
0.0
  0
LINE
  5
435
330
1F
100
AcDbEntity
  8
0
  6
CONTINUOUS
 62
     7
100
AcDbLine
 10
262.8234897348
 20
169.941179039
 30
0.0
 11
262.2111116143
 21
170.2946941871
 31
0.0
  0
LINE
  5
436
330
1F
100
AcDbEntity
  8
0
  6
CONTINUOUS
 62
     7
100
AcDbLine
 10
262.2111116143
 20
170.2946941871
 30
0.0
 11
262.1075783464
 21
170.6810514946
 31
0.0
  0
LWPOLYLINE
  5
437
330
1F
100
AcDbEntity
  8
0
  6
CONTINUOUS
 62
     7
100
AcDbPolyline
 90
        6
 70
   128
 43
0.0
 10
264.8900423738
 20
174.324623825
 10
264.2396960946
 20
173.7987916488
 10
263.9203344079
 20
173.1795291919
 10
263.9665876123
 20
172.5339512844
 10
264.3734489175
 20
171.9320337791
 10
264.6873269769
 20
171.6766874809
  0
LWPOLYLINE
  5
438
330
1F
100
AcDbEntity
  8
0
  6
CONTINUOUS
 62
     7
100
AcDbPolyline
 90
       11
 70
   128
 43
0.0
 10
269.9010644647
 20
171.6766874809
 10
270.0612817498
 20
171.796224596
 10
270.5528412553
 20
172.3766844291
 10
270.6913028451
 20
173.017851593
 10
270.4615865441
 20
173.6502270717
 10
269.8886666986
 20
174.2052953262
 10
269.0345917436
 20
174.6228854675
 10
267.9919276925
 20
174.8577575702
 10
266.8736253472
 20
174.8844604511
 10
265.8009205552
 20
174.7000734825
 10
264.8900423738
 20
174.324623825
  0
LINE
  5
439
330
1F
100
AcDbEntity
  8
0
  6
CONTINUOUS
 62
     7
100
AcDbLine
 10
262.2111116143
 20
168.8060681839
 30
0.0
 11
262.2111116143
 21
170.2946941871
 31
0.0
  0
LINE
  5
43A
330
1F
100
AcDbEntity
  8
0
  6
CONTINUOUS
 62
     7
100
AcDbLine
 10
260.5273400041
 20
173.9222924728
 30
0.0
 11
260.5273400041
 21
170.8194236774
 31
0.0
  0
LINE
  5
43B
330
1F
100
AcDbEntity
  8
0
  6
CONTINUOUS
 62
     7
100
AcDbLine
 10
260.630873272
 20
173.8625388164
 30
0.0
 11
260.5273400041
 21
173.9222924728
 31
0.0
  0
LINE
  5
43C
330
1F
100
AcDbEntity
  8
0
  6
CONTINUOUS
 62
     7
100
AcDbLine
 10
274.6646080705
 20
172.6234178562
 30
0.0
 11
274.7681413385
 21
172.2370605487
 31
0.0
  0
LINE
  5
43D
330
1F
100
AcDbEntity
  8
0
  6
CONTINUOUS
 62
     7
100
AcDbLine
 10
274.7681413385
 20
172.2370605487
 30
0.0
 11
274.5440278741
 21
171.7541437168
 31
0.0
  0
LINE
  5
43E
330
1F
100
AcDbEntity
  8
0
  6
CONTINUOUS
 62
     7
100
AcDbLine
 10
274.7681413385
 20
172.2370605487
 30
0.0
 11
274.7681413385
 21
169.6124892254
 31
0.0
  0
LINE
  5
43F
330
1F
100
AcDbEntity
  8
0
  6
CONTINUOUS
 62
     7
100
AcDbLine
 10
260.5273400041
 20
173.9222924728
 30
0.0
 11
260.7515130731
 21
174.4052093048
 31
0.0
  0
LINE
  5
440
330
1F
100
AcDbEntity
  8
0
  6
CONTINUOUS
 62
     7
100
AcDbLine
 10
260.7515130731
 20
174.4052093048
 30
0.0
 11
261.0343371125
 21
174.7317831535
 31
0.0
  0
LWPOLYLINE
  5
441
330
1F
100
AcDbEntity
  8
0
  6
CONTINUOUS
 62
     7
100
AcDbPolyline
 90
       20
 70
   128
 43
0.0
 10
178.3262167665
 20
173.6968975086
 10
178.9765630456
 20
174.2227296848
 10
179.8874412271
 20
174.5981793422
 10
180.9602056237
 20
174.7825365085
 10
182.0784483644
 20
174.7558336277
 10
183.1211124154
 20
174.5209615249
 10
183.9752469751
 20
174.1033713836
 10
184.5481668206
 20
173.5483329315
 10
184.777823517
 20
172.9159574527
 10
184.6393619271
 20
172.2747902889
 10
184.1478024217
 20
171.6943304557
 10
183.3563719483
 20
171.2374310512
 10
182.3509011956
 20
170.9536533374
 10
181.2402282449
 20
170.8737533111
 10
180.1448140832
 20
171.0063438434
 10
179.1833315583
 20
171.3370900173
 10
178.4599695893
 20
171.8301098365
 10
178.0531082841
 20
172.4320571441
 10
178.0068550798
 20
173.0776350517
 10
178.3262167665
 20
173.6968975086
  0
LWPOLYLINE
  5
442
330
1F
100
AcDbEntity
  8
0
  6
CONTINUOUS
 62
     7
100
AcDbPolyline
 90
       19
 70
   128
 43
0.0
 10
196.6139350625
 20
188.5118703861
 10
197.4674139711
 20
188.85686207
 10
198.0650101396
 20
189.3495540638
 10
198.3346615525
 20
189.9305205364
 10
198.2438836785
 20
190.529696228
 10
197.8035245629
 20
191.0748105068
 10
197.0668111535
 20
191.5001194496
 10
196.122554371
 20
191.7543034572
 10
195.0845990869
 20
191.8067257423
 10
194.0782342645
 20
191.6510682125
 10
193.2247553559
 20
191.3060765285
 10
192.6271591874
 20
190.8133845348
 10
192.3575077745
 20
190.2324180622
 10
192.4482856485
 20
189.6332125682
 10
192.8886447641
 20
189.0880982895
 10
193.6253581735
 20
188.6627893467
 10
194.569614956
 20
188.408605339
 10
195.6075702401
 20
188.3561830539
 10
196.6139350625
 20
188.5118703861
  0
LWPOLYLINE
  5
443
330
1F
100
AcDbEntity
  8
0
  6
CONTINUOUS
 62
     7
100
AcDbPolyline
 90
       19
 70
   128
 43
0.0
 10
169.0367732736
 20
172.5919168014
 10
169.8902521821
 20
172.9368786831
 10
170.4878483506
 20
173.4296004791
 10
170.7574997636
 20
174.0105669517
 10
170.6667218896
 20
174.6097426433
 10
170.226362774
 20
175.1548569221
 10
169.4896493646
 20
175.5801658649
 10
168.545392582
 20
175.8343498726
 10
167.5074372979
 20
175.8867721576
 10
166.5010724755
 20
175.7311146278
 10
165.647593567
 20
175.3861229438
 10
165.0499973985
 20
174.8934309501
 10
164.7803459855
 20
174.3124346752
 10
164.8711238595
 20
173.7132589836
 10
165.3114829751
 20
173.1681447048
 10
166.0481963845
 20
172.742835762
 10
166.9924531671
 20
172.4886517543
 10
168.0304084512
 20
172.4362294693
 10
169.0367732736
 20
172.5919168014
  0
LWPOLYLINE
  5
444
330
1F
100
AcDbEntity
  8
0
  6
CONTINUOUS
 62
     7
100
AcDbPolyline
 90
       19
 70
   128
 43
0.0
 10
198.2049618455
 20
155.7534854431
 10
199.0583811494
 20
156.098477127
 10
199.6559773179
 20
156.5911691208
 10
199.9256883355
 20
157.1721355934
 10
199.8348508569
 20
157.771311285
 10
199.3945513459
 20
158.3164553661
 10
198.6578379365
 20
158.7417345066
 10
197.7135215493
 20
158.9959483165
 10
196.6756258699
 20
159.0483706016
 10
195.6692014428
 20
158.8926832695
 10
194.8157821389
 20
158.5476915855
 10
194.2181859704
 20
158.0549995918
 10
193.9484749528
 20
157.4740331192
 10
194.0393124314
 20
156.8748574276
 10
194.4796119424
 20
156.3297431488
 10
195.2163253518
 20
155.904434206
 10
196.160641739
 20
155.6502501983
 10
197.1985374185
 20
155.5978279133
 10
198.2049618455
 20
155.7534854431
  0
LWPOLYLINE
  5
445
330
1F
100
AcDbEntity
  8
0
  6
CONTINUOUS
 62
     7
100
AcDbPolyline
 90
       19
 70
   128
 43
0.0
 10
254.9502526017
 20
154.8350374717
 10
255.8037315103
 20
155.1800291557
 10
256.4013276788
 20
155.6727211494
 10
256.6709790917
 20
156.253687622
 10
256.5802012178
 20
156.8528633136
 10
256.1398421022
 20
157.3979775924
 10
255.4031286927
 20
157.8232865352
 10
254.4588719102
 20
158.0774705429
 10
253.4209166261
 20
158.129892828
 10
252.4145518037
 20
157.9742352981
 10
251.5610728952
 20
157.6292436142
 10
250.9634767266
 20
157.1365516204
 10
250.6938253137
 20
156.5555553455
 10
250.7846031877
 20
155.9563796539
 10
251.2249623033
 20
155.4112653751
 10
251.9616757127
 20
154.9859564323
 10
252.9059324952
 20
154.7317724247
 10
253.9438877793
 20
154.6793501396
 10
254.9502526017
 20
154.8350374717
  0
LWPOLYLINE
  5
446
330
1F
100
AcDbEntity
  8
0
  6
CONTINUOUS
 62
     7
100
AcDbPolyline
 90
       19
 70
   128
 43
0.0
 10
282.5274143907
 20
170.7549910564
 10
283.3808932992
 20
171.0999827404
 10
283.9784894677
 20
171.5926747341
 10
284.2481408807
 20
172.1736412067
 10
284.1573630067
 20
172.7728168983
 10
283.7170038911
 20
173.3179311771
 10
282.9802904817
 20
173.7432401199
 10
282.0360336991
 20
173.9974241275
 10
280.998078415
 20
174.0498464126
 10
279.9917135926
 20
173.8941888828
 10
279.1382346841
 20
173.5491971988
 10
278.5406385156
 20
173.0565052051
 10
278.2709871026
 20
172.4755387325
 10
278.3617649766
 20
171.8763332386
 10
278.8021240922
 20
171.3312189598
 10
279.5388375016
 20
170.9059398193
 10
280.4830942842
 20
170.6517260093
 10
281.5210495683
 20
170.5993037243
 10
282.5274143907
 20
170.7549910564
  0
LWPOLYLINE
  5
447
330
1F
100
AcDbEntity
  8
0
  6
CONTINUOUS
 62
     7
100
AcDbPolyline
 90
       19
 70
   128
 43
0.0
 10
224.1910968515
 20
204.4318239708
 10
225.04457576
 20
204.7768156547
 10
225.6421719285
 20
205.2695076484
 10
225.9118233415
 20
205.8504741211
 10
225.8210454675
 20
206.4496498127
 10
225.3806863519
 20
206.9947640915
 10
224.6439729425
 20
207.4200730343
 10
223.6997161599
 20
207.6742570419
 10
222.6617608758
 20
207.726679327
 10
221.6553960534
 20
207.5710217971
 10
220.8019171449
 20
207.2260301132
 10
220.2043209764
 20
206.7333381195
 10
219.9346695634
 20
206.1523716468
 10
220.025507042
 20
205.5531959552
 10
220.465806553
 20
205.0080518741
 10
221.2025199624
 20
204.5827727337
 10
222.1467767449
 20
204.3285589237
 10
223.1847320291
 20
204.2761366386
 10
224.1910968515
 20
204.4318239708
  0
ARC
  5
448
330
1F
100
AcDbEntity
  8
0
  6
CONTINUOUS
 62
     7
100
AcDbCircle
 10
223.807245005
 20
145.1626731841
 30
0.0
 40
5.161931705605802
100
AcDbArc
 50
62.2676233091
 51
117.7600877337
  0
LWPOLYLINE
  5
449
330
1F
100
AcDbEntity
  8
0
  6
CONTINUOUS
 62
     7
100
AcDbPolyline
 90
        6
 70
   128
 43
0.0
 10
221.4009438249
 20
146.9558696766
 10
220.8863769265
 20
147.3378758449
 10
220.4795156213
 20
147.9397933502
 10
220.4332624169
 20
148.5853712577
 10
220.7526241037
 20
149.2046337146
 10
221.4029703828
 20
149.7304956932
  0
LWPOLYLINE
  5
44A
330
1F
100
AcDbEntity
  8
0
  6
CONTINUOUS
 62
     7
100
AcDbPolyline
 90
       34
 70
   128
 43
0.0
 10
233.5028324815
 20
194.9077467937
 10
232.29244096
 20
194.0614502449
 10
230.8264051171
 20
193.3626751918
 10
229.1578326913
 20
192.8367238063
 10
227.3469839784
 20
192.5025503654
 10
225.4593048783
 20
192.3722546119
 10
223.5630427095
 20
192.4505453128
 10
221.7266832086
 20
192.7345912475
 10
220.0166855546
 20
193.2141404171
 10
218.4947405549
 20
193.8718478698
 10
217.2159229013
 20
194.6839313526
 10
216.226485798
 20
195.6210653801
 10
215.5620728227
 20
196.6493647117
 10
215.2468238565
 20
197.7316658516
 10
215.2920637818
 20
198.8288383503
 10
215.6961832734
 20
199.9012451191
 10
216.4445791932
 20
200.9101431389
 10
217.5101314279
 20
201.8190245647
 10
218.8544545861
 20
202.5950770397
 10
220.4288516732
 20
203.2102267761
 10
222.176459858
 20
203.6422412414
 10
224.0341578218
 20
203.8755338211
 10
225.9347711297
 20
203.9016704578
 10
227.8095160218
 20
203.719667675
 10
229.5908008309
 20
203.3361415882
 10
231.2141333314
 20
202.764920475
 10
232.6208625527
 20
202.0266871471
 10
233.760145733
 20
201.1480848808
 10
234.5908556672
 20
200.160912754
 10
235.0828920098
 20
199.1008143444
 10
235.2184925767
 20
198.0061154384
 10
234.9928293916
 20
196.9163935203
 10
234.4139490815
 20
195.8709876556
 10
233.5028324815
 20
194.9077467937
  0
LWPOLYLINE
  5
44B
330
1F
100
AcDbEntity
  8
0
  6
CONTINUOUS
 62
     7
100
AcDbPolyline
 90
       34
 70
   128
 43
0.0
 10
275.9292398187
 20
170.4155128021
 10
274.7188482972
 20
169.5692162532
 10
273.2528124543
 20
168.8704412002
 10
271.5842400285
 20
168.3444600124
 10
269.7733913156
 20
168.0102865715
 10
267.8857122155
 20
167.8800206203
 10
265.9894500466
 20
167.9583113212
 10
264.1530905458
 20
168.2423572559
 10
262.4430928918
 20
168.7219064254
 10
260.9211478921
 20
169.3796138782
 10
259.6423302384
 20
170.191697361
 10
258.6528931352
 20
171.1288313884
 10
257.9884801599
 20
172.1571307201
 10
257.6732311936
 20
173.2394020576
 10
257.718471119
 20
174.3366043586
 10
258.1225906106
 20
175.4090111274
 10
258.8709865304
 20
176.4179091472
 10
259.9365387651
 20
177.3267905731
 10
261.2808619233
 20
178.1028430481
 10
262.8552590104
 20
178.7179927845
 10
264.6028671952
 20
179.1500072498
 10
266.4605651589
 20
179.3832998294
 10
268.3611784669
 20
179.4094066639
 10
270.235923359
 20
179.2274336834
 10
272.0172081681
 20
178.8438777942
 10
273.6405406686
 20
178.2726864833
 10
275.0472698899
 20
177.5344233532
 10
276.1865530702
 20
176.6558508892
 10
277.0172630044
 20
175.6686489601
 10
277.509299347
 20
174.6085505504
 10
277.6448999139
 20
173.5138814468
 10
277.4192367288
 20
172.4241297264
 10
276.8403564187
 20
171.378753664
 10
275.9292398187
 20
170.4155128021
  0
ARC
  5
44C
330
1F
100
AcDbEntity
  8
0
  6
CONTINUOUS
 62
     7
100
AcDbCircle
 10
285.0592468503
 20
172.2225319166
 30
0.0
 40
1.746488568470285
100
AcDbArc
 50
290.7850117109
 51
69.2149882891
  0
LINE
  5
44D
330
1F
100
AcDbEntity
  8
0
  6
CONTINUOUS
 62
     7
100
AcDbLine
 10
249.616530964
 20
149.7713248748
 30
0.0
 11
285.6790099832
 21
170.5897073764
 31
0.0
  0
LINE
  5
44E
330
1F
100
AcDbEntity
  8
0
  6
CONTINUOUS
 62
     7
100
AcDbLine
 10
163.3495364877
 20
172.6307492275
 30
0.0
 11
214.6127496453
 21
143.0371027012
 31
0.0
  0
ARC
  5
44F
330
1F
100
AcDbEntity
  8
0
  6
CONTINUOUS
 62
     7
100
AcDbCircle
 10
163.9691851992
 20
174.2635588665
 30
0.0
 40
1.746434036197437
100
AcDbArc
 50
110.7816756403
 51
249.2183243597
  0
LINE
  5
450
330
1F
100
AcDbEntity
  8
0
  6
CONTINUOUS
 62
     7
100
AcDbLine
 10
219.9180398675
 20
208.5527102966
 30
0.0
 11
163.3495364877
 21
175.8963685054
 31
0.0
  0
ARC
  5
451
330
1F
100
AcDbEntity
  8
0
  6
CONTINUOUS
 62
     7
100
AcDbCircle
 10
222.746459076
 20
203.0939013776
 30
0.0
 40
6.148052539895843
100
AcDbArc
 50
62.6095858781
 51
117.3904141219
  0
LINE
  5
452
330
1F
100
AcDbEntity
  8
0
  6
CONTINUOUS
 62
     7
100
AcDbLine
 10
240.6779204103
 20
199.8338918705
 30
0.0
 11
225.5748782846
 21
208.5527102966
 31
0.0
  0
ARC
  5
453
330
1F
100
AcDbEntity
  8
0
  6
CONTINUOUS
 62
     7
100
AcDbCircle
 10
237.5167872675
 20
197.9261648903
 30
0.0
 40
3.692178892856171
100
AcDbArc
 50
317.5325266346
 51
31.1107570918
  0
LWPOLYLINE
  5
454
330
1F
100
AcDbEntity
  8
0
  6
CONTINUOUS
 62
     7
100
AcDbPolyline
 90
        7
 70
   128
 43
0.0
 10
230.9484754296
 20
191.0816054363
 10
230.7057653161
 20
191.0958211441
 10
229.6321664544
 20
191.0205404777
 10
228.6744986268
 20
190.730385067
 10
227.9573355409
 20
190.2630548496
 10
227.5737796517
 20
189.6792869587
 10
227.5479112359
 20
189.151845457
  0
LWPOLYLINE
  5
455
330
1F
100
AcDbEntity
  8
0
  6
CONTINUOUS
 62
     7
100
AcDbPolyline
 90
       11
 70
   128
 43
0.0
 10
249.7378264161
 20
175.9664635677
 10
250.0834141465
 20
175.6447176952
 10
250.8929644319
 20
175.2306740303
 10
251.9042168351
 20
175.0092725773
 10
252.9857431146
 20
175.0092725773
 10
253.9969955178
 20
175.2306740303
 10
254.8064861985
 20
175.6447176952
 10
255.3091321679
 20
176.1975507755
 10
255.439487526
 20
176.8173496742
 10
255.1806841584
 20
177.4235587139
 10
254.5662794801
 20
177.9373805542
  0
LINE
  5
456
330
1F
100
AcDbEntity
  8
0
  6
CONTINUOUS
 62
     7
100
AcDbLine
 10
260.2231178971
 20
181.2030296344
 30
0.0
 11
254.5662794801
 21
177.9373805542
 31
0.0
  0
ARC
  5
457
330
1F
100
AcDbEntity
  8
0
  6
CONTINUOUS
 62
     7
100
AcDbCircle
 10
267.3160833198
 20
167.4174093831
 30
0.0
 40
15.50333784065235
100
AcDbArc
 50
77.8618333339
 51
117.2266872191
  0
LINE
  5
458
330
1F
100
AcDbEntity
  8
0
  6
CONTINUOUS
 62
     7
100
AcDbLine
 10
285.6790099832
 20
173.8553564567
 30
0.0
 11
270.5759678575
 21
182.5741450805
 31
0.0
  0
LINE
  5
459
330
1F
100
AcDbEntity
  8
0
  6
CONTINUOUS
 62
     7
100
AcDbLine
 10
213.1983910295
 20
142.220638277
 30
0.0
 11
162.6423869821
 21
171.4059929866
 31
0.0
  0
LINE
  5
45A
330
1F
100
AcDbEntity
  8
0
  6
CONTINUOUS
 62
     7
100
AcDbLine
 10
162.6423869821
 20
161.1992340107
 30
0.0
 11
204.3581281396
 21
137.117258789
 31
0.0
  0
LWPOLYLINE
  5
45B
330
1F
100
AcDbEntity
  8
0
  6
CONTINUOUS
 62
     7
100
AcDbPolyline
 90
       16
 70
   128
 43
0.0
 10
209.5560107919
 20
140.1179056186
 10
209.2860613557
 20
141.0088758487
 10
208.7604079934
 20
142.0735340137
 10
208.0638085099
 20
143.0241088886
 10
207.2581325265
 20
143.776170494
 10
206.4150248262
 20
144.2629020233
 10
205.6093488427
 20
144.4410305042
 10
204.9127493592
 20
144.2947309036
 10
204.387095997
 20
143.836997034
 10
204.0790591928
 20
143.1085388679
 10
204.0160570832
 20
142.1740274448
 10
204.203692505
 20
141.1165516395
 10
204.6252165528
 20
140.0300185699
 10
205.2432571145
 20
139.0110175628
 10
206.0028587075
 20
138.1500880737
 10
206.0585294458
 20
138.0988578815
  0
LWPOLYLINE
  5
45C
330
1F
100
AcDbEntity
  8
0
  6
CONTINUOUS
 62
     7
100
AcDbPolyline
 90
       22
 70
   128
 43
0.0
 10
177.7186070176
 20
154.4782440681
 10
178.5522971841
 20
153.8518588562
 10
179.3859873506
 20
153.5156886596
 10
180.1455889436
 20
153.4995954055
 10
180.7636295053
 20
153.8050096054
 10
181.1852131578
 20
154.4048111457
 10
181.3728485795
 20
155.2456836719
 10
181.30984647
 20
156.252942564
 10
181.0018096658
 20
157.3370318432
 10
180.4760966989
 20
158.4016900081
 10
179.7794972154
 20
159.3522946853
 10
178.9738808366
 20
160.1043562908
 10
178.1307731362
 20
160.5910580177
 10
177.3250971528
 20
160.7691864986
 10
176.6284976693
 20
160.622886898
 10
176.1028443071
 20
160.1651530285
 10
175.7948075029
 20
159.4366948623
 10
175.7318053933
 20
158.5021834392
 10
175.9193812104
 20
157.4447076339
 10
176.3409648629
 20
156.3582043667
 10
176.9590054246
 20
155.3392033596
 10
177.7186070176
 20
154.4782440681
  0
LINE
  5
45D
330
1F
100
AcDbEntity
  8
0
  6
CONTINUOUS
 62
     7
100
AcDbLine
 10
163.3495364877
 20
160.7908825893
 30
0.0
 11
162.6423869821
 21
161.1992340107
 31
0.0
  0
LINE
  5
45E
330
1F
100
AcDbEntity
  8
0
  6
CONTINUOUS
 62
     7
100
AcDbLine
 10
204.3580089303
 20
137.1171991844
 30
0.0
 11
163.3495364877
 21
160.7908825893
 31
0.0
  0
LWPOLYLINE
  5
45F
330
1F
100
AcDbEntity
  8
0
  6
CONTINUOUS
 62
     7
100
AcDbPolyline
 90
       11
 70
   128
 43
0.0
 10
207.0577417108
 20
143.9183275718
 10
206.8650994989
 20
144.0015952606
 10
206.1165843698
 20
144.1369872112
 10
205.4920469018
 20
143.9361791629
 10
205.0591979714
 20
143.4209864158
 10
204.8648868295
 20
142.6471989174
 10
204.9302731248
 20
141.6986804027
 10
205.2481446954
 20
140.6782190818
 10
205.7841692659
 20
139.6964113731
 10
206.4802323075
 20
138.8596217651
 10
206.8358336183
 20
138.5475914497
  0
LWPOLYLINE
  5
460
330
1F
100
AcDbEntity
  8
0
  6
CONTINUOUS
 62
     7
100
AcDbPolyline
 90
       13
 70
   128
 43
0.0
 10
255.5907045098
 20
155.0640087146
 10
255.9920821878
 20
155.4440479297
 10
256.1823998185
 20
155.9963445682
 10
255.9920821878
 20
156.5486412067
 10
255.4501567575
 20
157.0168654937
 10
254.639116356
 20
157.3297302742
 10
253.6824022027
 20
157.4395816345
 10
252.7256880494
 20
157.3297302742
 10
251.914647648
 20
157.0168654937
 10
251.3727222177
 20
156.5486412067
 10
251.1824045869
 20
155.9963445682
 10
251.3727222177
 20
155.4440479297
 10
251.7537151071
 20
155.0781052131
  0
LWPOLYLINE
  5
461
330
1F
100
AcDbEntity
  8
0
  6
CONTINUOUS
 62
     7
100
AcDbPolyline
 90
       13
 70
   128
 43
0.0
 10
198.8657985421
 20
155.9965829868
 10
199.2467914315
 20
156.3625257034
 10
199.4371090623
 20
156.9148223419
 10
199.2467914315
 20
157.4671189804
 10
198.7048660012
 20
157.9353134651
 10
197.8937659951
 20
158.2481782455
 10
196.9371114465
 20
158.3580296058
 10
195.9803972932
 20
158.2481782455
 10
195.1692972871
 20
157.9353134651
 10
194.6273718568
 20
157.4671189804
 10
194.437054226
 20
156.9148223419
 10
194.6273718568
 20
156.3625257034
 10
195.0083647462
 20
155.9965829868
  0
LWPOLYLINE
  5
462
330
1F
100
AcDbEntity
  8
0
  6
CONTINUOUS
 62
     7
100
AcDbPolyline
 90
        6
 70
   128
 43
0.0
 10
178.9765630456
 20
154.5866947193
 10
179.7572050782
 20
154.2864959259
 10
180.4532085153
 20
154.3196361084
 10
180.9892330857
 20
154.6825985927
 10
181.307164261
 20
155.3359847088
 10
181.3721333238
 20
155.7450811882
  0
LWPOLYLINE
  5
463
330
1F
100
AcDbEntity
  8
0
  6
CONTINUOUS
 62
     7
100
AcDbPolyline
 90
       11
 70
   128
 43
0.0
 10
178.7734900209
 20
160.2464835663
 10
178.5808478089
 20
160.329751255
 10
177.8323326799
 20
160.4651432056
 10
177.2077952119
 20
160.2643351574
 10
176.7748866769
 20
159.7491424102
 10
176.5806351396
 20
158.9753549118
 10
176.6459618302
 20
158.0268363971
 10
176.9638930055
 20
157.0063750763
 10
177.4999175759
 20
156.0245673675
 10
178.195921013
 20
155.1877777595
 10
178.9765630456
 20
154.5866947193
  0
LWPOLYLINE
  5
464
330
1F
100
AcDbEntity
  8
0
  6
CONTINUOUS
 62
     7
100
AcDbPolyline
 90
       25
 70
   128
 43
0.0
 10
274.5386634561
 20
169.4677691478
 10
275.5466972085
 20
170.1961081047
 10
276.4246140214
 20
171.1442391891
 10
276.9652281495
 20
172.1730451603
 10
277.1477375718
 20
173.2429783363
 10
276.9652281495
 20
174.3129115123
 10
276.4246140214
 20
175.3417174835
 10
275.5466972085
 20
176.2898485679
 10
274.3652735444
 20
177.12091613
 10
272.9257021638
 20
177.8029422779
 10
271.2832365724
 20
178.3097605724
 10
269.5011172982
 20
178.6218206901
 10
267.6477704736
 20
178.7272017021
 10
265.7944236489
 20
178.6218206901
 10
264.0122447702
 20
178.3097605724
 10
262.3698387834
 20
177.8029422779
 10
260.9302674028
 20
177.12091613
 10
259.748784134
 20
176.2898485679
 10
258.8709269258
 20
175.3417174835
 10
258.3303127977
 20
174.3129115123
 10
258.1477437707
 20
173.2429783363
 10
258.3303127977
 20
172.1730451603
 10
258.8709269258
 20
171.1442391891
 10
259.748784134
 20
170.1961081047
 10
260.7568774911
 20
169.4677691478
  0
LWPOLYLINE
  5
465
330
1F
100
AcDbEntity
  8
0
  6
CONTINUOUS
 62
     7
100
AcDbPolyline
 90
       13
 70
   128
 43
0.0
 10
283.1882510873
 20
170.9980587978
 10
283.5692439767
 20
171.3640313167
 10
283.7595616075
 20
171.9163279552
 10
283.5692439767
 20
172.4686245937
 10
283.0273185464
 20
172.9368190784
 10
282.2162781449
 20
173.2496838588
 10
281.2595639917
 20
173.3595352192
 10
280.3028498384
 20
173.2496838588
 10
279.4918094369
 20
172.9368190784
 10
278.9498840066
 20
172.4686245937
 10
278.7595663758
 20
171.9163279552
 10
278.9498840066
 20
171.3640313167
 10
279.330876896
 20
170.9980587978
  0
ARC
  5
466
330
1F
100
AcDbEntity
  8
0
  6
CONTINUOUS
 62
     7
100
AcDbCircle
 10
285.5460319861
 20
171.3290320497
 30
0.0
 40
2.278491527595379
100
AcDbArc
 50
351.6446455367
 51
68.364857446
  0
LINE
  5
467
330
1F
100
AcDbEntity
  8
0
  6
CONTINUOUS
 62
     7
100
AcDbLine
 10
286.3860998841
 20
173.4470050354
 30
0.0
 11
285.6790099832
 21
173.8553564567
 31
0.0
  0
LWPOLYLINE
  5
468
330
1F
100
AcDbEntity
  8
0
  6
CONTINUOUS
 62
     7
100
AcDbPolyline
 90
       13
 70
   128
 43
0.0
 10
169.6976695748
 20
172.8349845428
 10
170.0786028596
 20
173.2009272594
 10
170.2689204904
 20
173.7532238979
 10
170.0786028596
 20
174.3055205364
 10
169.5366774293
 20
174.7737448234
 10
168.7256370278
 20
175.0865798015
 10
167.7689228746
 20
175.1964609642
 10
166.8122087213
 20
175.0865798015
 10
166.0011683198
 20
174.7737448234
 10
165.4592428895
 20
174.3055205364
 10
165.2689252587
 20
173.7532238979
 10
165.4592428895
 20
173.2009272594
 10
165.8402357789
 20
172.8349845428
  0
ARC
  5
469
330
1F
100
AcDbEntity
  8
0
  6
CONTINUOUS
 62
     7
100
AcDbCircle
 10
163.4170673538
 20
173.4470199365
 30
0.0
 40
2.183098872832968
100
AcDbArc
 50
110.7844686959
 51
249.2155313041
  0
LINE
  5
46A
330
1F
100
AcDbEntity
  8
0
  6
CONTINUOUS
 62
     7
100
AcDbLine
 10
163.3495364877
 20
175.8963685054
 30
0.0
 11
162.6423869821
 21
175.4880468864
 31
0.0
  0
ARC
  5
46B
330
1F
100
AcDbEntity
  8
0
  6
CONTINUOUS
 62
     7
100
AcDbCircle
 10
163.6801109658
 20
163.4896703296
 30
0.0
 40
2.514551569859914
100
AcDbArc
 50
185.6926640971
 51
245.6262289019
  0
LINE
  5
46C
330
1F
100
AcDbEntity
  8
0
  6
CONTINUOUS
 62
     7
100
AcDbLine
 10
250.323620865
 20
175.4881660957
 30
0.0
 11
250.323620865
 21
176.3046305198
 31
0.0
  0
LINE
  5
46D
330
1F
100
AcDbEntity
  8
0
  6
CONTINUOUS
 62
     7
100
AcDbLine
 10
254.5662794801
 20
175.4881660957
 30
0.0
 11
254.5662794801
 21
177.9373805542
 31
0.0
  0
LWPOLYLINE
  5
46E
330
1F
100
AcDbEntity
  8
0
  6
CONTINUOUS
 62
     7
100
AcDbPolyline
 90
       13
 70
   128
 43
0.0
 10
197.2748313638
 20
188.7549381275
 10
197.6557646485
 20
189.1209106464
 10
197.8460822793
 20
189.6731774826
 10
197.6557646485
 20
190.2254741211
 10
197.1138392182
 20
190.6936984081
 10
196.3027988168
 20
191.0065631885
 10
195.3460846635
 20
191.1164145488
 10
194.3893705102
 20
191.0065631885
 10
193.5783301087
 20
190.6936984081
 10
193.0364046785
 20
190.2254741211
 10
192.8460870477
 20
189.6731774826
 10
193.0364046785
 20
189.1209106464
 10
193.4173975679
 20
188.7549381275
  0
LWPOLYLINE
  5
46F
330
1F
100
AcDbEntity
  8
0
  6
CONTINUOUS
 62
     7
100
AcDbPolyline
 90
       25
 70
   128
 43
0.0
 10
232.1122561189
 20
193.9600031395
 10
233.1202898713
 20
194.6883420963
 10
233.9982066842
 20
195.6365029831
 10
234.5388208123
 20
196.6653089542
 10
234.7213302346
 20
197.7352123279
 10
234.5388208123
 20
198.805145504
 10
233.9982066842
 20
199.8339514751
 10
233.1202898713
 20
200.7821123619
 10
231.9388662072
 20
201.6131501217
 10
230.4992948266
 20
202.2952060718
 10
228.8568292352
 20
202.801994564
 10
227.074709961
 20
203.1140844841
 10
225.2213631364
 20
203.219465496
 10
223.3680163118
 20
203.1140844841
 10
221.585837433
 20
202.801994564
 10
219.9434314462
 20
202.2952060718
 10
218.5038600656
 20
201.6131501217
 10
217.3223767968
 20
200.7821123619
 10
216.4445195886
 20
199.8339514751
 10
215.9039054605
 20
198.805145504
 10
215.7213364335
 20
197.7352123279
 10
215.9039054605
 20
196.6653089542
 10
216.4445195886
 20
195.6365029831
 10
217.3223767968
 20
194.6883420963
 10
218.3304701539
 20
193.9600031395
  0
LWPOLYLINE
  5
470
330
1F
100
AcDbEntity
  8
0
  6
CONTINUOUS
 62
     7
100
AcDbPolyline
 90
       13
 70
   128
 43
0.0
 10
224.8519931527
 20
204.6748917122
 10
225.2329264375
 20
205.0408642311
 10
225.4232440683
 20
205.5931608696
 10
225.2329264375
 20
206.1454575081
 10
224.6910010072
 20
206.6136519928
 10
223.8799606057
 20
206.9265167732
 10
222.9232464524
 20
207.0363681335
 10
221.9665322991
 20
206.9265167732
 10
221.1554918977
 20
206.6136519928
 10
220.6135664674
 20
206.1454575081
 10
220.4232488366
 20
205.5931608696
 10
220.6135664674
 20
205.0408642311
 10
220.9945593568
 20
204.6748917122
  0
LWPOLYLINE
  5
471
330
1F
100
AcDbEntity
  8
0
  6
CONTINUOUS
 62
     7
100
AcDbPolyline
 90
       22
 70
   128
 43
0.0
 10
432.9414640161
 20
45.8279769439
 10
432.1077738496
 20
45.201591732
 10
431.2740836831
 20
44.8654215355
 10
430.5144820901
 20
44.8493282814
 10
429.8964415284
 20
45.1547424812
 10
429.4748578759
 20
45.7545440216
 10
429.2872820588
 20
46.5954463501
 10
429.3502841683
 20
47.6026456375
 10
429.6582613679
 20
48.6867945213
 10
430.1839743348
 20
49.7514526863
 10
430.8805738183
 20
50.7020275612
 10
431.6861901971
 20
51.4540593643
 10
432.5293575021
 20
51.9407908935
 10
433.3349738809
 20
52.1189491768
 10
434.0315733644
 20
51.9726197738
 10
434.5572863313
 20
51.5149157066
 10
434.8652635308
 20
50.7864277382
 10
434.9282656404
 20
49.8519461174
 10
434.7406898233
 20
48.7944405098
 10
434.3191061708
 20
47.7079074402
 10
433.7010656091
 20
46.6889064331
 10
432.9414640161
 20
45.8279769439
  0
LWPOLYLINE
  5
472
330
1F
100
AcDbEntity
  8
0
  6
CONTINUOUS
 62
     7
100
AcDbPolyline
 90
       22
 70
   128
 43
0.0
 10
409.6069608422
 20
32.3572676201
 10
408.7732706758
 20
31.7308824081
 10
407.9395805093
 20
31.3947122116
 10
407.1799193116
 20
31.3786189575
 10
406.56187875
 20
31.6840331573
 10
406.1403547021
 20
32.2838346977
 10
405.9527192803
 20
33.1246774215
 10
406.0157213899
 20
34.1319363136
 10
406.3237581941
 20
35.2160255928
 10
406.8494115563
 20
36.2806837577
 10
407.5460110398
 20
37.2312586326
 10
408.3516870233
 20
37.9833500404
 10
409.1947947236
 20
38.4700815696
 10
410.000470707
 20
38.6481802482
 10
410.6970701905
 20
38.5019104499
 10
411.2227235528
 20
38.0441467781
 10
411.530760357
 20
37.3157184143
 10
411.5937624665
 20
36.3811771888
 10
411.4061866494
 20
35.3237311859
 10
410.9846029969
 20
34.2371981163
 10
410.3665624353
 20
33.2181971092
 10
409.6069608422
 20
32.3572676201
  0
LINE
  5
473
330
1F
100
AcDbEntity
  8
0
  6
CONTINUOUS
 62
     7
100
AcDbLine
 10
420.3405056687
 20
46.3627498169
 30
0.0
 11
420.1576386186
 21
46.4683692474
 31
0.0
  0
LWPOLYLINE
  5
474
330
1F
100
AcDbEntity
  8
0
  6
CONTINUOUS
 62
     7
100
AcDbPolyline
 90
        9
 70
   128
 43
0.0
 10
420.5405388566
 20
46.4782040138
 10
420.5190811845
 20
46.4455406685
 10
420.4946432801
 20
46.4163343925
 10
420.4681192132
 20
46.3917176742
 10
420.4405222627
 20
46.3726441879
 10
420.4129253121
 20
46.3598887939
 10
420.3864012452
 20
46.3538687248
 10
420.3619633409
 20
46.3548223991
 10
420.3405056687
 20
46.3627498169
  0
LINE
  5
475
330
1F
100
AcDbEntity
  8
0
  6
CONTINUOUS
 62
     7
100
AcDbLine
 10
420.7233463021
 20
46.7949430961
 30
0.0
 11
420.5405388566
 21
46.4782040138
 31
0.0
  0
LINE
  5
476
330
1F
100
AcDbEntity
  8
0
  6
CONTINUOUS
 62
     7
100
AcDbLine
 10
420.7233463021
 20
46.7949430961
 30
0.0
 11
425.2134834024
 21
49.3870298881
 31
0.0
  0
ARC
  5
477
330
1F
100
AcDbEntity
  8
0
  6
CONTINUOUS
 62
     7
100
AcDbCircle
 10
426.8912957927
 20
46.8251100764
 30
0.0
 40
3.06243163828748
100
AcDbArc
 50
69.9913368839
 51
123.2209630065
  0
ARC
  5
478
330
1F
100
AcDbEntity
  8
0
  6
CONTINUOUS
 62
     7
100
AcDbCircle
 10
428.1110471796
 20
50.9350460353
 30
0.0
 40
1.244281732020233
100
AcDbArc
 50
262.0589375457
 51
337.966634559
  0
ARC
  5
479
330
1F
100
AcDbEntity
  8
0
  6
CONTINUOUS
 62
     7
100
AcDbCircle
 10
436.7251333094
 20
46.0244081375
 30
0.0
 40
8.683867018906943
100
AcDbArc
 50
123.509490955
 51
149.2204466067
  0
LINE
  5
47A
330
1F
100
AcDbEntity
  8
0
  6
CONTINUOUS
 62
     7
100
AcDbLine
 10
431.9309864732
 20
53.2649676819
 30
0.0
 11
432.284561226
 21
53.4690539856
 31
0.0
  0
ARC
  5
47B
330
1F
100
AcDbEntity
  8
0
  6
CONTINUOUS
 62
     7
100
AcDbCircle
 10
432.560577526
 20
53.1306318319
 30
0.0
 40
0.4367087724728795
100
AcDbArc
 50
350.7856787307
 51
129.2006025522
  0
LINE
  5
47C
330
1F
100
AcDbEntity
  8
0
  6
CONTINUOUS
 62
     7
100
AcDbLine
 10
432.991651127
 20
53.0607025642
 30
0.0
 11
432.991651127
 21
52.2985975761
 31
0.0
  0
ARC
  5
47D
330
1F
100
AcDbEntity
  8
0
  6
CONTINUOUS
 62
     7
100
AcDbCircle
 10
432.7012410143
 20
52.3057797894
 30
0.0
 40
0.2904989117818713
100
AcDbArc
 50
293.0248075006
 51
358.5832909233
  0
ARC
  5
47E
330
1F
100
AcDbEntity
  8
0
  6
CONTINUOUS
 62
     7
100
AcDbCircle
 10
435.0142249702
 20
46.7697173568
 30
0.0
 40
5.709330267833455
100
AcDbArc
 50
112.6575403306
 51
166.9085706188
  0
ARC
  5
47F
330
1F
100
AcDbEntity
  8
0
  6
CONTINUOUS
 62
     7
100
AcDbCircle
 10
429.1501193441
 20
48.1424197895
 30
0.0
 40
0.3134140438467683
100
AcDbArc
 50
302.9399857872
 51
345.3045772092
  0
LINE
  5
480
330
1F
100
AcDbEntity
  8
0
  6
CONTINUOUS
 62
     7
100
AcDbLine
 10
429.0672217103
 20
47.7331798095
 30
0.0
 11
429.3205414506
 21
47.8793900032
 31
0.0
  0
ARC
  5
481
330
1F
100
AcDbEntity
  8
0
  6
CONTINUOUS
 62
     7
100
AcDbCircle
 10
429.2329454075
 20
47.4741757061
 30
0.0
 40
0.3074857222730037
100
AcDbArc
 50
122.6131333175
 51
177.3849764912
  0
LINE
  5
482
330
1F
100
AcDbEntity
  8
0
  6
CONTINUOUS
 62
     7
100
AcDbLine
 10
428.9257798883
 20
45.7734982986
 30
0.0
 11
428.9257798883
 21
47.4882047195
 31
0.0
  0
ARC
  5
483
330
1F
100
AcDbEntity
  8
0
  6
CONTINUOUS
 62
     7
100
AcDbCircle
 10
429.0120274846
 20
45.7595137305
 30
0.0
 40
0.0873740007810649
100
AcDbArc
 50
170.7899628932
 51
309.1757158742
  0
LINE
  5
484
330
1F
100
AcDbEntity
  8
0
  6
CONTINUOUS
 62
     7
100
AcDbLine
 10
429.3205414506
 20
45.8380501289
 30
0.0
 11
429.0672217103
 21
45.6917803306
 31
0.0
  0
LWPOLYLINE
  5
485
330
1F
100
AcDbEntity
  8
0
  6
CONTINUOUS
 62
     7
100
AcDbPolyline
 90
        9
 70
   128
 43
0.0
 10
429.4532809945
 20
45.8077113647
 10
429.4442806932
 20
45.8251755256
 10
429.4324789735
 20
45.8391230125
 10
429.4181142541
 20
45.8492558021
 10
429.4014249536
 20
45.8553950805
 10
429.382887909
 20
45.8573024292
 10
429.362920353
 20
45.854977848
 10
429.3419991227
 20
45.8485405464
 10
429.3205414506
 20
45.8380501289
  0
LWPOLYLINE
  5
486
330
1F
100
AcDbEntity
  8
0
  6
CONTINUOUS
 62
     7
100
AcDbPolyline
 90
        9
 70
   128
 43
0.0
 10
432.8148637506
 20
45.713536026
 10
432.3022638055
 20
45.3215758819
 10
431.7830477449
 20
45.0357120056
 10
431.2747989389
 20
44.8656003494
 10
430.7946239205
 20
44.81684375
 10
430.3587351533
 20
44.8912303466
 10
429.9817953797
 20
45.0861971397
 10
429.6765599938
 20
45.3951876182
 10
429.4532809945
 20
45.8077113647
  0
LWPOLYLINE
  5
487
330
1F
100
AcDbEntity
  8
0
  6
CONTINUOUS
 62
     7
100
AcDbPolyline
 90
        9
 70
   128
 43
0.0
 10
432.991651127
 20
45.6574480552
 10
432.9880152436
 20
45.6922571678
 10
432.9772268029
 20
45.7209866066
 10
432.9598818513
 20
45.7422654647
 10
432.9368148538
 20
45.7549016494
 10
432.9093371125
 20
45.7582991142
 10
432.8787599298
 20
45.7522194404
 10
432.8467522355
 20
45.737020256
 10
432.8148637506
 20
45.713536026
  0
LINE
  5
488
330
1F
100
AcDbEntity
  8
0
  6
CONTINUOUS
 62
     7
100
AcDbLine
 10
432.991651127
 20
45.6574480552
 30
0.0
 11
432.991651127
 21
40.812603714
 31
0.0
  0
ARC
  5
489
330
1F
100
AcDbEntity
  8
0
  6
CONTINUOUS
 62
     7
100
AcDbCircle
 10
431.4563602179
 20
40.8824843198
 30
0.0
 40
1.536880436010807
100
AcDbArc
 50
302.607732524
 51
357.3939126296
  0
LINE
  5
48A
330
1F
100
AcDbEntity
  8
0
  6
CONTINUOUS
 62
     7
100
AcDbLine
 10
432.284561226
 20
39.5878474731
 30
0.0
 11
424.0467820855
 21
34.8322908897
 31
0.0
  0
ARC
  5
48B
330
1F
100
AcDbEntity
  8
0
  6
CONTINUOUS
 62
     7
100
AcDbCircle
 10
423.7707308299
 20
35.1707154357
 30
0.0
 40
0.4367327203684916
100
AcDbArc
 50
170.7865063401
 51
309.203957976
  0
LINE
  5
48C
330
1F
100
AcDbEntity
  8
0
  6
CONTINUOUS
 62
     7
100
AcDbLine
 10
423.3396325799
 20
37.2819821853
 30
0.0
 11
423.3396325799
 21
35.2406423111
 31
0.0
  0
ARC
  5
48D
330
1F
100
AcDbEntity
  8
0
  6
CONTINUOUS
 62
     7
100
AcDbCircle
 10
424.8748998211
 20
37.2120749407
 30
0.0
 40
1.536858004058221
100
AcDbArc
 50
122.604582181
 51
177.3928804106
  0
LINE
  5
48E
330
1F
100
AcDbEntity
  8
0
  6
CONTINUOUS
 62
     7
100
AcDbLine
 10
426.0973606797
 20
39.6904866714
 30
0.0
 11
424.0467820855
 21
38.5067384262
 31
0.0
  0
ARC
  5
48F
330
1F
100
AcDbEntity
  8
0
  6
CONTINUOUS
 62
     7
100
AcDbCircle
 10
425.2692973747
 20
40.9850440178
 30
0.0
 40
1.53673926228831
100
AcDbArc
 50
302.6050049458
 51
357.3966402078
  0
LINE
  5
490
330
1F
100
AcDbEntity
  8
0
  6
CONTINUOUS
 62
     7
100
AcDbLine
 10
426.8044505807
 20
43.5982267875
 30
0.0
 11
426.8044505807
 21
40.9152429123
 31
0.0
  0
ARC
  5
491
330
1F
100
AcDbEntity
  8
0
  6
CONTINUOUS
 62
     7
100
AcDbCircle
 10
426.3037261807
 20
43.6474948908
 30
0.0
 40
0.5031423960875764
100
AcDbArc
 50
354.3805468871
 51
54.2924917995
  0
LINE
  5
492
330
1F
100
AcDbEntity
  8
0
  6
CONTINUOUS
 62
     7
100
AcDbLine
 10
424.8902474137
 20
45.041851284
 30
0.0
 11
426.5973840448
 21
44.0560500641
 31
0.0
  0
ARC
  5
493
330
1F
100
AcDbEntity
  8
0
  6
CONTINUOUS
 62
     7
100
AcDbCircle
 10
424.683157324
 20
44.5836498885
 30
0.0
 40
0.5028268331193616
100
AcDbArc
 50
65.6787906447
 51
125.6233535625
  0
LINE
  5
494
330
1F
100
AcDbEntity
  8
0
  6
CONTINUOUS
 62
     7
100
AcDbLine
 10
416.490760872
 20
40.4320876617
 30
0.0
 11
424.3902836534
 21
44.9923794288
 31
0.0
  0
ARC
  5
495
330
1F
100
AcDbEntity
  8
0
  6
CONTINUOUS
 62
     7
100
AcDbCircle
 10
417.2540361745
 20
39.2082259832
 30
0.0
 40
1.442368397935872
100
AcDbArc
 50
121.9501982455
 51
151.1457582092
  0
LINE
  5
496
330
1F
100
AcDbEntity
  8
0
  6
CONTINUOUS
 62
     7
100
AcDbLine
 10
414.2836604806
 20
36.9474809189
 30
0.0
 11
415.990737507
 21
39.9042885322
 31
0.0
  0
ARC
  5
497
330
1F
100
AcDbEntity
  8
0
  6
CONTINUOUS
 62
     7
100
AcDbCircle
 10
415.5184909844
 20
36.2012458441
 30
0.0
 40
1.44280045739075
100
AcDbArc
 50
148.8545135941
 51
178.0403488086
  0
LINE
  5
498
330
1F
100
AcDbEntity
  8
0
  6
CONTINUOUS
 62
     7
100
AcDbLine
 10
414.07653434
 20
33.5675995369
 30
0.0
 11
414.07653434
 21
36.2505834121
 31
0.0
  0
ARC
  5
499
330
1F
100
AcDbEntity
  8
0
  6
CONTINUOUS
 62
     7
100
AcDbCircle
 10
414.50763259
 20
33.4976726615
 30
0.0
 40
0.4367327203684916
100
AcDbArc
 50
170.7865063401
 51
309.203957976
  0
LINE
  5
49A
330
1F
100
AcDbEntity
  8
0
  6
CONTINUOUS
 62
     7
100
AcDbLine
 10
416.8342624398
 20
34.3430559654
 30
0.0
 11
414.7836838456
 21
33.1592481155
 31
0.0
  0
ARC
  5
49B
330
1F
100
AcDbEntity
  8
0
  6
CONTINUOUS
 62
     7
100
AcDbCircle
 10
417.110286051
 20
34.0046464716
 30
0.0
 40
0.4367035830023125
100
AcDbArc
 50
350.7838855722
 51
129.2023957107
  0
LINE
  5
49C
330
1F
100
AcDbEntity
  8
0
  6
CONTINUOUS
 62
     7
100
AcDbLine
 10
417.5413523408
 20
31.8933646698
 30
0.0
 11
417.5413523408
 21
33.934704544
 31
0.0
  0
ARC
  5
49D
330
1F
100
AcDbEntity
  8
0
  6
CONTINUOUS
 62
     7
100
AcDbCircle
 10
416.0063460524
 20
31.9630809552
 30
0.0
 40
1.536588645634811
100
AcDbArc
 50
302.6020942965
 51
357.3995508571
  0
LINE
  5
49E
330
1F
100
AcDbEntity
  8
0
  6
CONTINUOUS
 62
     7
100
AcDbLine
 10
416.8342624398
 20
30.6686084289
 30
0.0
 11
408.5964832994
 21
25.9130518455
 31
0.0
  0
ARC
  5
49F
330
1F
100
AcDbEntity
  8
0
  6
CONTINUOUS
 62
     7
100
AcDbCircle
 10
408.320416965
 20
26.2513771442
 30
0.0
 40
0.4366653508780373
100
AcDbArc
 50
170.7798028418
 51
309.2137223865
  0
LINE
  5
4A0
330
1F
100
AcDbEntity
  8
0
  6
CONTINUOUS
 62
     7
100
AcDbLine
 10
407.8893933984
 20
26.3213436622
 30
0.0
 11
407.8893933984
 21
31.1661880035
 31
0.0
  0
ARC
  5
4A1
330
1F
100
AcDbEntity
  8
0
  6
CONTINUOUS
 62
     7
100
AcDbCircle
 10
408.1797223806
 20
31.1590869367
 30
0.0
 40
0.2904158106491751
100
AcDbArc
 50
113.0271607242
 51
178.5988995878
  0
ARC
  5
4A2
330
1F
100
AcDbEntity
  8
0
  6
CONTINUOUS
 62
     7
100
AcDbCircle
 10
405.8668851524
 20
36.6950651183
 30
0.0
 40
5.70927917357939
100
AcDbArc
 50
292.6563928321
 51
346.9078692353
  0
ARC
  5
4A3
330
1F
100
AcDbEntity
  8
0
  6
CONTINUOUS
 62
     7
100
AcDbCircle
 10
411.7301229439
 20
35.3229716538
 30
0.0
 40
0.3124695427934634
100
AcDbArc
 50
122.8769404058
 51
165.3852919161
  0
LINE
  5
4A4
330
1F
100
AcDbEntity
  8
0
  6
CONTINUOUS
 62
     7
100
AcDbLine
 10
411.813822815
 20
35.7316057701
 30
0.0
 11
411.5605030748
 21
35.5853955764
 31
0.0
  0
ARC
  5
4A5
330
1F
100
AcDbEntity
  8
0
  6
CONTINUOUS
 62
     7
100
AcDbCircle
 10
411.6482176963
 20
35.9904667096
 30
0.0
 40
0.3073012225014444
100
AcDbArc
 50
302.6088968673
 51
357.4101256146
  0
LINE
  5
4A6
330
1F
100
AcDbEntity
  8
0
  6
CONTINUOUS
 62
     7
100
AcDbLine
 10
411.9552050325
 20
37.691287281
 30
0.0
 11
411.9552050325
 21
35.9765808601
 31
0.0
  0
ARC
  5
4A7
330
1F
100
AcDbEntity
  8
0
  6
CONTINUOUS
 62
     7
100
AcDbCircle
 10
411.8690096014
 20
37.7053218648
 30
0.0
 40
0.0873305323531288
100
AcDbArc
 50
350.7520938935
 51
129.1926609635
  0
LINE
  5
4A8
330
1F
100
AcDbEntity
  8
0
  6
CONTINUOUS
 62
     7
100
AcDbLine
 10
411.5605030748
 20
37.6267354507
 30
0.0
 11
411.813822815
 21
37.773005249
 31
0.0
  0
LWPOLYLINE
  5
4A9
330
1F
100
AcDbEntity
  8
0
  6
CONTINUOUS
 62
     7
100
AcDbPolyline
 90
        9
 70
   128
 43
0.0
 10
411.4277635308
 20
37.6570742149
 10
411.4367042276
 20
37.639610054
 10
411.4485059472
 20
37.6256625671
 10
411.4629302713
 20
37.6155297775
 10
411.4795599671
 20
37.6093904991
 10
411.4980970117
 20
37.6074831504
 10
411.5180645677
 20
37.6097481269
 10
411.5390454026
 20
37.6162450332
 10
411.5605030748
 20
37.6267354507
  0
LWPOLYLINE
  5
4AA
330
1F
100
AcDbEntity
  8
0
  6
CONTINUOUS
 62
     7
100
AcDbPolyline
 90
        9
 70
   128
 43
0.0
 10
408.0661211701
 20
37.7512495536
 10
408.5787807199
 20
38.1432096977
 10
409.0979967805
 20
38.429073574
 10
409.6062455865
 20
38.5991852302
 10
410.0864206048
 20
38.647882225
 10
410.5223093721
 20
38.573555233
 10
410.8992491456
 20
38.3785884399
 10
411.2044845315
 20
38.0695979614
 10
411.4277635308
 20
37.6570742149
  0
LWPOLYLINE
  5
4AB
330
1F
100
AcDbEntity
  8
0
  6
CONTINUOUS
 62
     7
100
AcDbPolyline
 90
        9
 70
   128
 43
0.0
 10
407.8893933984
 20
37.8073375244
 10
407.8930292817
 20
37.7725284118
 10
407.9038177224
 20
37.743798973
 10
407.9211626741
 20
37.7225201149
 10
407.9441700669
 20
37.7098839302
 10
407.9717074128
 20
37.7064864654
 10
408.002224991
 20
37.7125661392
 10
408.0342922898
 20
37.7277653236
 10
408.0661211701
 20
37.7512495536
  0
LINE
  5
4AC
330
1F
100
AcDbEntity
  8
0
  6
CONTINUOUS
 62
     7
100
AcDbLine
 10
407.8893933984
 20
37.8073375244
 30
0.0
 11
407.8893933984
 21
38.5694425125
 31
0.0
  0
ARC
  5
4AD
330
1F
100
AcDbEntity
  8
0
  6
CONTINUOUS
 62
     7
100
AcDbCircle
 10
409.4243996868
 20
38.499726227
 30
0.0
 40
1.536588645634851
100
AcDbArc
 50
122.6020942965
 51
177.3995508571
  0
LINE
  5
4AE
330
1F
100
AcDbEntity
  8
0
  6
CONTINUOUS
 62
     7
100
AcDbLine
 10
408.5964832994
 20
39.7941987533
 30
0.0
 11
408.9499984475
 21
39.9983446617
 31
0.0
  0
ARC
  5
4AF
330
1F
100
AcDbEntity
  8
0
  6
CONTINUOUS
 62
     7
100
AcDbCircle
 10
410.5686257205
 20
37.4417494047
 30
0.0
 40
3.025910368246844
100
AcDbArc
 50
69.7369588598
 51
122.3386497459
  0
ARC
  5
4B0
330
1F
100
AcDbEntity
  8
0
  6
CONTINUOUS
 62
     7
100
AcDbCircle
 10
411.7895821005
 20
41.5114406091
 30
0.0
 40
1.243142007519511
100
AcDbArc
 50
262.0009714839
 51
337.9627534074
  0
ARC
  5
4B1
330
1F
100
AcDbEntity
  8
0
  6
CONTINUOUS
 62
     7
100
AcDbCircle
 10
420.3547412777
 20
36.636324269
 30
0.0
 40
8.624769698038689
100
AcDbArc
 50
122.9191938413
 51
149.2585579132
  0
LINE
  5
4B2
330
1F
100
AcDbEntity
  8
0
  6
CONTINUOUS
 62
     7
100
AcDbLine
 10
415.667561123
 20
43.8762824554
 30
0.0
 11
420.1576386186
 21
46.4683692474
 31
0.0
  0
LINE
  5
4B3
330
1F
100
AcDbEntity
  8
0
  6
CONTINUOUS
 62
     7
100
AcDbLine
 10
408.9499984475
 20
39.9983446617
 30
0.0
 11
252.2396717759
 21
130.4652910251
 31
0.0
  0
LINE
  5
4B4
330
1F
100
AcDbEntity
  8
0
  6
CONTINUOUS
 62
     7
100
AcDbLine
 10
168.4458528253
 20
178.8384239692
 30
0.0
 11
72.9079519006
 21
233.9912872333
 31
0.0
  0
LINE
  5
4B5
330
1F
100
AcDbEntity
  8
0
  6
CONTINUOUS
 62
     7
100
AcDbLine
 10
415.667561123
 20
43.8762824554
 30
0.0
 11
258.9571748468
 21
134.3432288189
 31
0.0
  0
LINE
  5
4B6
330
1F
100
AcDbEntity
  8
0
  6
CONTINUOUS
 62
     7
100
AcDbLine
 10
175.1633558961
 20
182.716361763
 30
0.0
 11
72.9079519006
 21
241.7471628208
 31
0.0
  0
LINE
  5
4B7
330
1F
100
AcDbEntity
  8
0
  6
CONTINUOUS
 62
     7
100
AcDbLine
 10
420.1576386186
 20
46.4683692474
 30
0.0
 11
390.7965098115
 21
63.4181718845
 31
0.0
  0
LINE
  5
4B8
330
1F
100
AcDbEntity
  8
0
  6
CONTINUOUS
 62
     7
100
AcDbLine
 10
145.4628978463
 20
205.0462584514
 30
0.0
 11
72.9079519006
 21
246.9313662071
 31
0.0
  0
LWPOLYLINE
  5
4B9
330
1F
100
AcDbEntity
  8
0
  6
CONTINUOUS
 62
     7
100
AcDbPolyline
 90
       10
 70
   128
 43
0.0
 10
145.4628978463
 20
205.0462584514
 10
144.9132834169
 20
204.4778089542
 10
144.7053824159
 20
203.8379530925
 10
144.8607121202
 20
203.1931500454
 10
145.363119671
 20
202.6103060264
 10
146.1605702134
 20
202.1499793548
 10
147.1701536866
 20
201.859913351
 10
148.2871447297
 20
201.7702679653
 10
149.3954930993
 20
201.8902819175
 10
150.3802214357
 20
202.2075574417
  0
LINE
  5
4BA
330
1F
100
AcDbEntity
  8
0
  6
CONTINUOUS
 62
     7
100
AcDbLine
 10
265.6710420343
 20
135.651580574
 30
0.0
 11
263.447311947
 21
136.9353156109
 31
0.0
  0
LINE
  5
4BB
330
1F
100
AcDbEntity
  8
0
  6
CONTINUOUS
 62
     7
100
AcDbLine
 10
179.6534929963
 20
185.308448555
 30
0.0
 11
150.3802214357
 21
202.2075574417
 31
0.0
  0
LWPOLYLINE
  5
4BC
330
1F
100
AcDbEntity
  8
0
  6
CONTINUOUS
 62
     7
100
AcDbPolyline
 90
       10
 70
   128
 43
0.0
 10
265.6710420343
 20
135.651580574
 10
265.1214872094
 20
135.0831012745
 10
264.9135266038
 20
134.4432454128
 10
265.0688563081
 20
133.7984423656
 10
265.5713234635
 20
133.215628149
 10
266.3687144014
 20
132.7553014774
 10
267.3782978746
 20
132.4652354736
 10
268.4952889176
 20
132.3755602855
 10
269.6036372872
 20
132.4956040401
 10
270.5883656236
 20
132.8128795643
  0
LINE
  5
4BD
330
1F
100
AcDbEntity
  8
0
  6
CONTINUOUS
 62
     7
100
AcDbLine
 10
385.8791862222
 20
66.2569026966
 30
0.0
 11
270.5883656236
 21
132.8128795643
 31
0.0
  0
LWPOLYLINE
  5
4BE
330
1F
100
AcDbEntity
  8
0
  6
CONTINUOUS
 62
     7
100
AcDbPolyline
 90
       10
 70
   128
 43
0.0
 10
385.8791862222
 20
66.2569026966
 10
385.3296313974
 20
65.688423397
 10
385.1216707917
 20
65.0485675354
 10
385.277000496
 20
64.4037644882
 10
385.7794676515
 20
63.8209204693
 10
386.5768585893
 20
63.3605937976
 10
387.5864420625
 20
63.0705277939
 10
388.7034331056
 20
62.9808824081
 10
389.8117814752
 20
63.1008963604
 10
390.7965098115
 20
63.4181718845
  0
SPLINE
  5
4BF
330
1F
100
AcDbEntity
  8
0
  6
CONTINUOUS
 62
     7
100
AcDbSpline
210
0.0
220
0.0
230
1.0
 70
     8
 71
     3
 72
    12
 73
     8
 74
     0
 42
0.00000001
 43
0.00000001
 40
0.0
 40
0.0
 40
0.0
 40
0.0
 40
0.2624841791377586
 40
0.5054151416708924
 40
0.7161047144286187
 40
0.8934961047764751
 40
1.0
 40
1.0
 40
1.0
 40
1.0
 10
391.1935363503557
 20
63.41987061687892
 30
0.0
 10
391.1818730240609
 20
63.40099368434954
 30
0.0
 10
391.1594152068665
 20
63.36464601737751
 30
0.0
 10
391.1147687472698
 20
63.32272973608016
 30
0.0
 10
391.0676870548336
 20
63.29718922709693
 30
0.0
 10
391.0241052364546
 20
63.29118160797431
 30
0.0
 10
391.0018949873653
 20
63.30078418956408
 30
0.0
 10
390.9935627671344
 20
63.30438661762655
 30
0.0
  0
ARC
  5
4C0
330
1F
100
AcDbEntity
  8
0
  6
CONTINUOUS
 62
     7
100
AcDbCircle
 10
383.7864996008
 20
67.4719692742
 30
0.0
 40
8.44296730649747
100
AcDbArc
 50
331.3186641325
 51
333.8029945634
  0
LINE
  5
4C1
330
1F
100
AcDbEntity
  8
0
  6
CONTINUOUS
 62
     7
100
AcDbLine
 10
420.7233463021
 20
46.7949430961
 30
0.0
 11
391.3622174951
 21
63.7447457332
 31
0.0
  0
LINE
  5
4C2
330
1F
100
AcDbEntity
  8
0
  6
CONTINUOUS
 62
     7
100
AcDbLine
 10
386.4448939057
 20
66.583446743
 30
0.0
 11
271.1540733071
 21
133.1394236107
 31
0.0
  0
LWPOLYLINE
  5
4C3
330
1F
100
AcDbEntity
  8
0
  6
CONTINUOUS
 62
     7
100
AcDbPolyline
 90
       10
 70
   128
 43
0.0
 10
271.1540733071
 20
133.1394236107
 10
271.703628132
 20
133.7079029102
 10
271.9115887376
 20
134.3477587719
 10
271.7562590333
 20
134.992561819
 10
271.2537918779
 20
135.575405838
 10
270.45640094
 20
136.0357325096
 10
269.4468174668
 20
136.3257985134
 10
268.3298264238
 20
136.4154438991
 10
267.2214780542
 20
136.2954299469
 10
266.2367497178
 20
135.9781544227
  0
LINE
  5
4C4
330
1F
100
AcDbEntity
  8
0
  6
CONTINUOUS
 62
     7
100
AcDbLine
 10
266.2367497178
 20
135.9781544227
 30
0.0
 11
264.0130196305
 21
137.2618894596
 31
0.0
  0
LINE
  5
4C5
330
1F
100
AcDbEntity
  8
0
  6
CONTINUOUS
 62
     7
100
AcDbLine
 10
180.2192006799
 20
185.6350224037
 30
0.0
 11
150.9459291192
 21
202.5341312904
 31
0.0
  0
LWPOLYLINE
  5
4C6
330
1F
100
AcDbEntity
  8
0
  6
CONTINUOUS
 62
     7
100
AcDbPolyline
 90
       10
 70
   128
 43
0.0
 10
150.9459291192
 20
202.5341312904
 10
151.495483944
 20
203.1025807876
 10
151.7034445497
 20
203.7424366493
 10
151.5481148454
 20
204.3872694988
 10
151.0456476899
 20
204.9700837154
 10
150.2482567521
 20
205.430410387
 10
149.2386732789
 20
205.7204763908
 10
148.1216822358
 20
205.8101515789
 10
147.0133338662
 20
205.6901078243
 10
146.0286055299
 20
205.3728323002
  0
LINE
  5
4C7
330
1F
100
AcDbEntity
  8
0
  6
CONTINUOUS
 62
     7
100
AcDbLine
 10
146.0286055299
 20
205.3728323002
 30
0.0
 11
72.9079519006
 21
247.5844542999
 31
0.0
  0
LINE
  5
4C8
330
1F
100
AcDbEntity
  8
0
  6
CONTINUOUS
 62
     7
100
AcDbLine
 10
425.2134834024
 20
49.3870298881
 30
0.0
 11
268.5030971261
 21
139.8539762516
 31
0.0
  0
LINE
  5
4C9
330
1F
100
AcDbEntity
  8
0
  6
CONTINUOUS
 62
     7
100
AcDbLine
 10
184.7092781755
 20
188.2271091957
 30
0.0
 11
72.9079519006
 21
252.7686576862
 31
0.0
  0
LWPOLYLINE
  5
4CA
330
1F
100
AcDbEntity
  8
0
  6
CONTINUOUS
 62
     7
100
AcDbPolyline
 90
       10
 70
   128
 43
0.0
 10
391.3622174951
 20
63.7447457332
 10
391.9117723199
 20
64.3132250328
 10
392.1197329255
 20
64.9530808944
 10
391.9644032212
 20
65.5978839416
 10
391.4619360658
 20
66.1806981582
 10
390.664545128
 20
66.6410248298
 10
389.6549616548
 20
66.9310908336
 10
388.5379706117
 20
67.0207660217
 10
387.4296222421
 20
66.9007222671
 10
386.4448939057
 20
66.583446743
  0
LINE
  5
4CB
330
1F
100
AcDbEntity
  8
0
  6
CONTINUOUS
 62
     7
100
AcDbLine
 10
431.9309864732
 20
53.2649676819
 30
0.0
 11
275.2206598016
 21
143.7319140453
 31
0.0
  0
LINE
  5
4CC
330
1F
100
AcDbEntity
  8
0
  6
CONTINUOUS
 62
     7
100
AcDbLine
 10
191.4268408509
 20
192.1050469894
 30
0.0
 11
72.9079519006
 21
260.5245332737
 31
0.0
  0
LINE
  5
4CD
330
1F
100
AcDbEntity
  8
0
  6
CONTINUOUS
 62
     7
100
AcDbLine
 10
385.8791862222
 20
66.2569026966
 30
0.0
 11
386.0478673669
 21
66.159508707
 31
0.0
  0
SPLINE
  5
4CE
330
1F
100
AcDbEntity
  8
0
  6
CONTINUOUS
 62
     7
100
AcDbSpline
210
0.0
220
0.0
230
1.0
 70
     8
 71
     3
 72
    24
 73
    20
 74
     0
 42
0.00000001
 43
0.00000001
 40
0.0
 40
0.0
 40
0.0
 40
0.0
 40
0.0367624433643767
 40
0.0746140244263818
 40
0.1138835469980976
 40
0.1552936826408312
 40
0.1829741507071625
 40
0.2376193810512854
 40
0.2898145487207521
 40
0.3416810537901218
 40
0.3881235997684076
 40
0.4805018395127721
 40
0.5675534800763603
 40
0.6217709375199036
 40
0.7270819448655498
 40
0.82332172636709
 40
0.8670053811732858
 40
0.9554135001926373
 40
1.0
 40
1.0
 40
1.0
 40
1.0
 10
386.0478673668962
 20
66.15950870701259
 30
0.0
 10
386.0505899541693
 20
66.15807653861455
 30
0.0
 10
386.0561157890896
 20
66.15516977186952
 30
0.0
 10
386.0652872958382
 20
66.15245083922916
 30
0.0
 10
386.0750833038328
 20
66.15089242114169
 30
0.0
 10
386.0841605102934
 20
66.15067917767814
 30
0.0
 10
386.0944681641897
 20
66.15150192968905
 30
0.0
 10
386.1055488385565
 20
66.15355039582299
 30
0.0
 10
386.1182425390687
 20
66.15743537759289
 30
0.0
 10
386.129889376253
 20
66.16219883725488
 30
0.0
 10
386.1441710618133
 20
66.16926707853321
 30
0.0
 10
386.1602321465615
 20
66.17924114019624
 30
0.0
 10
386.1758145797482
 20
66.19102217467842
 30
0.0
 10
386.1913453787307
 20
66.20455559234834
 30
0.0
 10
386.2064864421914
 20
66.21965730540353
 30
0.0
 10
386.2198893143367
 20
66.2351698734942
 30
0.0
 10
386.2314967030383
 20
66.2503000464752
 30
0.0
 10
386.2400085333048
 20
66.26236862290241
 30
0.0
 10
386.2458744119326
 20
66.27180077210399
 30
0.0
 10
386.2478409501177
 20
66.27496290394252
 30
0.0
  0
ARC
  5
4CF
330
1F
100
AcDbEntity
  8
0
  6
CONTINUOUS
 62
     7
100
AcDbCircle
 10
393.5858664127
 20
61.8047659009
 30
0.0
 40
8.592396576910238
100
AcDbArc
 50
146.2098831502
 51
148.6509565476
  0
ARC
  5
4D0
330
1F
100
AcDbEntity
  8
0
  6
CONTINUOUS
 62
     7
100
AcDbCircle
 10
388.6207018586
 20
57.1310626154
 30
0.0
 40
5.971179582368803
100
AcDbArc
 50
81.7945299931
 51
98.2054700069
  0
SPLINE
  5
4D1
330
1F
100
AcDbEntity
  8
0
  6
CONTINUOUS
 62
     7
100
AcDbSpline
210
0.0
220
0.0
230
1.0
 70
     8
 71
     3
 72
    24
 73
    20
 74
     0
 42
0.00000001
 43
0.00000001
 40
0.0
 40
0.0
 40
0.0
 40
0.0
 40
0.0653497396947049
 40
0.1310896431193337
 40
0.1967325382173799
 40
0.2619750706723991
 40
0.3029879040908067
 40
0.3788972002681917
 40
0.4447909314587085
 40
0.5045979884475804
 40
0.5539796154390124
 40
0.64220242225796
 40
0.7154961776665806
 40
0.7571985609095406
 40
0.8314377338428431
 40
0.8936012274211751
 40
0.9204819692111839
 40
0.973524875367292
 40
1.0
 40
1.0
 40
1.0
 40
1.0
 10
270.9853921624285
 20
132.8145484943051
 30
0.0
 10
270.9826823056305
 20
132.8097292691488
 30
0.0
 10
270.9772464131204
 20
132.8000620461607
 30
0.0
 10
270.9681496103061
 20
132.7861153304171
 30
0.0
 10
270.9584724840199
 20
132.7725840602521
 30
0.0
 10
270.9493798789244
 20
132.7612239586073
 30
0.0
 10
270.9391176261573
 20
132.7497279431109
 30
0.0
 10
270.928345792984
 20
132.7386157094087
 30
0.0
 10
270.9155735055588
 20
132.7272939352065
 30
0.0
 10
270.903826790438
 20
132.7182543696693
 30
0.0
 10
270.8899264353225
 20
132.7089879318117
 30
0.0
 10
270.8742001552494
 20
132.7004533760367
 30
0.0
 10
270.8580835949566
 20
132.694324506016
 30
0.0
 10
270.8425730641758
 20
132.6903095929281
 30
0.0
 10
270.8275250347134
 20
132.6885134057048
 30
0.0
 10
270.8136541741404
 20
132.6894105202558
 30
0.0
 10
270.8018904962331
 20
132.69189182521
 30
0.0
 10
270.7932971209556
 20
132.6948038901407
 30
0.0
 10
270.7873864928322
 20
132.6980226332115
 30
0.0
 10
270.785418579207
 20
132.6990942973752
 30
0.0
  0
ARC
  5
4D2
330
1F
100
AcDbEntity
  8
0
  6
CONTINUOUS
 62
     7
100
AcDbCircle
 10
263.5490132036
 20
136.8818821672
 30
0.0
 40
8.476021190777844
100
AcDbArc
 50
331.3235089507
 51
333.7981497452
  0
LWPOLYLINE
  5
4D3
330
1F
100
AcDbEntity
  8
0
  6
CONTINUOUS
 62
     7
100
AcDbPolyline
 90
        4
 70
   128
 43
0.0
 10
265.6710420343
 20
135.651580574
 10
265.7256398889
 20
135.6200497169
 10
265.7818470689
 20
135.5875949878
 10
265.839723179
 20
135.5541865844
  0
SPLINE
  5
4D4
330
1F
100
AcDbEntity
  8
0
  6
CONTINUOUS
 62
     7
100
AcDbSpline
210
0.0
220
0.0
230
1.0
 70
     8
 71
     3
 72
    17
 73
    13
 74
     0
 42
0.00000001
 43
0.00000001
 40
0.0
 40
0.0
 40
0.0
 40
0.0
 40
0.0739723045488187
 40
0.1550156954433355
 40
0.2419276795505664
 40
0.3413429977434693
 40
0.4480057524036105
 40
0.5671855183317549
 40
0.6907075036285919
 40
0.8230421495776087
 40
0.9107121567287283
 40
1.0
 40
1.0
 40
1.0
 40
1.0
 10
265.839723178969
 20
135.5541865844388
 30
0.0
 10
265.8453619969855
 20
135.5515641752291
 30
0.0
 10
265.8571786532548
 20
135.546068678099
 30
0.0
 10
265.8777402620728
 20
135.5448412173741
 30
0.0
 10
265.899872264464
 20
135.5482892445652
 30
0.0
 10
265.9229316648627
 20
135.5568691459852
 30
0.0
 10
265.9467370652736
 20
135.5700542234142
 30
0.0
 10
265.9702295143719
 20
135.5874400016804
 30
0.0
 10
265.9932961432498
 20
135.6086722323825
 30
0.0
 10
266.0122158800145
 20
135.6302675917632
 30
0.0
 10
266.0278101710979
 20
135.6508609087469
 30
0.0
 10
266.0357104889562
 20
135.6633427853333
 30
0.0
 10
266.0396967621904
 20
135.6696407813687
 30
0.0
  0
ARC
  5
4D5
330
1F
100
AcDbEntity
  8
0
  6
CONTINUOUS
 62
     7
100
AcDbCircle
 10
273.4126932435
 20
131.1775688092
 30
0.0
 40
8.63364278370872
100
AcDbArc
 50
146.2181426372
 51
148.6477190587
  0
ARC
  5
4D6
330
1F
100
AcDbEntity
  8
0
  6
CONTINUOUS
 62
     7
100
AcDbCircle
 10
268.4125576707
 20
126.5188530771
 30
0.0
 40
5.978026067741249
100
AcDbArc
 50
81.8039921809
 51
98.1960078191
  0
SPLINE
  5
4D7
330
1F
100
AcDbEntity
  8
0
  6
CONTINUOUS
 62
     7
100
AcDbSpline
210
0.0
220
0.0
230
1.0
 70
     8
 71
     3
 72
    17
 73
    13
 74
     0
 42
0.00000001
 43
0.00000001
 40
0.0
 40
0.0
 40
0.0
 40
0.0
 40
0.130503235946322
 40
0.2619369466801814
 40
0.3850427396596632
 40
0.5046803383552858
 40
0.6129111830089031
 40
0.7156086622199097
 40
0.8068304884425324
 40
0.893608229676221
 40
0.9469939574563124
 40
1.0
 40
1.0
 40
1.0
 40
1.0
 10
150.7772479745012
 20
202.2092263717312
 30
0.0
 10
150.7716738959369
 20
202.1996974591099
 30
0.0
 10
150.7604859961955
 20
202.1805716936904
 30
0.0
 10
150.7407052742076
 20
202.1546123703954
 30
0.0
 10
150.7189400390629
 20
202.1315843164911
 30
0.0
 10
150.6960547640998
 20
202.1125638460763
 30
0.0
 10
150.6722023628801
 20
202.0978173038144
 30
0.0
 10
150.6484777760547
 20
202.0879948875669
 30
0.0
 10
150.6250603459709
 20
202.0832337068346
 30
0.0
 10
150.6053157295948
 20
202.0837550023551
 30
0.0
 10
150.5893356958507
 20
202.0876830046269
 30
0.0
 10
150.58128524947
 20
202.0917472862064
 30
0.0
 10
150.5772743912798
 20
202.0937721748013
 30
0.0
  0
ARC
  5
4D8
330
1F
100
AcDbEntity
  8
0
  6
CONTINUOUS
 62
     7
100
AcDbCircle
 10
143.2555612826
 20
206.3205060477
 30
0.0
 40
8.571953760097049
100
AcDbArc
 50
331.3394194324
 51
333.7865380144
  0
LWPOLYLINE
  5
4D9
330
1F
100
AcDbEntity
  8
0
  6
CONTINUOUS
 62
     7
100
AcDbPolyline
 90
        4
 70
   128
 43
0.0
 10
145.4628978463
 20
205.0462584514
 10
145.5174957009
 20
205.0147573967
 10
145.573702881
 20
204.9822728653
 10
145.6315193864
 20
204.9488644619
  0
SPLINE
  5
4DA
330
1F
100
AcDbEntity
  8
0
  6
CONTINUOUS
 62
     7
100
AcDbSpline
210
0.0
220
0.0
230
1.0
 70
     8
 71
     3
 72
    12
 73
     8
 74
     0
 42
0.00000001
 43
0.00000001
 40
0.0
 40
0.0
 40
0.0
 40
0.0
 40
0.1541630467487106
 40
0.3402267560920639
 40
0.5662474366876734
 40
0.8226657309451186
 40
1.0
 40
1.0
 40
1.0
 40
1.0
 10
145.6315193863969
 20
204.9488644618649
 30
0.0
 10
145.6439626827855
 20
204.9447053605334
 30
0.0
 10
145.6714241429383
 20
204.9355265230355
 30
0.0
 10
145.7184374943004
 20
204.9515756033584
 30
0.0
 10
145.7646512680201
 20
204.9821500315475
 30
0.0
 10
145.803455340701
 20
205.0219385942983
 30
0.0
 10
145.8233989009842
 20
205.0520201811286
 30
0.0
 10
145.8315525742632
 20
205.0643186587948
 30
0.0
  0
ARC
  5
4DB
330
1F
100
AcDbEntity
  8
0
  6
CONTINUOUS
 62
     7
100
AcDbCircle
 10
153.0355716661
 20
200.6801754443
 30
0.0
 40
8.43318461792027
100
AcDbArc
 50
146.1892624413
 51
148.6765992546
  0
ARC
  5
4DC
330
1F
100
AcDbEntity
  8
0
  6
CONTINUOUS
 62
     7
100
AcDbCircle
 10
148.2043836804
 20
195.9169494952
 30
0.0
 40
5.974638212404543
100
AcDbArc
 50
81.7996014845
 51
98.2003985155
  0
INSERT
  5
4E7
330
1F
100
AcDbEntity
  8
OPISY
100
AcDbBlockReference
  2
SW_NOTE_1
 10
319.9693165615
 20
204.4967951713
 30
0.0
  0
LEADER
  5
4E9
330
1F
100
AcDbEntity
  8
OPISY
100
AcDbLeader
  3
SLDDIMSTYLE3
 76
     2
 10
294.4283202223
 20
187.0548720771
 30
0.0
 10
319.9693165615
 20
204.4967951713
 30
0.0
1001
ACAD
1000
DSTYLE
1002
{
1070
     6
1000

1002
}
  0
INSERT
  5
4F4
330
1F
100
AcDbEntity
  8
OPISY
100
AcDbBlockReference
  2
SW_NOTE_2
 10
220.4613777657
 20
68.4100497232
 30
0.0
  0
LEADER
  5
4F5
330
1F
100
AcDbEntity
  8
OPISY
100
AcDbLeader
  3
SLDDIMSTYLE3
 76
     2
 10
205.1602542772
 20
88.9974509054
 30
0.0
 10
220.4613777657
 20
68.4100497232
 30
0.0
1001
ACAD
1000
DSTYLE
1002
{
1070
     6
1000

1002
}
  0
INSERT
  5
500
330
1F
100
AcDbEntity
  8
OPISY
100
AcDbBlockReference
  2
SW_NOTE_3
 10
159.3701758309
 20
123.1284284346
 30
0.0
  0
LEADER
  5
501
330
1F
100
AcDbEntity
  8
OPISY
100
AcDbLeader
  3
SLDDIMSTYLE3
 76
     2
 10
171.7840992602
 20
146.0249373197
 30
0.0
 10
159.3701758309
 20
123.1284284346
 30
0.0
1001
ACAD
1000
DSTYLE
1002
{
1070
     6
1000

1002
}
  0
INSERT
  5
50C
330
1F
100
AcDbEntity
  8
OPISY
100
AcDbBlockReference
  2
SW_NOTE_4
 10
254.5363374671
 20
226.3388643174
 30
0.0
  0
LEADER
  5
50D
330
1F
100
AcDbEntity
  8
OPISY
100
AcDbLeader
  3
SLDDIMSTYLE3
 76
     2
 10
227.2428540662
 20
207.5898102858
 30
0.0
 10
254.5363374671
 20
226.3388643174
 30
0.0
1001
ACAD
1000
DSTYLE
1002
{
1070
     6
1000

1002
}
  0
INSERT
  5
519
330
1F
100
AcDbEntity
  8
OPISY
100
AcDbBlockReference
  2
SW_NOTE_5
 10
351.1941526061
 20
129.7015640755
 30
0.0
  0
LEADER
  5
51A
330
1F
100
AcDbEntity
  8
OPISY
100
AcDbLeader
  3
SLDDIMSTYLE3
 76
     2
 10
328.9102754996
 20
112.7375470412
 30
0.0
 10
351.1941526061
 20
129.7015640755
 30
0.0
1001
ACAD
1000
DSTYLE
1002
{
1070
     6
1000

1002
}
  0
INSERT
  5
525
330
1F
100
AcDbEntity
  8
OPISY
100
AcDbBlockReference
  2
SW_NOTE_6
 10
306.9972584223
 20
51.7021986599
 30
0.0
  0
LEADER
  5
526
330
1F
100
AcDbEntity
  8
OPISY
100
AcDbLeader
  3
SLDDIMSTYLE3
 76
     2
 10
338.8857343529
 20
70.7235496449
 30
0.0
 10
306.9972584223
 20
51.7021986599
 30
0.0
1001
ACAD
1000
DSTYLE
1002
{
1070
     6
1000

1002
}
  0
ENDSEC
  0
SECTION
  2
OBJECTS
  0
DICTIONARY
  5
C
330
0
100
AcDbDictionary
  3
ACAD_GROUP
350
D
  3
ACAD_LAYOUT
350
1A
  3
ACAD_MLEADERSTYLE
350
549
  3
ACAD_MLINESTYLE
350
17
  3
ACAD_PLOTSETTINGS
350
19
  3
ACAD_SCALELIST
350
58
  3
ACAD_VISUALSTYLE
350
2A
  3
ACDBHEADERROUNDTRIPXREC
350
527
  3
ACDBVARIABLEDICTIONARY
350
547
  0
DICTIONARY
  5
D
102
{ACAD_REACTORS
330
C
102
}
330
C
100
AcDbDictionary
  0
DICTIONARY
  5
1A
102
{ACAD_REACTORS
330
C
102
}
330
C
100
AcDbDictionary
  0
DICTIONARY
  5
549
102
{ACAD_REACTORS
330
C
102
}
330
C
100
AcDbDictionary
  0
DICTIONARY
  5
17
102
{ACAD_REACTORS
330
C
102
}
330
C
100
AcDbDictionary
  3
STANDARD
350
18
  0
DICTIONARY
  5
19
102
{ACAD_REACTORS
330
C
102
}
330
C
100
AcDbDictionary
  0
DICTIONARY
  5
58
102
{ACAD_REACTORS
330
C
102
}
330
C
100
AcDbDictionary
  3
A0
350
59
  3
A1
350
5A
  3
A2
350
5B
  3
A3
350
5C
  3
A4
350
5D
  3
A5
350
5E
  3
A6
350
5F
  3
A7
350
60
  3
A8
350
61
  3
A9
350
62
  3
B0
350
63
  3
B1
350
64
  3
B2
350
65
  3
B3
350
66
  3
B4
350
67
  3
B5
350
68
  3
B6
350
69
  3
B7
350
6A
  3
B8
350
6B
  3
B9
350
6C
  3
C0
350
6D
  3
C1
350
6E
  3
C2
350
6F
  3
C3
350
70
  3
C4
350
71
  3
C5
350
72
  3
C6
350
73
  3
C7
350
74
  3
C8
350
75
  3
C9
350
76
  3
D0
350
77
  3
D1
350
78
  3
D2
350
79
  0
DICTIONARY
  5
2A
102
{ACAD_REACTORS
330
C
102
}
330
C
100
AcDbDictionary
  3
2DWIREFRAME
350
2F
  3
3D_HIDDEN
350
31
  3
3DWIREFRAME
350
30
  3
BASIC
350
32
  3
BRIGHTEN
350
36
  3
COLORCHANGE
350
3A
  3
CONCEPTUAL
350
34
  3
DIM
350
35
  3
FACEPATTERN
350
39
  3
FLAT
350
2B
  3
FLATWITHEDGES
350
2C
  3
GOURAUD
350
2D
  3
GOURAUDWITHEDGES
350
2E
  3
LINEPATTERN
350
38
  3
REALISTIC
350
33
  3
THICKEN
350
37
  0
DICTIONARY
  5
527
102
{ACAD_REACTORS
330
C
102
}
330
C
100
AcDbDictionary
  3
CEPSNTYPE
350
530
  3
DIMSTYLEDATA
350
546
  3
FINGERPRINTGUID
350
531
  3
HYPERLINKBASE
350
52A
  3
INSUNITS
350
52F
  3
LAYOUTDICT
350
52C
  3
LWETCUNION
350
52E
  3
PLOTSETDICT
350
52D
  3
PSVPSCALE
350
533
  3
PUCSBASE
350
536
  3
PUCSORGBACK
350
53C
  3
PUCSORGBOTTOM
350
538
  3
PUCSORGFRONT
350
53B
  3
PUCSORGLEFT
350
539
  3
PUCSORGRIGHT
350
53A
  3
PUCSORGTOP
350
537
  3
PUCSORTHOREF
350
534
  3
PUCSORTHOVIEW
350
535
  3
STYLESHEET
350
52B
  3
TSTACKALIGN
350
528
  3
TSTACKSIZE
350
529
  3
UCSBASE
350
53F
  3
UCSORGBACK
350
545
  3
UCSORGBOTTOM
350
541
  3
UCSORGFRONT
350
544
  3
UCSORGLEFT
350
542
  3
UCSORGRIGHT
350
543
  3
UCSORGTOP
350
540
  3
UCSORTHOREF
350
53D
  3
UCSORTHOVIEW
350
53E
  3
VERSIONGUID
350
532
  0
DICTIONARY
  5
547
102
{ACAD_REACTORS
330
C
102
}
330
C
100
AcDbDictionary
  3
CANNOSCALE
350
54C
  3
DIMASSOC
350
54D
  3
HIDETEXT
350
54E
  3
PSOLHEIGHT
350
54B
  3
PSOLWIDTH
350
54A
  0
MLINESTYLE
  5
18
102
{ACAD_REACTORS
330
17
102
}
330
17
100
AcDbMlineStyle
  2
Standard
 70
     0
  3

 62
   256
 51
90.0
 52
90.0
 71
     2
 49
0.5
 62
   256
  6
BYLAYER
 49
-0.5
 62
   256
  6
BYLAYER
  0
ACAD_PROXY_OBJECT
  5
59
102
{ACAD_REACTORS
330
58
102
}
330
58
100
AcDbProxyObject
 90
      499
 91
      502
 93
       41
310
903313A31580
  0
ACAD_PROXY_OBJECT
  5
5A
102
{ACAD_REACTORS
330
58
102
}
330
58
100
AcDbProxyObject
 90
      499
 91
      502
 93
      105
310
903313A324000000000000004000
  0
ACAD_PROXY_OBJECT
  5
5B
102
{ACAD_REACTORS
330
58
102
}
330
58
100
AcDbProxyObject
 90
      499
 91
      502
 93
      105
310
903313A344000000000000104000
  0
ACAD_PROXY_OBJECT
  5
5C
102
{ACAD_REACTORS
330
58
102
}
330
58
100
AcDbProxyObject
 90
      499
 91
      502
 93
      105
310
903313A354000000000000144000
  0
ACAD_PROXY_OBJECT
  5
5D
102
{ACAD_REACTORS
330
58
102
}
330
58
100
AcDbProxyObject
 90
      499
 91
      502
 93
      105
310
903313A384000000000000204000
  0
ACAD_PROXY_OBJECT
  5
5E
102
{ACAD_REACTORS
330
58
102
}
330
58
100
AcDbProxyObject
 90
      499
 91
      502
 93
      113
310
904313A31304000000000000244000
  0
ACAD_PROXY_OBJECT
  5
5F
102
{ACAD_REACTORS
330
58
102
}
330
58
100
AcDbProxyObject
 90
      499
 91
      502
 93
      113
310
904313A31364000000000000304000
  0
ACAD_PROXY_OBJECT
  5
60
102
{ACAD_REACTORS
330
58
102
}
330
58
100
AcDbProxyObject
 90
      499
 91
      502
 93
      113
310
904313A32304000000000000344000
  0
ACAD_PROXY_OBJECT
  5
61
102
{ACAD_REACTORS
330
58
102
}
330
58
100
AcDbProxyObject
 90
      499
 91
      502
 93
      113
310
904313A333040000000000003E4000
  0
ACAD_PROXY_OBJECT
  5
62
102
{ACAD_REACTORS
330
58
102
}
330
58
100
AcDbProxyObject
 90
      499
 91
      502
 93
      113
310
904313A34304000000000000444000
  0
ACAD_PROXY_OBJECT
  5
63
102
{ACAD_REACTORS
330
58
102
}
330
58
100
AcDbProxyObject
 90
      499
 91
      502
 93
      113
310
904313A35304000000000000494000
  0
ACAD_PROXY_OBJECT
  5
64
102
{ACAD_REACTORS
330
58
102
}
330
58
100
AcDbProxyObject
 90
      499
 91
      502
 93
      121
310
905313A3130304000000000000594000
  0
ACAD_PROXY_OBJECT
  5
65
102
{ACAD_REACTORS
330
58
102
}
330
58
100
AcDbProxyObject
 90
      499
 91
      502
 93
      105
310
903323A310000000000000010100
  0
ACAD_PROXY_OBJECT
  5
66
102
{ACAD_REACTORS
330
58
102
}
330
58
100
AcDbProxyObject
 90
      499
 91
      502
 93
      105
310
903343A310000000000000410100
  0
ACAD_PROXY_OBJECT
  5
67
102
{ACAD_REACTORS
330
58
102
}
330
58
100
AcDbProxyObject
 90
      499
 91
      502
 93
      105
310
903383A310000000000000810100
  0
ACAD_PROXY_OBJECT
  5
68
102
{ACAD_REACTORS
330
58
102
}
330
58
100
AcDbProxyObject
 90
      499
 91
      502
 93
      113
310
90431303A310000000000000910100
  0
ACAD_PROXY_OBJECT
  5
69
102
{ACAD_REACTORS
330
58
102
}
330
58
100
AcDbProxyObject
 90
      499
 91
      502
 93
      121
310
9053130303A310000000000001650100
  0
ACAD_PROXY_OBJECT
  5
6A
102
{ACAD_REACTORS
330
58
102
}
330
58
100
AcDbProxyObject
 90
      499
 91
      502
 93
      257
310
90E312F31323822203D2031272D3022000000000000200FC000000000000284000
  0
ACAD_PROXY_OBJECT
  5
6B
102
{ACAD_REACTORS
330
58
102
}
330
58
100
AcDbProxyObject
 90
      499
 91
      502
 93
      249
310
90D312F363422203D2031272D3022000000000000240FC000000000000284000
  0
ACAD_PROXY_OBJECT
  5
6C
102
{ACAD_REACTORS
330
58
102
}
330
58
100
AcDbProxyObject
 90
      499
 91
      502
 93
      249
310
90D312F333222203D2031272D3022000000000000280FC000000000000284000
  0
ACAD_PROXY_OBJECT
  5
6D
102
{ACAD_REACTORS
330
58
102
}
330
58
100
AcDbProxyObject
 90
      499
 91
      502
 93
      249
310
90D312F313622203D2031272D30220000000000002C0FC000000000000284000
  0
ACAD_PROXY_OBJECT
  5
6E
102
{ACAD_REACTORS
330
58
102
}
330
58
100
AcDbProxyObject
 90
      499
 91
      502
 93
      249
310
90D332F333222203D2031272D30220000000000002E0FC000000000000284000
  0
ACAD_PROXY_OBJECT
  5
6F
102
{ACAD_REACTORS
330
58
102
}
330
58
100
AcDbProxyObject
 90
      499
 91
      502
 93
      241
310
90C312F3822203D2031272D3022000000000000300FC000000000000284000
  0
ACAD_PROXY_OBJECT
  5
70
102
{ACAD_REACTORS
330
58
102
}
330
58
100
AcDbProxyObject
 90
      499
 91
      502
 93
      249
310
90D332F313622203D2031272D3022000000000000320FC000000000000284000
  0
ACAD_PROXY_OBJECT
  5
71
102
{ACAD_REACTORS
330
58
102
}
330
58
100
AcDbProxyObject
 90
      499
 91
      502
 93
      241
310
90C312F3422203D2031272D3022000000000000340FC000000000000284000
  0
ACAD_PROXY_OBJECT
  5
72
102
{ACAD_REACTORS
330
58
102
}
330
58
100
AcDbProxyObject
 90
      499
 91
      502
 93
      241
310
90C332F3822203D2031272D3022000000000000360FC000000000000284000
  0
ACAD_PROXY_OBJECT
  5
73
102
{ACAD_REACTORS
330
58
102
}
330
58
100
AcDbProxyObject
 90
      499
 91
      502
 93
      241
310
90C312F3222203D2031272D3022000000000000380FC000000000000284000
  0
ACAD_PROXY_OBJECT
  5
74
102
{ACAD_REACTORS
330
58
102
}
330
58
100
AcDbProxyObject
 90
      499
 91
      502
 93
      241
310
90C332F3422203D2031272D30220000000000003A0FC000000000000284000
  0
ACAD_PROXY_OBJECT
  5
75
102
{ACAD_REACTORS
330
58
102
}
330
58
100
AcDbProxyObject
 90
      499
 91
      502
 93
      161
310
90A3122203D2031272D30224000000000000284000
  0
ACAD_PROXY_OBJECT
  5
76
102
{ACAD_REACTORS
330
58
102
}
330
58
100
AcDbProxyObject
 90
      499
 91
      502
 93
      257
310
90E312D312F3222203D2031272D30220000000000003E0FC000000000000284000
  0
ACAD_PROXY_OBJECT
  5
77
102
{ACAD_REACTORS
330
58
102
}
330
58
100
AcDbProxyObject
 90
      499
 91
      502
 93
      225
310
90A3322203D2031272D302200000000000002100000000000000284000
  0
ACAD_PROXY_OBJECT
  5
78
102
{ACAD_REACTORS
330
58
102
}
330
58
100
AcDbProxyObject
 90
      499
 91
      502
 93
      225
310
90A3622203D2031272D302200000000000006100000000000000284000
  0
ACAD_PROXY_OBJECT
  5
79
102
{ACAD_REACTORS
330
58
102
}
330
58
100
AcDbProxyObject
 90
      499
 91
      502
 93
      249
310
90D31272D3022203D2031272D30220000000000000A100000000000000284000
  0
ACAD_PROXY_OBJECT
  5
2F
102
{ACAD_REACTORS
330
2A
102
}
330
2A
100
AcDbProxyObject
 90
      499
 91
      501
 93
      436
310
42CC9915DA5C99599C985B595049028333333333333E3BF0000000000000FB0107901411070040501600405405064090741402480A0340
1001
ACAD
1000
AcDbSavedByObjectVersion
1070
     0
  0
ACAD_PROXY_OBJECT
  5
31
102
{ACAD_REACTORS
330
2A
102
}
330
2A
100
AcDbProxyObject
 90
      499
 91
      501
 93
      500
310
424CD108121A5919195B90640502408333333333333E3BF0000000000000FB01079024090700405020000000000001110200405405064090740C02480A0340
1001
ACAD
1000
AcDbSavedByObjectVersion
1070
     0
  0
ACAD_PROXY_OBJECT
  5
30
102
{ACAD_REACTORS
330
2A
102
}
330
2A
100
AcDbProxyObject
 90
      499
 91
      501
 93
      436
310
42CCD915DA5C99599C985B595059028333333333333E3BF0000000000000FB0107901411070040501600405405064090741402480A0340
1001
ACAD
1000
AcDbSavedByObjectVersion
1070
     0
  0
ACAD_PROXY_OBJECT
  5
32
102
{ACAD_REACTORS
330
2A
102
}
330
2A
100
AcDbProxyObject
 90
      499
 91
      501
 93
      388
310
4150985CDA58D07406404333333333333E3BF0000000000000FB0107A41107004050150841D405064090741402480A0350
1001
ACAD
1000
AcDbSavedByObjectVersion
1070
     0
  0
ACAD_PROXY_OBJECT
  5
36
102
{ACAD_REACTORS
330
2A
102
}
330
2A
100
AcDbProxyObject
 90
      499
 91
      501
 93
      428
310
42109C9A59DA1D195B90C409028333333333333E3BF0000000000000FB010790141107004050150841D405064090741402480A029950
1001
ACAD
1000
AcDbSavedByObjectVersion
1070
     0
  0
ACAD_PROXY_OBJECT
  5
3A
102
{ACAD_REACTORS
330
2A
102
}
330
2A
100
AcDbProxyObject
 90
      499
 91
      501
 93
      452
310
42D0DBDB1BDC90DA185B99D95104090240C333333333333E3BF0000000000000FB0108901411070040501508421405064090741402480A0350
1001
ACAD
1000
AcDbSavedByObjectVersion
1070
     0
  0
ACAD_PROXY_OBJECT
  5
34
102
{ACAD_REACTORS
330
2A
102
}
330
2A
100
AcDbProxyObject
 90
      499
 91
      501
 93
      500
310
4290DBDB98D95C1D1D585B10940D028333333333333E3BF0000000000000FB0107902409070040501000000000000111010841D405064090740C02480A0340
1001
ACAD
1000
AcDbSavedByObjectVersion
1070
     0
  0
ACAD_PROXY_OBJECT
  5
35
102
{ACAD_REACTORS
330
2A
102
}
330
2A
100
AcDbProxyObject
 90
      499
 91
      501
 93
      412
310
40D11A5B50B409028333333333333E3BF0000000000000FB010790141107004050150841D405064090741402480A02677FFFFFD0
1001
ACAD
1000
AcDbSavedByObjectVersion
1070
     0
  0
ACAD_PROXY_OBJECT
  5
39
102
{ACAD_REACTORS
330
2A
102
}
330
2A
100
AcDbProxyObject
 90
      499
 91
      501
 93
      444
310
42D19858D95C185D1D195C9B90F409028333333333333E3BF0000000000000FB010790141107004050150841D405064090741402480A0350
1001
ACAD
1000
AcDbSavedByObjectVersion
1070
     0
  0
ACAD_PROXY_OBJECT
  5
2B
102
{ACAD_REACTORS
330
2A
102
}
330
2A
100
AcDbProxyObject
 90
      499
 91
      501
 93
      388
310
41119B185D240901404333333333333E3BF0000000000000F9010740A41107004050150841D405064090741402480A1B50
1001
ACAD
1000
AcDbSavedByObjectVersion
1070
     0
  0
ACAD_PROXY_OBJECT
  5
2C
102
{ACAD_REACTORS
330
2A
102
}
330
2A
100
AcDbProxyObject
 90
      499
 91
      501
 93
      476
310
43519B185D15DA5D1A115919D95CD0140901404333333333333E3BF0000000000000F9010740901411070040501600405405064090741402480A1B50
1001
ACAD
1000
AcDbSavedByObjectVersion
1070
     0
  0
ACAD_PROXY_OBJECT
  5
2D
102
{ACAD_REACTORS
330
2A
102
}
330
2A
100
AcDbProxyObject
 90
      499
 91
      501
 93
      412
310
41D1DBDD5C985D5910240902404333333333333E3BF0000000000000F9010740A411070040501641D405064090741402480A1B50
1001
ACAD
1000
AcDbSavedByObjectVersion
1070
     0
  0
ACAD_PROXY_OBJECT
  5
2E
102
{ACAD_REACTORS
330
2A
102
}
330
2A
100
AcDbProxyObject
 90
      499
 91
      501
 93
      500
310
4411DBDD5C985D5915DA5D1A115919D95CD0340902404333333333333E3BF0000000000000F9010740901411070040501600405405064090741402480A1B50
1001
ACAD
1000
AcDbSavedByObjectVersion
1070
     0
  0
ACAD_PROXY_OBJECT
  5
38
102
{ACAD_REACTORS
330
2A
102
}
330
2A
100
AcDbProxyObject
 90
      499
 91
      501
 93
      444
310
42D31A5B995C185D1D195C9B90E409028333333333333E3BF0000000000000FB010790141107004050750841D405064090741402483A0350
1001
ACAD
1000
AcDbSavedByObjectVersion
1070
     0
  0
ACAD_PROXY_OBJECT
  5
33
102
{ACAD_REACTORS
330
2A
102
}
330
2A
100
AcDbProxyObject
 90
      499
 91
      501
 93
      420
310
425499585B1A5CDD1A58D08409028333333333333E3BF0000000000000FB01079019070040501508421405064090741402480A1B40
1001
ACAD
1000
AcDbSavedByObjectVersion
1070
     0
  0
ACAD_PROXY_OBJECT
  5
37
102
{ACAD_REACTORS
330
2A
102
}
330
2A
100
AcDbProxyObject
 90
      499
 91
      501
 93
      412
310
41D51A1A58DAD95B90D409028333333333333E3BF0000000000000FB010790141107004050150C41D405064090741402480A0350
1001
ACAD
1000
AcDbSavedByObjectVersion
1070
     0
  0
ACAD_PROXY_OBJECT
  5
530
102
{ACAD_REACTORS
330
527
102
}
330
527
100
AcDbProxyObject
 90
      499
 91
      504
 93
       58
310
4196800000000000
  0
ACAD_PROXY_OBJECT
  5
546
102
{ACAD_REACTORS
330
527
102
}
330
527
100
AcDbProxyObject
 90
      499
 91
      504
 93
     1426
310
6C7A00C180071114D51653117A80C040071ECB812CC0118000C00B8123C00A0002A150A8540A290FCB810A400A0000000000000008100B8103C0518000C00B810B000A000000000000003C0FCB810A800A000000000000003C0FCB8124C00A0000000000000004100B810400518000400B811240118000400B811280118000
310
400B811500550044400000000000000B8123000A0000000000000005100B810700518000000B811380118000003A80C040071F40
  0
ACAD_PROXY_OBJECT
  5
531
102
{ACAD_REACTORS
330
527
102
}
330
527
100
AcDbProxyObject
 90
      499
 91
      504
 93
      354
310
4AC0400980071ECCCE10D0904C50514B5190518C8B4D0D0D0E0B508CD04CCB4DD18D91110D0C8C104E0D8CDF40
  0
ACAD_PROXY_OBJECT
  5
52A
102
{ACAD_REACTORS
330
527
102
}
330
527
100
AcDbProxyObject
 90
      499
 91
      504
 93
       50
310
41404000000700
  0
ACAD_PROXY_OBJECT
  5
52F
102
{ACAD_REACTORS
330
527
102
}
330
527
100
AcDbProxyObject
 90
      499
 91
      504
 93
       58
310
4196800100000000
  0
ACAD_PROXY_OBJECT
  5
52C
102
{ACAD_REACTORS
330
527
102
}
330
527
100
AcDbProxyObject
 90
      499
 91
      504
 93
       90
310
429500468000000000000000
  0
ACAD_PROXY_OBJECT
  5
52E
102
{ACAD_REACTORS
330
527
102
}
330
527
100
AcDbProxyObject
 90
      499
 91
      504
 93
       58
310
419680074A000000
  0
ACAD_PROXY_OBJECT
  5
52D
102
{ACAD_REACTORS
330
527
102
}
330
527
100
AcDbProxyObject
 90
      499
 91
      504
 93
       90
310
429500464000000000000000
  0
ACAD_PROXY_OBJECT
  5
533
102
{ACAD_REACTORS
330
527
102
}
330
527
100
AcDbProxyObject
 90
      499
 91
      504
 93
       90
310
428A00000000000000000000
  0
ACAD_PROXY_OBJECT
  5
536
102
{ACAD_REACTORS
330
527
102
}
330
527
100
AcDbProxyObject
 90
      499
 91
      504
 93
       90
310
429500400000000000000000
  0
ACAD_PROXY_OBJECT
  5
53C
102
{ACAD_REACTORS
330
527
102
}
330
527
100
AcDbProxyObject
 90
      499
 91
      504
 93
      218
310
46828000000000000000000000000000000000000000000000000000
  0
ACAD_PROXY_OBJECT
  5
538
102
{ACAD_REACTORS
330
527
102
}
330
527
100
AcDbProxyObject
 90
      499
 91
      504
 93
      218
310
46828000000000000000000000000000000000000000000000000000
  0
ACAD_PROXY_OBJECT
  5
53B
102
{ACAD_REACTORS
330
527
102
}
330
527
100
AcDbProxyObject
 90
      499
 91
      504
 93
      218
310
46828000000000000000000000000000000000000000000000000000
  0
ACAD_PROXY_OBJECT
  5
539
102
{ACAD_REACTORS
330
527
102
}
330
527
100
AcDbProxyObject
 90
      499
 91
      504
 93
      218
310
46828000000000000000000000000000000000000000000000000000
  0
ACAD_PROXY_OBJECT
  5
53A
102
{ACAD_REACTORS
330
527
102
}
330
527
100
AcDbProxyObject
 90
      499
 91
      504
 93
      218
310
46828000000000000000000000000000000000000000000000000000
  0
ACAD_PROXY_OBJECT
  5
537
102
{ACAD_REACTORS
330
527
102
}
330
527
100
AcDbProxyObject
 90
      499
 91
      504
 93
      218
310
46828000000000000000000000000000000000000000000000000000
  0
ACAD_PROXY_OBJECT
  5
534
102
{ACAD_REACTORS
330
527
102
}
330
527
100
AcDbProxyObject
 90
      499
 91
      504
 93
       90
310
429500400000000000000000
  0
ACAD_PROXY_OBJECT
  5
535
102
{ACAD_REACTORS
330
527
102
}
330
527
100
AcDbProxyObject
 90
      499
 91
      504
 93
       42
310
411180000000
  0
ACAD_PROXY_OBJECT
  5
52B
102
{ACAD_REACTORS
330
527
102
}
330
527
100
AcDbProxyObject
 90
      499
 91
      504
 93
       50
310
41404000000700
  0
ACAD_PROXY_OBJECT
  5
528
102
{ACAD_REACTORS
330
527
102
}
330
527
100
AcDbProxyObject
 90
      499
 91
      504
 93
       58
310
4196800040000000
  0
ACAD_PROXY_OBJECT
  5
529
102
{ACAD_REACTORS
330
527
102
}
330
527
100
AcDbProxyObject
 90
      499
 91
      504
 93
       58
310
4196801180000000
  0
ACAD_PROXY_OBJECT
  5
53F
102
{ACAD_REACTORS
330
527
102
}
330
527
100
AcDbProxyObject
 90
      499
 91
      504
 93
       90
310
429500400000000000000000
  0
ACAD_PROXY_OBJECT
  5
545
102
{ACAD_REACTORS
330
527
102
}
330
527
100
AcDbProxyObject
 90
      499
 91
      504
 93
      218
310
46828000000000000000000000000000000000000000000000000000
  0
ACAD_PROXY_OBJECT
  5
541
102
{ACAD_REACTORS
330
527
102
}
330
527
100
AcDbProxyObject
 90
      499
 91
      504
 93
      218
310
46828000000000000000000000000000000000000000000000000000
  0
ACAD_PROXY_OBJECT
  5
544
102
{ACAD_REACTORS
330
527
102
}
330
527
100
AcDbProxyObject
 90
      499
 91
      504
 93
      218
310
46828000000000000000000000000000000000000000000000000000
  0
ACAD_PROXY_OBJECT
  5
542
102
{ACAD_REACTORS
330
527
102
}
330
527
100
AcDbProxyObject
 90
      499
 91
      504
 93
      218
310
46828000000000000000000000000000000000000000000000000000
  0
ACAD_PROXY_OBJECT
  5
543
102
{ACAD_REACTORS
330
527
102
}
330
527
100
AcDbProxyObject
 90
      499
 91
      504
 93
      218
310
46828000000000000000000000000000000000000000000000000000
  0
ACAD_PROXY_OBJECT
  5
540
102
{ACAD_REACTORS
330
527
102
}
330
527
100
AcDbProxyObject
 90
      499
 91
      504
 93
      218
310
46828000000000000000000000000000000000000000000000000000
  0
ACAD_PROXY_OBJECT
  5
53D
102
{ACAD_REACTORS
330
527
102
}
330
527
100
AcDbProxyObject
 90
      499
 91
      504
 93
       90
310
429500400000000000000000
  0
ACAD_PROXY_OBJECT
  5
53E
102
{ACAD_REACTORS
330
527
102
}
330
527
100
AcDbProxyObject
 90
      499
 91
      504
 93
       42
310
411180000000
  0
ACAD_PROXY_OBJECT
  5
532
102
{ACAD_REACTORS
330
527
102
}
330
527
100
AcDbProxyObject
 90
      499
 91
      504
 93
      354
310
4AC0400980071ED19051508C50CCCC8B514C0C4E4B4C4C510D4B4E4C8E508B4C0C10CC11118C8D4D9150CD1F40
  0
DICTIONARYVAR
  5
54C
102
{ACAD_REACTORS
330
547
102
}
330
547
100
DictionaryVariables
280
     0
  1
1:1
  0
DICTIONARYVAR
  5
54D
102
{ACAD_REACTORS
330
547
102
}
330
547
100
DictionaryVariables
280
     0
  1
2
  0
DICTIONARYVAR
  5
54E
102
{ACAD_REACTORS
330
547
102
}
330
547
100
DictionaryVariables
280
     0
  1
1
  0
DICTIONARYVAR
  5
54B
102
{ACAD_REACTORS
330
547
102
}
330
547
100
DictionaryVariables
280
     0
  1
80.000000
  0
DICTIONARYVAR
  5
54A
102
{ACAD_REACTORS
330
547
102
}
330
547
100
DictionaryVariables
280
     0
  1
5.000000
  0
ENDSEC
  0
EOF
