  0
SECTION
  2
HEADER
  9
$ACADVER
  1
AC1014
  9
$ACADMAINTVER
 70
     9
  9
$DWGCODEPAGE
  3
ANSI_1250
  9
$INSBASE
 10
0.0
 20
0.0
 30
0.0
  9
$EXTMIN
 10
0.0
 20
0.0
 30
0.0
  9
$EXTMAX
 10
630.0
 20
891.0
 30
0.0
  9
$LIMMIN
 10
0.0
 20
0.0
  9
$LIMMAX
 10
630.0
 20
891.0
  9
$ORTHOMODE
 70
     0
  9
$REGENMODE
 70
     1
  9
$FILLMODE
 70
     1
  9
$QTEXTMODE
 70
     0
  9
$MIRRTEXT
 70
     1
  9
$DRAGMODE
 70
     2
  9
$LTSCALE
 40
3.0
  9
$OSMODE
 70
    37
  9
$ATTMODE
 70
     1
  9
$TEXTSIZE
 40
10.5
  9
$TRACEWID
 40
1.0
  9
$TEXTSTYLE
  7
STANDARD
  9
$CLAYER
  8
0
  9
$CELTYPE
  6
BYLAYER
  9
$CECOLOR
 62
   256
  9
$CELTSCALE
 40
1.0
  9
$DELOBJ
 70
     1
  9
$DISPSILH
 70
     0
  9
$DIMSCALE
 40
1.0
  9
$DIMASZ
 40
12.0
  9
$DIMEXO
 40
1.5
  9
$DIMDLI
 40
3.75
  9
$DIMRND
 40
0.0
  9
$DIMDLE
 40
0.0
  9
$DIMEXE
 40
1.5
  9
$DIMTP
 40
0.0
  9
$DIMTM
 40
0.0
  9
$DIMTXT
 40
7.5
  9
$DIMCEN
 40
2.5
  9
$DIMTSZ
 40
0.0
  9
$DIMTOL
 70
     0
  9
$DIMLIM
 70
     0
  9
$DIMTIH
 70
     1
  9
$DIMTOH
 70
     1
  9
$DIMSE1
 70
     0
  9
$DIMSE2
 70
     0
  9
$DIMTAD
 70
     1
  9
$DIMZIN
 70
     0
  9
$DIMBLK
  1

  9
$DIMASO
 70
     1
  9
$DIMSHO
 70
     1
  9
$DIMPOST
  1

  9
$DIMAPOST
  1

  9
$DIMALT
 70
     0
  9
$DIMALTD
 70
     3
  9
$DIMALTF
 40
0.0393700787
  9
$DIMLFAC
 40
1.0
  9
$DIMTOFL
 70
     1
  9
$DIMTVP
 40
0.0
  9
$DIMTIX
 70
     0
  9
$DIMSOXD
 70
     0
  9
$DIMSAH
 70
     0
  9
$DIMBLK1
  1

  9
$DIMBLK2
  1

  9
$DIMSTYLE
  2
ISO-25
  9
$DIMCLRD
 70
     0
  9
$DIMCLRE
 70
     0
  9
$DIMCLRT
 70
     0
  9
$DIMTFAC
 40
1.0
  9
$DIMGAP
 40
6.0
  9
$DIMJUST
 70
     0
  9
$DIMSD1
 70
     0
  9
$DIMSD2
 70
     0
  9
$DIMTOLJ
 70
     0
  9
$DIMTZIN
 70
     0
  9
$DIMALTZ
 70
     0
  9
$DIMALTTZ
 70
     0
  9
$DIMFIT
 70
     3
  9
$DIMUPT
 70
     0
  9
$DIMUNIT
 70
     2
  9
$DIMDEC
 70
     3
  9
$DIMTDEC
 70
     1
  9
$DIMALTU
 70
     2
  9
$DIMALTTD
 70
     3
  9
$DIMTXSTY
  7
STANDARD
  9
$DIMAUNIT
 70
     0
  9
$LUNITS
 70
     2
  9
$LUPREC
 70
     3
  9
$SKETCHINC
 40
1.0
  9
$FILLETRAD
 40
10.0
  9
$AUNITS
 70
     0
  9
$AUPREC
 70
     3
  9
$MENU
  1
.
  9
$ELEVATION
 40
0.0
  9
$PELEVATION
 40
0.0
  9
$THICKNESS
 40
0.0
  9
$LIMCHECK
 70
     0
  9
$CHAMFERA
 40
10.0
  9
$CHAMFERB
 40
10.0
  9
$CHAMFERC
 40
20.0
  9
$CHAMFERD
 40
0.0
  9
$SKPOLY
 70
     0
  9
$TDCREATE
 40
2457066.63969037
  9
$TDUPDATE
 40
2457066.639690382
  9
$TDINDWG
 40
0.0000000116
  9
$TDUSRTIMER
 40
0.0000000116
  9
$USRTIMER
 70
     1
  9
$ANGBASE
 50
0.0
  9
$ANGDIR
 70
     0
  9
$PDMODE
 70
     0
  9
$PDSIZE
 40
-1.0
  9
$PLINEWID
 40
0.0
  9
$COORDS
 70
     1
  9
$SPLFRAME
 70
     0
  9
$SPLINETYPE
 70
     6
  9
$SPLINESEGS
 70
     8
  9
$ATTDIA
 70
     0
  9
$ATTREQ
 70
     1
  9
$HANDLING
 70
     1
  9
$HANDSEED
  5
556
  9
$SURFTAB1
 70
     6
  9
$SURFTAB2
 70
     6
  9
$SURFTYPE
 70
     6
  9
$SURFU
 70
     6
  9
$SURFV
 70
     6
  9
$UCSNAME
  2

  9
$UCSORG
 10
0.0
 20
0.0
 30
0.0
  9
$UCSXDIR
 10
1.0
 20
0.0
 30
0.0
  9
$UCSYDIR
 10
0.0
 20
1.0
 30
0.0
  9
$PUCSNAME
  2

  9
$PUCSORG
 10
0.0
 20
0.0
 30
0.0
  9
$PUCSXDIR
 10
1.0
 20
0.0
 30
0.0
  9
$PUCSYDIR
 10
0.0
 20
1.0
 30
0.0
  9
$USERI1
 70
     0
  9
$USERI2
 70
     0
  9
$USERI3
 70
     0
  9
$USERI4
 70
     0
  9
$USERI5
 70
     0
  9
$USERR1
 40
0.0
  9
$USERR2
 40
0.0
  9
$USERR3
 40
0.0
  9
$USERR4
 40
0.0
  9
$USERR5
 40
0.0
  9
$WORLDVIEW
 70
     1
  9
$SHADEDGE
 70
     3
  9
$SHADEDIF
 70
    70
  9
$TILEMODE
 70
     1
  9
$MAXACTVP
 70
    64
  9
$PINSBASE
 10
0.0
 20
0.0
 30
0.0
  9
$PLIMCHECK
 70
     0
  9
$PEXTMIN
 10
1.0000000000E+20
 20
1.0000000000E+20
 30
1.0000000000E+20
  9
$PEXTMAX
 10
-1.0000000000E+20
 20
-1.0000000000E+20
 30
-1.0000000000E+20
  9
$PLIMMIN
 10
0.0
 20
0.0
  9
$PLIMMAX
 10
420.0
 20
297.0
  9
$UNITMODE
 70
     0
  9
$VISRETAIN
 70
     1
  9
$PLINEGEN
 70
     0
  9
$PSLTSCALE
 70
     1
  9
$TREEDEPTH
 70
  3020
  9
$PICKSTYLE
 70
     1
  9
$CMLSTYLE
  2
STANDARD
  9
$CMLJUST
 70
     0
  9
$CMLSCALE
 40
20.0
  9
$PROXYGRAPHICS
 70
     1
  9
$MEASUREMENT
 70
     1
  0
ENDSEC
  0
SECTION
  2
CLASSES
  0
CLASS
  1
ACDBDICTIONARYWDFLT
  2
AcDbDictionaryWithDefault
  3
ObjectDBX Classes
 90
        0
280
     0
281
     0
  0
CLASS
  1
VISUALSTYLE
  2
AcDbVisualStyle
  3
ObjectDBX Classes
 90
     4095
280
     0
281
     0
  0
CLASS
  1
SCALE
  2
AcDbScale
  3
ObjectDBX Classes
 90
     1153
280
     0
281
     0
  0
CLASS
  1
DICTIONARYVAR
  2
AcDbDictionaryVar
  3
ObjectDBX Classes
 90
        0
280
     0
281
     0
  0
CLASS
  1
XRECORD
  2
AcDbXrecord
  3
AutoCAD 2000
 90
        0
280
     0
281
     0
  0
CLASS
  1
LWPOLYLINE
  2
AcDbPolyline
  3
AutoCAD 2000
 90
        0
280
     0
281
     1
  0
CLASS
  1
HATCH
  2
AcDbHatch
  3
AutoCAD 2000
 90
        0
280
     0
281
     1
  0
CLASS
  1
ACDBPLACEHOLDER
  2
AcDbPlaceHolder
  3
ObjectDBX Classes
 90
        0
280
     0
281
     0
  0
CLASS
  1
LAYOUT
  2
AcDbLayout
  3
ObjectDBX Classes
 90
        0
280
     0
281
     0
  0
ENDSEC
  0
SECTION
  2
TABLES
  0
TABLE
  2
VPORT
  5
8
330
0
100
AcDbSymbolTable
 70
     1
  0
VPORT
  5
29
330
8
100
AcDbSymbolTableRecord
100
AcDbViewportTableRecord
  2
*ACTIVE
 70
     0
 10
0.0
 20
0.0
 11
1.0
 21
1.0
 12
315.0
 22
445.5
 13
0.0
 23
0.0
 14
10.0
 24
10.0
 15
10.0
 25
10.0
 16
0.0
 26
0.0
 36
1.0
 17
0.0
 27
0.0
 37
0.0
 40
891.0
 41
0.7070707071
 42
50.0
 43
0.0
 44
0.0
 50
0.0
 51
0.0
 71
     0
 72
  2000
 73
     1
 74
     3
 75
     0
 76
     0
 77
     0
 78
     0
  0
ENDTAB
  0
TABLE
  2
LTYPE
  5
5
330
0
100
AcDbSymbolTable
 70
     6
  0
LTYPE
  5
14
330
5
100
AcDbSymbolTableRecord
100
AcDbLinetypeTableRecord
  2
BYBLOCK
 70
     0
  3

 72
    65
 73
     0
 40
0.0
  0
LTYPE
  5
15
330
5
100
AcDbSymbolTableRecord
100
AcDbLinetypeTableRecord
  2
BYLAYER
 70
     0
  3

 72
    65
 73
     0
 40
0.0
  0
LTYPE
  5
16
330
5
100
AcDbSymbolTableRecord
100
AcDbLinetypeTableRecord
  2
CONTINUOUS
 70
     0
  3
Solid line
 72
    65
 73
     0
 40
0.0
  0
LTYPE
  5
3B
330
5
100
AcDbSymbolTableRecord
100
AcDbLinetypeTableRecord
  2
HIDDEN
 70
     0
  3
Hidden __ __ __ __ __ __ __ __ __ __ __ __ __ __
 72
    65
 73
     2
 40
1.905
 49
1.27
 74
     0
 49
-0.635
 74
     0
  0
LTYPE
  5
3C
330
5
100
AcDbSymbolTableRecord
100
AcDbLinetypeTableRecord
  2
PHANTOM
 70
     0
  3
Phantom ______  __  __  ______  __  __  ______
 72
    65
 73
     6
 40
12.7
 49
6.35
 74
     0
 49
-1.27
 74
     0
 49
1.27
 74
     0
 49
-1.27
 74
     0
 49
1.27
 74
     0
 49
-1.27
 74
     0
  0
LTYPE
  5
3D
330
5
100
AcDbSymbolTableRecord
100
AcDbLinetypeTableRecord
  2
CENTER
 70
     0
  3
Center ____ _ ____ _ ____ _ ____ _ ____ _ ____
 72
    65
 73
     4
 40
10.16
 49
6.35
 74
     0
 49
-1.27
 74
     0
 49
1.27
 74
     0
 49
-1.27
 74
     0
  0
LTYPE
  5
3E
330
5
100
AcDbSymbolTableRecord
100
AcDbLinetypeTableRecord
  2
CENTERX2
 70
     0
  3
Center (2x) ________  __  ________  __  _____
 72
    65
 73
     4
 40
20.32
 49
12.7
 74
     0
 49
-2.54
 74
     0
 49
2.54
 74
     0
 49
-2.54
 74
     0
  0
LTYPE
  5
3F
330
5
100
AcDbSymbolTableRecord
100
AcDbLinetypeTableRecord
  2
DOT2
 70
     0
  3
Dot (.5x) ........................................
 72
    65
 73
     2
 40
0.635
 49
0.0
 74
     0
 49
-0.635
 74
     0
  0
ENDTAB
  0
TABLE
  2
LAYER
  5
2
330
0
100
AcDbSymbolTable
 70
     3
  0
LAYER
  5
10
330
2
100
AcDbSymbolTableRecord
100
AcDbLayerTableRecord
  2
0
 70
     0
 62
     7
  6
CONTINUOUS
  0
LAYER
  5
40
330
2
100
AcDbSymbolTableRecord
100
AcDbLayerTableRecord
  2
OPISY
 70
     0
 62
     6
  6
CONTINUOUS
  0
LAYER
  5
41
330
2
100
AcDbSymbolTableRecord
100
AcDbLayerTableRecord
  2
FORMAT
 70
     0
 62
     7
  6
CONTINUOUS
  0
ENDTAB
  0
TABLE
  2
STYLE
  5
3
330
0
100
AcDbSymbolTable
 70
     6
  0
STYLE
  5
11
330
3
100
AcDbSymbolTableRecord
100
AcDbTextStyleTableRecord
  2
STANDARD
 70
     0
 40
0.0
 41
1.0
 50
0.0
 71
     0
 42
2.5
  3
txt
  4

  0
STYLE
  5
5A
330
3
100
AcDbSymbolTableRecord
100
AcDbTextStyleTableRecord
  2
SLDTEXTSTYLE0
 70
     0
 40
0.0
 41
0.75
 50
0.0
 71
     0
 42
0.2
  3
TXT
  4

  0
STYLE
  5
7E
330
3
100
AcDbSymbolTableRecord
100
AcDbTextStyleTableRecord
  2
SLDTEXTSTYLE1
 70
     0
 40
0.0
 41
0.75
 50
0.0
 71
     0
 42
0.2
  3
TXT
  4
bigfont
  0
STYLE
  5
86
330
3
100
AcDbSymbolTableRecord
100
AcDbTextStyleTableRecord
  2
SLDTEXTSTYLE2
 70
     0
 40
0.0
 41
0.605
 50
0.0
 71
     0
 42
0.2
  3
TXT
  4

  0
STYLE
  5
1B3
330
3
100
AcDbSymbolTableRecord
100
AcDbTextStyleTableRecord
  2
SLDTEXTSTYLE3
 70
     0
 40
0.0
 41
0.6666666667
 50
0.0
 71
     0
 42
0.2
  3
TXT
  4

  0
STYLE
  5
42B
330
3
100
AcDbSymbolTableRecord
100
AcDbTextStyleTableRecord
  2
SLDTEXTSTYLE4
 70
     0
 40
0.0
 41
0.65
 50
0.0
 71
     0
 42
0.2
  3
TXT
  4

  0
ENDTAB
  0
TABLE
  2
VIEW
  5
6
330
0
100
AcDbSymbolTable
 70
     0
  0
ENDTAB
  0
TABLE
  2
UCS
  5
7
330
0
100
AcDbSymbolTable
 70
     0
  0
ENDTAB
  0
TABLE
  2
APPID
  5
9
330
0
100
AcDbSymbolTable
 70
     1
  0
APPID
  5
12
330
9
100
AcDbSymbolTableRecord
100
AcDbRegAppTableRecord
  2
ACAD
 70
     0
  0
ENDTAB
  0
TABLE
  2
DIMSTYLE
  5
A
330
0
100
AcDbSymbolTable
 70
     6
  0
DIMSTYLE
105
27
330
A
100
AcDbSymbolTableRecord
100
AcDbDimStyleTableRecord
  2
ISO-25
 70
     0
  3

  4

  5

  6

  7

 40
1.0
 41
2.5
 42
0.625
 43
3.75
 44
1.25
 45
0.0
 46
0.0
 47
0.0
 48
0.0
140
2.5
141
2.5
142
0.0
143
0.0393700787
144
1.0
145
0.0
146
1.0
147
0.625
 71
     0
 72
     0
 73
     0
 74
     0
 75
     0
 76
     0
 77
     1
 78
     8
170
     0
171
     3
172
     1
173
     0
174
     0
175
     0
176
     0
177
     0
178
     0
270
     2
271
     2
272
     2
273
     2
274
     3
340
11
275
     0
280
     0
281
     0
282
     0
283
     0
284
     8
285
     0
286
     0
287
     3
288
     0
  0
DIMSTYLE
105
19C
102
{ACAD_REACTORS
330
19B
330
1A8
330
1B5
330
32F
330
33B
330
347
330
355
330
361
330
3FF
330
40C
330
42E
330
50A
102
}
330
A
100
AcDbSymbolTableRecord
100
AcDbDimStyleTableRecord
  2
SLDDIMSTYLE0
 70
     0
  3

  4

  5

  6

  7

 40
1.0
 41
12.0
 42
0.0625
 43
0.38
 44
0.0
 45
0.000000001
 46
0.0
 47
0.0
 48
0.0
140
7.5
141
0.09
142
0.0
143
25.4
144
1.0
145
0.0
146
1.0
147
1.875
 71
     0
 72
     0
 73
     0
 74
     1
 75
     0
 76
     0
 77
     1
 78
    12
170
     0
171
     2
172
     0
173
     1
174
     0
175
     0
176
     0
177
     0
178
     0
270
     2
271
     3
272
     1
273
     2
274
     2
340
5A
275
     0
280
     0
281
     0
282
     0
283
     1
284
    12
285
     0
286
     0
287
     3
288
     0
  0
DIMSTYLE
105
1C3
102
{ACAD_REACTORS
330
1C2
330
1CD
330
1D7
330
1E1
330
1F6
330
418
102
}
330
A
100
AcDbSymbolTableRecord
100
AcDbDimStyleTableRecord
  2
SLDDIMSTYLE1
 70
     0
  3

  4

  5

  6

  7

 40
1.0
 41
12.0
 42
0.0625
 43
0.38
 44
0.0
 45
0.000000001
 46
0.0
 47
0.0
 48
0.0
140
7.5
141
0.09
142
0.0
143
25.4
144
1.0
145
0.0
146
1.0
147
1.875
 71
     0
 72
     0
 73
     0
 74
     1
 75
     0
 76
     0
 77
     1
 78
    12
170
     0
171
     2
172
     0
173
     1
174
     0
175
     0
176
     0
177
     0
178
     0
270
     2
271
     3
272
     1
273
     2
274
     2
340
5A
275
     0
280
     0
281
     0
282
     0
283
     1
284
    12
285
     0
286
     0
287
     3
288
     0
  0
DIMSTYLE
105
1EC
102
{ACAD_REACTORS
330
1EB
330
422
102
}
330
A
100
AcDbSymbolTableRecord
100
AcDbDimStyleTableRecord
  2
SLDDIMSTYLE2
 70
     0
  3
<>
  4

  5

  6

  7

 40
1.0
 41
12.0
 42
0.0625
 43
0.38
 44
0.0
 45
0.000000001
 46
0.0
 47
0.0
 48
0.0
140
7.5
141
0.09
142
0.0
143
25.4
144
1.0
145
0.0
146
1.0
147
1.875
 71
     0
 72
     0
 73
     0
 74
     1
 75
     0
 76
     0
 77
     1
 78
    12
170
     0
171
     2
172
     1
173
     1
174
     0
175
     0
176
     0
177
     0
178
     0
270
     2
271
     3
272
     1
273
     2
274
     2
340
5A
275
     0
280
     0
281
     0
282
     0
283
     1
284
    12
285
     0
286
     0
287
     3
288
     0
  0
DIMSTYLE
105
36F
102
{ACAD_REACTORS
330
36E
102
}
330
A
100
AcDbSymbolTableRecord
100
AcDbDimStyleTableRecord
  2
SLDDIMSTYLE3
 70
     0
  3

  4

  5

  6

  7

 40
1.0
 41
12.0
 42
0.0625
 43
0.38
 44
0.0
 45
0.0
 46
0.0
 47
0.0
 48
0.0
140
7.5
141
0.09
142
0.0
143
25.4
144
3.0
145
0.0
146
1.0
147
1.875
 71
     0
 72
     0
 73
     0
 74
     1
 75
     0
 76
     0
 77
     1
 78
    12
170
     0
171
     2
172
     0
173
     1
174
     0
175
     0
176
     0
177
     0
178
     0
179
     3
270
     2
271
     4
272
     1
273
     2
274
     2
340
5A
275
     0
280
     0
281
     0
282
     0
283
     1
284
    12
285
     0
286
     0
287
     3
288
     0
  0
DIMSTYLE
105
4FE
102
{ACAD_REACTORS
330
4FD
102
}
330
A
100
AcDbSymbolTableRecord
100
AcDbDimStyleTableRecord
  2
SLDDIMSTYLE4
 70
     0
  3

  4

  5

  6

  7

 40
1.0
 41
12.0
 42
0.0625
 43
0.38
 44
0.0
 45
0.000000001
 46
0.0
 47
0.0
 48
0.0
140
7.5
141
0.09
142
0.0
143
25.4
144
1.0
145
0.0
146
1.0
147
1.875
 71
     0
 72
     0
 73
     0
 74
     1
 75
     0
 76
     0
 77
     1
 78
    12
170
     0
171
     2
172
     0
173
     1
174
     0
175
     0
176
     0
177
     0
178
     0
270
     2
271
     1
272
     1
273
     2
274
     2
340
5A
275
     0
280
     0
281
     0
282
     0
283
     1
284
    12
285
     0
286
     0
287
     3
288
     0
  0
ENDTAB
  0
TABLE
  2
BLOCK_RECORD
  5
1
330
0
100
AcDbSymbolTable
 70
    46
  0
BLOCK_RECORD
  5
1F
330
1
100
AcDbSymbolTableRecord
100
AcDbBlockTableRecord
  2
*MODEL_SPACE
  0
BLOCK_RECORD
  5
1B
330
1
100
AcDbSymbolTableRecord
100
AcDbBlockTableRecord
  2
*PAPER_SPACE
  0
BLOCK_RECORD
  5
57
330
1
100
AcDbSymbolTableRecord
100
AcDbBlockTableRecord
  2
SW_NOTE_0
  0
BLOCK_RECORD
  5
99
330
1
100
AcDbSymbolTableRecord
100
AcDbBlockTableRecord
  2
SW_NOTE_1
  0
BLOCK_RECORD
  5
A1
330
1
100
AcDbSymbolTableRecord
100
AcDbBlockTableRecord
  2
SW_BROKEN_VIEW_0
  0
BLOCK_RECORD
  5
19D
330
1
100
AcDbSymbolTableRecord
100
AcDbBlockTableRecord
  2
*D4
  0
BLOCK_RECORD
  5
1A9
330
1
100
AcDbSymbolTableRecord
100
AcDbBlockTableRecord
  2
*D5
  0
BLOCK_RECORD
  5
1B6
330
1
100
AcDbSymbolTableRecord
100
AcDbBlockTableRecord
  2
*D6
  0
BLOCK_RECORD
  5
1C4
330
1
100
AcDbSymbolTableRecord
100
AcDbBlockTableRecord
  2
*D7
  0
BLOCK_RECORD
  5
1CE
330
1
100
AcDbSymbolTableRecord
100
AcDbBlockTableRecord
  2
*D8
  0
BLOCK_RECORD
  5
1D8
330
1
100
AcDbSymbolTableRecord
100
AcDbBlockTableRecord
  2
*D9
  0
BLOCK_RECORD
  5
1E2
330
1
100
AcDbSymbolTableRecord
100
AcDbBlockTableRecord
  2
*D10
  0
BLOCK_RECORD
  5
1ED
330
1
100
AcDbSymbolTableRecord
100
AcDbBlockTableRecord
  2
*D11
  0
BLOCK_RECORD
  5
1F7
330
1
100
AcDbSymbolTableRecord
100
AcDbBlockTableRecord
  2
*D12
  0
BLOCK_RECORD
  5
200
330
1
100
AcDbSymbolTableRecord
100
AcDbBlockTableRecord
  2
SW_CENTERMARKSYMBOL_0
  0
BLOCK_RECORD
  5
20C
330
1
100
AcDbSymbolTableRecord
100
AcDbBlockTableRecord
  2
SW_CENTERMARKSYMBOL_1
  0
BLOCK_RECORD
  5
218
330
1
100
AcDbSymbolTableRecord
100
AcDbBlockTableRecord
  2
SW_CENTERMARKSYMBOL_2
  0
BLOCK_RECORD
  5
224
330
1
100
AcDbSymbolTableRecord
100
AcDbBlockTableRecord
  2
SW_CENTERMARKSYMBOL_3
  0
BLOCK_RECORD
  5
230
330
1
100
AcDbSymbolTableRecord
100
AcDbBlockTableRecord
  2
SW_CENTERMARKSYMBOL_4
  0
BLOCK_RECORD
  5
23C
330
1
100
AcDbSymbolTableRecord
100
AcDbBlockTableRecord
  2
SW_CENTERMARKSYMBOL_5
  0
BLOCK_RECORD
  5
248
330
1
100
AcDbSymbolTableRecord
100
AcDbBlockTableRecord
  2
SW_CENTERMARKSYMBOL_6
  0
BLOCK_RECORD
  5
254
330
1
100
AcDbSymbolTableRecord
100
AcDbBlockTableRecord
  2
SW_CENTERMARKSYMBOL_7
  0
BLOCK_RECORD
  5
260
330
1
100
AcDbSymbolTableRecord
100
AcDbBlockTableRecord
  2
SW_CENTERMARKSYMBOL_8
  0
BLOCK_RECORD
  5
26C
330
1
100
AcDbSymbolTableRecord
100
AcDbBlockTableRecord
  2
SW_CENTERMARKSYMBOL_9
  0
BLOCK_RECORD
  5
278
330
1
100
AcDbSymbolTableRecord
100
AcDbBlockTableRecord
  2
SW_CENTERMARKSYMBOL_10
  0
BLOCK_RECORD
  5
284
330
1
100
AcDbSymbolTableRecord
100
AcDbBlockTableRecord
  2
SW_CENTERMARKSYMBOL_11
  0
BLOCK_RECORD
  5
2A4
330
1
100
AcDbSymbolTableRecord
100
AcDbBlockTableRecord
  2
SW_HATCH_0
  0
BLOCK_RECORD
  5
330
330
1
100
AcDbSymbolTableRecord
100
AcDbBlockTableRecord
  2
*D26
  0
BLOCK_RECORD
  5
33C
330
1
100
AcDbSymbolTableRecord
100
AcDbBlockTableRecord
  2
*D27
  0
BLOCK_RECORD
  5
348
330
1
100
AcDbSymbolTableRecord
100
AcDbBlockTableRecord
  2
*D28
  0
BLOCK_RECORD
  5
356
330
1
100
AcDbSymbolTableRecord
100
AcDbBlockTableRecord
  2
*D29
  0
BLOCK_RECORD
  5
362
330
1
100
AcDbSymbolTableRecord
100
AcDbBlockTableRecord
  2
*D30
  0
BLOCK_RECORD
  5
370
330
1
100
AcDbSymbolTableRecord
100
AcDbBlockTableRecord
  2
*D31
  0
BLOCK_RECORD
  5
379
330
1
100
AcDbSymbolTableRecord
100
AcDbBlockTableRecord
  2
SW_CENTERMARKSYMBOL_12
  0
BLOCK_RECORD
  5
385
330
1
100
AcDbSymbolTableRecord
100
AcDbBlockTableRecord
  2
SW_CENTERMARKSYMBOL_13
  0
BLOCK_RECORD
  5
393
330
1
100
AcDbSymbolTableRecord
100
AcDbBlockTableRecord
  2
SW_BROKEN_VIEW_1
  0
BLOCK_RECORD
  5
400
330
1
100
AcDbSymbolTableRecord
100
AcDbBlockTableRecord
  2
*D35
  0
BLOCK_RECORD
  5
40D
330
1
100
AcDbSymbolTableRecord
100
AcDbBlockTableRecord
  2
*D36
  0
BLOCK_RECORD
  5
419
330
1
100
AcDbSymbolTableRecord
100
AcDbBlockTableRecord
  2
*D37
  0
BLOCK_RECORD
  5
423
330
1
100
AcDbSymbolTableRecord
100
AcDbBlockTableRecord
  2
*D38
  0
BLOCK_RECORD
  5
42F
330
1
100
AcDbSymbolTableRecord
100
AcDbBlockTableRecord
  2
*D39
  0
BLOCK_RECORD
  5
43A
330
1
100
AcDbSymbolTableRecord
100
AcDbBlockTableRecord
  2
SW_CENTERMARKSYMBOL_14
  0
BLOCK_RECORD
  5
446
330
1
100
AcDbSymbolTableRecord
100
AcDbBlockTableRecord
  2
SW_CENTERMARKSYMBOL_15
  0
BLOCK_RECORD
  5
4FF
330
1
100
AcDbSymbolTableRecord
100
AcDbBlockTableRecord
  2
*D42
  0
BLOCK_RECORD
  5
50B
330
1
100
AcDbSymbolTableRecord
100
AcDbBlockTableRecord
  2
*D43
  0
BLOCK_RECORD
  5
516
330
1
100
AcDbSymbolTableRecord
100
AcDbBlockTableRecord
  2
SW_CENTERMARKSYMBOL_16
  0
BLOCK_RECORD
  5
522
330
1
100
AcDbSymbolTableRecord
100
AcDbBlockTableRecord
  2
SW_CENTERMARKSYMBOL_17
  0
ENDTAB
  0
ENDSEC
  0
SECTION
  2
BLOCKS
  0
BLOCK
  5
20
330
1F
100
AcDbEntity
  8
0
100
AcDbBlockBegin
  2
*MODEL_SPACE
 70
     0
 10
0.0
 20
0.0
 30
0.0
  3
*MODEL_SPACE
  1

  0
ENDBLK
  5
21
330
1F
100
AcDbEntity
  8
0
100
AcDbBlockEnd
  0
BLOCK
  5
1C
330
1B
100
AcDbEntity
 67
     1
  8
0
100
AcDbBlockBegin
  2
*PAPER_SPACE
 70
     0
 10
0.0
 20
0.0
 30
0.0
  3
*PAPER_SPACE
  1

  0
ENDBLK
  5
1D
330
1B
100
AcDbEntity
 67
     1
  8
0
100
AcDbBlockEnd
  0
BLOCK
  5
58
330
57
100
AcDbEntity
  8
0
100
AcDbBlockBegin
  2
SW_NOTE_0
 70
     0
 10
0.0
 20
0.0
 30
0.0
  3
SW_NOTE_0
  1

  0
MTEXT
  5
7D
330
57
100
AcDbEntity
  8
OPISY
 62
     0
100
AcDbMText
 10
0.0
 20
13.5352112676
 30
0.0
 40
10.5
 41
0.0
 71
     1
 72
     1
  1
Uwagi:
  7
SLDTEXTSTYLE0
  0
MTEXT
  5
7F
330
57
100
AcDbEntity
  8
OPISY
 62
     0
100
AcDbMText
 10
29.9999993294
 20
0.0352118488
 30
0.0
 40
10.5
 41
0.0
 71
     1
 72
     1
  1
Szyna o konstrukcji aluminiowej z nierdzewnymi prętami prowadzącymi.
  7
SLDTEXTSTYLE1
  0
MTEXT
  5
80
330
57
100
AcDbEntity
  8
OPISY
 62
     0
100
AcDbMText
 10
0.0
 20
0.0352118488
 30
0.0
 40
10.5
 41
0.0
 71
     1
 72
     1
  1
1.
  7
SLDTEXTSTYLE0
  0
MTEXT
  5
81
330
57
100
AcDbEntity
  8
OPISY
 62
     0
100
AcDbMText
 10
29.9999993294
 20
-13.4647875701
 30
0.0
 40
10.5
 41
0.0
 71
     1
 72
     1
  1
Płyta wózka z aluminium anodowanego. Wózek wyposażony w hartowane
  7
SLDTEXTSTYLE1
  0
MTEXT
  5
82
330
57
100
AcDbEntity
  8
OPISY
 62
     0
100
AcDbMText
 10
0.0
 20
-13.4647875701
 30
0.0
 40
10.5
 41
0.0
 71
     1
 72
     1
  1
2.
  7
SLDTEXTSTYLE0
  0
MTEXT
  5
83
330
57
100
AcDbEntity
  8
OPISY
 62
     0
100
AcDbMText
 10
30.0
 20
-26.964786989
 30
0.0
 40
10.5
 41
0.0
 71
     1
 72
     1
  1
rolki jezdne, dwie rolki posiadają mimośrodową regulację luzu.
  7
SLDTEXTSTYLE1
  0
MTEXT
  5
84
330
57
100
AcDbEntity
  8
OPISY
 62
     0
100
AcDbMText
 10
0.0
 20
-40.4647864078
 30
0.0
 40
10.5
 41
0.0
 71
     1
 72
     1
  1
3.     Obciążalność wózka prowadnicy 20kg we wszystich kierunkach. 
  7
SLDTEXTSTYLE1
  0
ENDBLK
  5
59
330
57
100
AcDbEntity
  8
0
100
AcDbBlockEnd
  0
BLOCK
  5
9A
330
99
100
AcDbEntity
  8
0
100
AcDbBlockBegin
  2
SW_NOTE_1
 70
     0
 10
0.0
 20
0.0
 30
0.0
  3
SW_NOTE_1
  1

  0
MTEXT
  5
9C
330
99
100
AcDbEntity
  8
0
  6
CONTINUOUS
 62
     0
100
AcDbMText
 10
0.0
 20
5.800804829
 30
0.0
 40
4.5
 41
0.0
 71
     1
 72
     1
  1
Data 
  7
SLDTEXTSTYLE0
  0
MTEXT
  5
9D
330
99
100
AcDbEntity
  8
0
  6
CONTINUOUS
 62
     0
100
AcDbMText
 10
0.0
 20
-0.7991951353
 30
0.0
 40
4.5
 41
0.0
 71
     1
 72
     1
  1
i podpis
  7
SLDTEXTSTYLE0
  0
ENDBLK
  5
9B
330
99
100
AcDbEntity
  8
0
100
AcDbBlockEnd
  0
BLOCK
  5
A2
330
A1
100
AcDbEntity
  8
0
100
AcDbBlockBegin
  2
SW_BROKEN_VIEW_0
 70
     0
 10
0.0
 20
0.0
 30
0.0
  3
SW_BROKEN_VIEW_0
  1

  0
LINE
  5
A4
330
A1
100
AcDbEntity
  8
0
  6
CONTINUOUS
 62
     0
100
AcDbLine
 10
0.0
 20
0.0
 30
0.0
 11
0.0249985605
 21
-11.9999996386
 31
0.0
  0
LINE
  5
A5
330
A1
100
AcDbEntity
  8
0
  6
CONTINUOUS
 62
     0
100
AcDbLine
 10
0.0249985605
 20
-11.9999996386
 30
0.0
 11
6.0499990359
 21
-11.9999996386
 31
0.0
  0
LINE
  5
A6
330
A1
100
AcDbEntity
  8
0
  6
CONTINUOUS
 62
     0
100
AcDbLine
 10
6.0499990359
 20
-11.9999996386
 30
0.0
 11
6.0499990359
 21
0.0
 31
0.0
  0
LINE
  5
A7
330
A1
100
AcDbEntity
  8
0
  6
CONTINUOUS
 62
     0
100
AcDbLine
 10
34.9999992177
 20
0.0
 30
0.0
 11
34.9999992177
 21
-11.9999996386
 31
0.0
  0
LINE
  5
A8
330
A1
100
AcDbEntity
  8
0
  6
CONTINUOUS
 62
     0
100
AcDbLine
 10
34.9999992177
 20
-11.9999996386
 30
0.0
 11
41.024999693
 21
-11.9999996386
 31
0.0
  0
LINE
  5
A9
330
A1
100
AcDbEntity
  8
0
  6
CONTINUOUS
 62
     0
100
AcDbLine
 10
41.024999693
 20
-11.9999996386
 30
0.0
 11
41.0499982536
 21
0.0
 31
0.0
  0
ENDBLK
  5
A3
330
A1
100
AcDbEntity
  8
0
100
AcDbBlockEnd
  0
BLOCK
  5
19E
330
19D
100
AcDbEntity
  8
0
100
AcDbBlockBegin
  2
*D4
 70
     1
 10
0.0
 20
0.0
 30
0.0
  3
*D4
  1

  0
SOLID
  5
1A0
330
19D
100
AcDbEntity
  8
OPISY
100
AcDbTrace
 10
505.0152997867
 20
504.9587018117
 30
0.0
 11
503.5152997867
 21
492.9587018117
 31
0.0
 12
506.5152997867
 22
492.9587018117
 32
0.0
 13
506.5152997867
 23
492.9587018117
 33
0.0
  0
SOLID
  5
1A1
330
19D
100
AcDbEntity
  8
OPISY
100
AcDbTrace
 10
505.0152997867
 20
516.9587018117
 30
0.0
 11
506.5152997867
 21
528.9587018117
 31
0.0
 12
503.5152997867
 22
528.9587018117
 32
0.0
 13
503.5152997867
 23
528.9587018117
 33
0.0
  0
LINE
  5
1A2
330
19D
100
AcDbEntity
  8
OPISY
100
AcDbLine
 10
458.6229949413
 20
504.9587018117
 30
0.0
 11
506.5152997867
 21
504.9587018117
 31
0.0
  0
LINE
  5
1A3
330
19D
100
AcDbEntity
  8
OPISY
100
AcDbLine
 10
478.1229949413
 20
516.9587018117
 30
0.0
 11
506.5152997867
 21
516.9587018117
 31
0.0
  0
LINE
  5
1A4
330
19D
100
AcDbEntity
  8
OPISY
100
AcDbLine
 10
505.0152997867
 20
504.9587018117
 30
0.0
 11
505.0152997867
 21
486.9587018117
 31
0.0
  0
LINE
  5
1A5
330
19D
100
AcDbEntity
  8
OPISY
100
AcDbLine
 10
505.0152997867
 20
504.9587018117
 30
0.0
 11
505.0152997867
 21
516.9587018117
 31
0.0
  0
LINE
  5
1A6
330
19D
100
AcDbEntity
  8
OPISY
100
AcDbLine
 10
505.0152997867
 20
516.9587018117
 30
0.0
 11
505.0152997867
 21
534.9587018117
 31
0.0
  0
MTEXT
  5
1A7
330
19D
100
AcDbEntity
  8
OPISY
100
AcDbMText
 10
495.347291913
 20
505.4205799367
 30
0.0
 40
7.5
 41
0.0
 71
     1
 72
     1
  1
12
  7
SLDTEXTSTYLE0
 11
6.123233995736766E-17
 21
1.0
 31
0.0
  0
ENDBLK
  5
19F
330
19D
100
AcDbEntity
  8
0
100
AcDbBlockEnd
  0
BLOCK
  5
1AA
330
1A9
100
AcDbEntity
  8
0
100
AcDbBlockBegin
  2
*D5
 70
     1
 10
0.0
 20
0.0
 30
0.0
  3
*D5
  1

  0
SOLID
  5
1AC
330
1A9
100
AcDbEntity
  8
OPISY
100
AcDbTrace
 10
451.0979949413
 20
543.1128571069
 30
0.0
 11
439.0979949413
 21
544.6128571069
 31
0.0
 12
439.0979949413
 22
541.6128571069
 32
0.0
 13
439.0979949413
 23
541.6128571069
 33
0.0
  0
SOLID
  5
1AD
330
1A9
100
AcDbEntity
  8
OPISY
100
AcDbTrace
 10
457.1479949413
 20
543.1128571069
 30
0.0
 11
469.1479949413
 21
541.6128571069
 31
0.0
 12
469.1479949413
 22
544.6128571069
 32
0.0
 13
469.1479949413
 23
544.6128571069
 33
0.0
  0
LINE
  5
1AE
330
1A9
100
AcDbEntity
  8
OPISY
100
AcDbLine
 10
451.0979949413
 20
518.4587018117
 30
0.0
 11
451.0979949413
 21
544.6128571069
 31
0.0
  0
LINE
  5
1AF
330
1A9
100
AcDbEntity
  8
OPISY
100
AcDbLine
 10
457.1479949413
 20
518.4587018117
 30
0.0
 11
457.1479949413
 21
544.6128571069
 31
0.0
  0
LINE
  5
1B0
330
1A9
100
AcDbEntity
  8
OPISY
100
AcDbLine
 10
451.0979949413
 20
543.1128571069
 30
0.0
 11
433.0979949413
 21
543.1128571069
 31
0.0
  0
LINE
  5
1B1
330
1A9
100
AcDbEntity
  8
OPISY
100
AcDbLine
 10
451.0979949413
 20
543.1128571069
 30
0.0
 11
457.1479949413
 21
543.1128571069
 31
0.0
  0
LINE
  5
1B2
330
1A9
100
AcDbEntity
  8
OPISY
100
AcDbLine
 10
457.1479949413
 20
543.1128571069
 30
0.0
 11
506.4656330686
 21
543.1128571069
 31
0.0
  0
MTEXT
  5
1B4
330
1A9
100
AcDbEntity
  8
OPISY
100
AcDbMText
 10
471.0892179824
 20
552.7808649805
 30
0.0
 40
7.5
 41
0.0
 71
     1
 72
     1
  1
2 x M6
  7
SLDTEXTSTYLE3
  0
ENDBLK
  5
1AB
330
1A9
100
AcDbEntity
  8
0
100
AcDbBlockEnd
  0
BLOCK
  5
1B7
330
1B6
100
AcDbEntity
  8
0
100
AcDbBlockBegin
  2
*D6
 70
     1
 10
0.0
 20
0.0
 30
0.0
  3
*D6
  1

  0
SOLID
  5
1B9
330
1B6
100
AcDbEntity
  8
OPISY
100
AcDbTrace
 10
416.1229949413
 20
727.9052205059
 30
0.0
 11
404.1229949413
 21
729.4052205059
 31
0.0
 12
404.1229949413
 22
726.4052205059
 32
0.0
 13
404.1229949413
 23
726.4052205059
 33
0.0
  0
SOLID
  5
1BA
330
1B6
100
AcDbEntity
  8
OPISY
100
AcDbTrace
 10
457.1229949413
 20
727.9052205059
 30
0.0
 11
469.1229949413
 21
726.4052205059
 31
0.0
 12
469.1229949413
 22
729.4052205059
 32
0.0
 13
469.1229949413
 23
729.4052205059
 33
0.0
  0
LINE
  5
1BB
330
1B6
100
AcDbEntity
  8
OPISY
100
AcDbLine
 10
416.1229949413
 20
708.4052205059
 30
0.0
 11
416.1229949413
 21
729.4052205059
 31
0.0
  0
LINE
  5
1BC
330
1B6
100
AcDbEntity
  8
OPISY
100
AcDbLine
 10
457.1229949413
 20
708.4052205059
 30
0.0
 11
457.1229949413
 21
729.4052205059
 31
0.0
  0
LINE
  5
1BD
330
1B6
100
AcDbEntity
  8
OPISY
100
AcDbLine
 10
416.1229949413
 20
727.9052205059
 30
0.0
 11
398.1229949413
 21
727.9052205059
 31
0.0
  0
LINE
  5
1BE
330
1B6
100
AcDbEntity
  8
OPISY
100
AcDbLine
 10
416.1229949413
 20
727.9052205059
 30
0.0
 11
457.1229949413
 21
727.9052205059
 31
0.0
  0
LINE
  5
1BF
330
1B6
100
AcDbEntity
  8
OPISY
100
AcDbLine
 10
457.1229949413
 20
727.9052205059
 30
0.0
 11
475.1229949413
 21
727.9052205059
 31
0.0
  0
MTEXT
  5
1C0
330
1B6
100
AcDbEntity
  8
OPISY
100
AcDbMText
 10
425.4341280232
 20
737.5732290781
 30
0.0
 40
7.5
 41
0.0
 71
     1
 72
     1
  1
%%c
  7
SLDTEXTSTYLE0
  0
MTEXT
  5
1C1
330
1B6
100
AcDbEntity
  8
OPISY
100
AcDbMText
 10
436.7356181094
 20
737.5732283796
 30
0.0
 40
7.5
 41
0.0
 71
     1
 72
     1
  1
41
  7
SLDTEXTSTYLE0
  0
ENDBLK
  5
1B8
330
1B6
100
AcDbEntity
  8
0
100
AcDbBlockEnd
  0
BLOCK
  5
1C5
330
1C4
100
AcDbEntity
  8
0
100
AcDbBlockBegin
  2
*D7
 70
     1
 10
0.0
 20
0.0
 30
0.0
  3
*D7
  1

  0
SOLID
  5
1C7
330
1C4
100
AcDbEntity
  8
OPISY
100
AcDbTrace
 10
523.0152997867
 20
343.3743925707
 30
0.0
 11
524.5152997867
 21
355.3743925707
 31
0.0
 12
521.5152997867
 22
355.3743925707
 32
0.0
 13
521.5152997867
 23
355.3743925707
 33
0.0
  0
SOLID
  5
1C8
330
1C4
100
AcDbEntity
  8
OPISY
100
AcDbTrace
 10
523.0152997867
 20
706.9052205059
 30
0.0
 11
521.5152997867
 21
694.9052205059
 31
0.0
 12
524.5152997867
 22
694.9052205059
 32
0.0
 13
524.5152997867
 23
694.9052205059
 33
0.0
  0
LINE
  5
1C9
330
1C4
100
AcDbEntity
  8
OPISY
100
AcDbLine
 10
458.6229949413
 20
343.3743925707
 30
0.0
 11
524.5152997867
 21
343.3743925707
 31
0.0
  0
LINE
  5
1CA
330
1C4
100
AcDbEntity
  8
OPISY
100
AcDbLine
 10
458.6229949413
 20
706.9052205059
 30
0.0
 11
524.5152997867
 21
706.9052205059
 31
0.0
  0
LINE
  5
1CB
330
1C4
100
AcDbEntity
  8
OPISY
100
AcDbLine
 10
523.0152997867
 20
343.3743925707
 30
0.0
 11
523.0152997867
 21
706.9052205059
 31
0.0
  0
MTEXT
  5
1CC
330
1C4
100
AcDbEntity
  8
OPISY
100
AcDbMText
 10
513.347291913
 20
489.1003927452
 30
0.0
 40
7.5
 41
0.0
 71
     1
 72
     1
  1
L max 2500mm
  7
SLDTEXTSTYLE0
 11
-1.608122649676637E-16
 21
1.0
 31
0.0
  0
ENDBLK
  5
1C6
330
1C4
100
AcDbEntity
  8
0
100
AcDbBlockEnd
  0
BLOCK
  5
1CF
330
1CE
100
AcDbEntity
  8
0
100
AcDbBlockBegin
  2
*D8
 70
     1
 10
0.0
 20
0.0
 30
0.0
  3
*D8
  1

  0
SOLID
  5
1D1
330
1CE
100
AcDbEntity
  8
OPISY
100
AcDbTrace
 10
391.6229949413
 20
304.3743925707
 30
0.0
 11
403.6229949413
 21
302.8743925707
 31
0.0
 12
403.6229949413
 22
305.8743925707
 32
0.0
 13
403.6229949413
 23
305.8743925707
 33
0.0
  0
SOLID
  5
1D2
330
1CE
100
AcDbEntity
  8
OPISY
100
AcDbTrace
 10
481.6229949413
 20
304.3743925707
 30
0.0
 11
469.6229949413
 21
305.8743925707
 31
0.0
 12
469.6229949413
 22
302.8743925707
 32
0.0
 13
469.6229949413
 23
302.8743925707
 33
0.0
  0
LINE
  5
1D3
330
1CE
100
AcDbEntity
  8
OPISY
100
AcDbLine
 10
391.6229949413
 20
425.4587018117
 30
0.0
 11
391.6229949413
 21
302.8743925707
 31
0.0
  0
LINE
  5
1D4
330
1CE
100
AcDbEntity
  8
OPISY
100
AcDbLine
 10
481.6229949413
 20
425.4587018117
 30
0.0
 11
481.6229949413
 21
302.8743925707
 31
0.0
  0
LINE
  5
1D5
330
1CE
100
AcDbEntity
  8
OPISY
100
AcDbLine
 10
391.6229949413
 20
304.3743925707
 30
0.0
 11
481.6229949413
 21
304.3743925707
 31
0.0
  0
MTEXT
  5
1D6
330
1CE
100
AcDbEntity
  8
OPISY
100
AcDbMText
 10
431.0848730663
 20
314.0424004444
 30
0.0
 40
7.5
 41
0.0
 71
     1
 72
     1
  1
90
  7
SLDTEXTSTYLE0
  0
ENDBLK
  5
1D0
330
1CE
100
AcDbEntity
  8
0
100
AcDbBlockEnd
  0
BLOCK
  5
1D9
330
1D8
100
AcDbEntity
  8
0
100
AcDbBlockBegin
  2
*D9
 70
     1
 10
0.0
 20
0.0
 30
0.0
  3
*D9
  1

  0
SOLID
  5
1DB
330
1D8
100
AcDbEntity
  8
OPISY
100
AcDbTrace
 10
397.6229949413
 20
322.3743925707
 30
0.0
 11
409.6229949413
 21
320.8743925707
 31
0.0
 12
409.6229949413
 22
323.8743925707
 32
0.0
 13
409.6229949413
 23
323.8743925707
 33
0.0
  0
SOLID
  5
1DC
330
1D8
100
AcDbEntity
  8
OPISY
100
AcDbTrace
 10
475.6229949413
 20
322.3743925707
 30
0.0
 11
463.6229949413
 21
323.8743925707
 31
0.0
 12
463.6229949413
 22
320.8743925707
 32
0.0
 13
463.6229949413
 23
320.8743925707
 33
0.0
  0
LINE
  5
1DD
330
1D8
100
AcDbEntity
  8
OPISY
100
AcDbLine
 10
397.6229949413
 20
421.2087018117
 30
0.0
 11
397.6229949413
 21
320.8743925707
 31
0.0
  0
LINE
  5
1DE
330
1D8
100
AcDbEntity
  8
OPISY
100
AcDbLine
 10
475.6229949413
 20
421.2087018117
 30
0.0
 11
475.6229949413
 21
320.8743925707
 31
0.0
  0
LINE
  5
1DF
330
1D8
100
AcDbEntity
  8
OPISY
100
AcDbLine
 10
397.6229949413
 20
322.3743925707
 30
0.0
 11
475.6229949413
 21
322.3743925707
 31
0.0
  0
MTEXT
  5
1E0
330
1D8
100
AcDbEntity
  8
OPISY
100
AcDbMText
 10
431.0848730663
 20
332.0424004444
 30
0.0
 40
7.5
 41
0.0
 71
     1
 72
     1
  1
78
  7
SLDTEXTSTYLE0
  0
ENDBLK
  5
1DA
330
1D8
100
AcDbEntity
  8
0
100
AcDbBlockEnd
  0
BLOCK
  5
1E3
330
1E2
100
AcDbEntity
  8
0
100
AcDbBlockBegin
  2
*D10
 70
     1
 10
0.0
 20
0.0
 30
0.0
  3
*D10
  1

  0
SOLID
  5
1E5
330
1E2
100
AcDbEntity
  8
OPISY
100
AcDbTrace
 10
368.2306900959
 20
510.7087018117
 30
0.0
 11
366.7306900959
 21
498.7087018117
 31
0.0
 12
369.7306900959
 22
498.7087018117
 32
0.0
 13
369.7306900959
 23
498.7087018117
 33
0.0
  0
SOLID
  5
1E6
330
1E2
100
AcDbEntity
  8
OPISY
100
AcDbTrace
 10
368.2306900959
 20
428.2087018117
 30
0.0
 11
369.7306900959
 21
440.2087018117
 31
0.0
 12
366.7306900959
 22
440.2087018117
 32
0.0
 13
366.7306900959
 23
440.2087018117
 33
0.0
  0
LINE
  5
1E7
330
1E2
100
AcDbEntity
  8
OPISY
100
AcDbLine
 10
390.6229949413
 20
510.7087018117
 30
0.0
 11
366.7306900959
 21
510.7087018117
 31
0.0
  0
LINE
  5
1E8
330
1E2
100
AcDbEntity
  8
OPISY
100
AcDbLine
 10
390.6229949413
 20
428.2087018117
 30
0.0
 11
366.7306900959
 21
428.2087018117
 31
0.0
  0
LINE
  5
1E9
330
1E2
100
AcDbEntity
  8
OPISY
100
AcDbLine
 10
368.2306900959
 20
510.7087018117
 30
0.0
 11
368.2306900959
 21
428.2087018117
 31
0.0
  0
MTEXT
  5
1EA
330
1E2
100
AcDbEntity
  8
OPISY
100
AcDbMText
 10
358.5626822222
 20
459.7633160359
 30
0.0
 40
7.5
 41
0.0
 71
     1
 72
     1
  1
82,5
  7
SLDTEXTSTYLE0
 11
-7.044195017643634E-15
 21
1.0
 31
0.0
  0
ENDBLK
  5
1E4
330
1E2
100
AcDbEntity
  8
0
100
AcDbBlockEnd
  0
BLOCK
  5
1EE
330
1ED
100
AcDbEntity
  8
0
100
AcDbBlockBegin
  2
*D11
 70
     1
 10
0.0
 20
0.0
 30
0.0
  3
*D11
  1

  0
SOLID
  5
1F0
330
1ED
100
AcDbEntity
  8
OPISY
100
AcDbTrace
 10
399.7443152849
 20
508.5873814682
 30
0.0
 11
407.1689364873
 21
499.0414399222
 31
0.0
 12
409.2902568309
 22
501.1627602657
 32
0.0
 13
409.2902568309
 23
501.1627602657
 33
0.0
  0
SOLID
  5
1F1
330
1ED
100
AcDbEntity
  8
OPISY
100
AcDbTrace
 10
395.5016745977
 20
512.8300221553
 30
0.0
 11
388.0770533953
 21
522.3759637013
 31
0.0
 12
385.9557330517
 22
520.2546433578
 32
0.0
 13
385.9557330517
 23
520.2546433578
 33
0.0
  0
LINE
  5
1F2
330
1ED
100
AcDbEntity
  8
OPISY
100
AcDbLine
 10
395.5016745977
 20
512.8300221553
 30
0.0
 11
355.191486862
 21
553.140209891
 31
0.0
  0
LINE
  5
1F3
330
1ED
100
AcDbEntity
  8
OPISY
100
AcDbLine
 10
399.7443152849
 20
508.5873814682
 30
0.0
 11
412.4722373462
 21
495.8594594068
 31
0.0
  0
LINE
  5
1F4
330
1ED
100
AcDbEntity
  8
OPISY
100
AcDbLine
 10
395.5016745977
 20
512.8300221553
 30
0.0
 11
399.7443152849
 21
508.5873814682
 31
0.0
  0
MTEXT
  5
1F5
330
1ED
100
AcDbEntity
  8
OPISY
100
AcDbMText
 10
365.3504416927
 20
556.5639726309
 30
0.0
 40
7.5
 41
0.0
 71
     1
 72
     1
  1
8 x M6
  7
SLDTEXTSTYLE3
 11
0.7071067811865447
 21
-0.7071067811865503
 31
0.0
  0
ENDBLK
  5
1EF
330
1ED
100
AcDbEntity
  8
0
100
AcDbBlockEnd
  0
BLOCK
  5
1F8
330
1F7
100
AcDbEntity
  8
0
100
AcDbBlockBegin
  2
*D12
 70
     1
 10
0.0
 20
0.0
 30
0.0
  3
*D12
  1

  0
SOLID
  5
1FA
330
1F7
100
AcDbEntity
  8
OPISY
100
AcDbTrace
 10
350.2306900959
 20
516.9587018117
 30
0.0
 11
348.7306900959
 21
504.9587018117
 31
0.0
 12
351.7306900959
 22
504.9587018117
 32
0.0
 13
351.7306900959
 23
504.9587018117
 33
0.0
  0
SOLID
  5
1FB
330
1F7
100
AcDbEntity
  8
OPISY
100
AcDbTrace
 10
350.2306900959
 20
421.9587018117
 30
0.0
 11
351.7306900959
 21
433.9587018117
 31
0.0
 12
348.7306900959
 22
433.9587018117
 32
0.0
 13
348.7306900959
 23
433.9587018117
 33
0.0
  0
LINE
  5
1FC
330
1F7
100
AcDbEntity
  8
OPISY
100
AcDbLine
 10
395.1229949413
 20
516.9587018117
 30
0.0
 11
348.7306900959
 21
516.9587018117
 31
0.0
  0
LINE
  5
1FD
330
1F7
100
AcDbEntity
  8
OPISY
100
AcDbLine
 10
395.1229949413
 20
421.9587018117
 30
0.0
 11
348.7306900959
 21
421.9587018117
 31
0.0
  0
LINE
  5
1FE
330
1F7
100
AcDbEntity
  8
OPISY
100
AcDbLine
 10
350.2306900959
 20
516.9587018117
 30
0.0
 11
350.2306900959
 21
421.9587018117
 31
0.0
  0
MTEXT
  5
1FF
330
1F7
100
AcDbEntity
  8
OPISY
100
AcDbMText
 10
340.5626822222
 20
463.9205799367
 30
0.0
 40
7.5
 41
0.0
 71
     1
 72
     1
  1
95
  7
SLDTEXTSTYLE0
 11
-7.044195017643634E-15
 21
1.0
 31
0.0
  0
ENDBLK
  5
1F9
330
1F7
100
AcDbEntity
  8
0
100
AcDbBlockEnd
  0
BLOCK
  5
201
330
200
100
AcDbEntity
  8
0
100
AcDbBlockBegin
  2
SW_CENTERMARKSYMBOL_0
 70
     0
 10
0.0
 20
0.0
 30
0.0
  3
SW_CENTERMARKSYMBOL_0
  1

  0
LINE
  5
203
330
200
100
AcDbEntity
  8
OPISY
 62
     0
100
AcDbLine
 10
0.0
 20
0.0
 30
0.0
 11
0.0
 21
2.4999994785
 31
0.0
  0
LINE
  5
204
330
200
100
AcDbEntity
  8
OPISY
 62
     0
100
AcDbLine
 10
0.0
 20
0.0
 30
0.0
 11
-2.4999976158
 21
0.0
 31
0.0
  0
LINE
  5
205
330
200
100
AcDbEntity
  8
OPISY
 62
     0
100
AcDbLine
 10
0.0
 20
0.0
 30
0.0
 11
0.0
 21
-2.5000004098
 31
0.0
  0
LINE
  5
206
330
200
100
AcDbEntity
  8
OPISY
 62
     0
100
AcDbLine
 10
0.0
 20
0.0
 30
0.0
 11
2.5000013411
 21
0.0
 31
0.0
  0
LINE
  5
207
330
200
100
AcDbEntity
  8
OPISY
 62
     0
100
AcDbLine
 10
0.0
 20
4.9999998882
 30
0.0
 11
0.0
 21
5.4999999702
 31
0.0
  0
LINE
  5
208
330
200
100
AcDbEntity
  8
OPISY
 62
     0
100
AcDbLine
 10
-4.9999989569
 20
0.0
 30
0.0
 11
-5.4999999702
 21
0.0
 31
0.0
  0
LINE
  5
209
330
200
100
AcDbEntity
  8
OPISY
 62
     0
100
AcDbLine
 10
0.0
 20
-5.0000003539
 30
0.0
 11
0.0
 21
-5.4999999702
 31
0.0
  0
LINE
  5
20A
330
200
100
AcDbEntity
  8
OPISY
 62
     0
100
AcDbLine
 10
4.9999989569
 20
0.0
 30
0.0
 11
5.4999999702
 21
0.0
 31
0.0
  0
ENDBLK
  5
202
330
200
100
AcDbEntity
  8
0
100
AcDbBlockEnd
  0
BLOCK
  5
20D
330
20C
100
AcDbEntity
  8
0
100
AcDbBlockBegin
  2
SW_CENTERMARKSYMBOL_1
 70
     0
 10
0.0
 20
0.0
 30
0.0
  3
SW_CENTERMARKSYMBOL_1
  1

  0
LINE
  5
20F
330
20C
100
AcDbEntity
  8
OPISY
 62
     0
100
AcDbLine
 10
0.0
 20
0.0
 30
0.0
 11
0.0
 21
2.4999994785
 31
0.0
  0
LINE
  5
210
330
20C
100
AcDbEntity
  8
OPISY
 62
     0
100
AcDbLine
 10
0.0
 20
0.0
 30
0.0
 11
-2.4999999441
 21
0.0
 31
0.0
  0
LINE
  5
211
330
20C
100
AcDbEntity
  8
OPISY
 62
     0
100
AcDbLine
 10
0.0
 20
0.0
 30
0.0
 11
0.0
 21
-2.5000004098
 31
0.0
  0
LINE
  5
212
330
20C
100
AcDbEntity
  8
OPISY
 62
     0
100
AcDbLine
 10
0.0
 20
0.0
 30
0.0
 11
2.4999999441
 21
0.0
 31
0.0
  0
LINE
  5
213
330
20C
100
AcDbEntity
  8
OPISY
 62
     0
100
AcDbLine
 10
0.0
 20
4.9999998882
 30
0.0
 11
0.0
 21
5.4999999702
 31
0.0
  0
LINE
  5
214
330
20C
100
AcDbEntity
  8
OPISY
 62
     0
100
AcDbLine
 10
-4.9999998882
 20
0.0
 30
0.0
 11
-5.4999999702
 21
0.0
 31
0.0
  0
LINE
  5
215
330
20C
100
AcDbEntity
  8
OPISY
 62
     0
100
AcDbLine
 10
0.0
 20
-5.0000003539
 30
0.0
 11
0.0
 21
-5.4999999702
 31
0.0
  0
LINE
  5
216
330
20C
100
AcDbEntity
  8
OPISY
 62
     0
100
AcDbLine
 10
4.9999998882
 20
0.0
 30
0.0
 11
5.4999999702
 21
0.0
 31
0.0
  0
ENDBLK
  5
20E
330
20C
100
AcDbEntity
  8
0
100
AcDbBlockEnd
  0
BLOCK
  5
219
330
218
100
AcDbEntity
  8
0
100
AcDbBlockBegin
  2
SW_CENTERMARKSYMBOL_2
 70
     0
 10
0.0
 20
0.0
 30
0.0
  3
SW_CENTERMARKSYMBOL_2
  1

  0
LINE
  5
21B
330
218
100
AcDbEntity
  8
OPISY
 62
     0
100
AcDbLine
 10
0.0
 20
0.0
 30
0.0
 11
0.0
 21
2.4999994785
 31
0.0
  0
LINE
  5
21C
330
218
100
AcDbEntity
  8
OPISY
 62
     0
100
AcDbLine
 10
0.0
 20
0.0
 30
0.0
 11
-2.5000013411
 21
0.0
 31
0.0
  0
LINE
  5
21D
330
218
100
AcDbEntity
  8
OPISY
 62
     0
100
AcDbLine
 10
0.0
 20
0.0
 30
0.0
 11
0.0
 21
-2.5000004098
 31
0.0
  0
LINE
  5
21E
330
218
100
AcDbEntity
  8
OPISY
 62
     0
100
AcDbLine
 10
0.0
 20
0.0
 30
0.0
 11
2.4999976158
 21
0.0
 31
0.0
  0
LINE
  5
21F
330
218
100
AcDbEntity
  8
OPISY
 62
     0
100
AcDbLine
 10
0.0
 20
4.9999998882
 30
0.0
 11
0.0
 21
5.4999999702
 31
0.0
  0
LINE
  5
220
330
218
100
AcDbEntity
  8
OPISY
 62
     0
100
AcDbLine
 10
-4.9999989569
 20
0.0
 30
0.0
 11
-5.4999999702
 21
0.0
 31
0.0
  0
LINE
  5
221
330
218
100
AcDbEntity
  8
OPISY
 62
     0
100
AcDbLine
 10
0.0
 20
-5.0000003539
 30
0.0
 11
0.0
 21
-5.4999999702
 31
0.0
  0
LINE
  5
222
330
218
100
AcDbEntity
  8
OPISY
 62
     0
100
AcDbLine
 10
4.9999989569
 20
0.0
 30
0.0
 11
5.4999999702
 21
0.0
 31
0.0
  0
ENDBLK
  5
21A
330
218
100
AcDbEntity
  8
0
100
AcDbBlockEnd
  0
BLOCK
  5
225
330
224
100
AcDbEntity
  8
0
100
AcDbBlockBegin
  2
SW_CENTERMARKSYMBOL_3
 70
     0
 10
0.0
 20
0.0
 30
0.0
  3
SW_CENTERMARKSYMBOL_3
  1

  0
LINE
  5
227
330
224
100
AcDbEntity
  8
OPISY
 62
     0
100
AcDbLine
 10
0.0
 20
0.0
 30
0.0
 11
0.0
 21
2.5000000605
 31
0.0
  0
LINE
  5
228
330
224
100
AcDbEntity
  8
OPISY
 62
     0
100
AcDbLine
 10
0.0
 20
0.0
 30
0.0
 11
-2.4999994785
 21
0.0
 31
0.0
  0
LINE
  5
229
330
224
100
AcDbEntity
  8
OPISY
 62
     0
100
AcDbLine
 10
0.0
 20
0.0
 30
0.0
 11
0.0
 21
-2.4999999441
 31
0.0
  0
LINE
  5
22A
330
224
100
AcDbEntity
  8
OPISY
 62
     0
100
AcDbLine
 10
0.0
 20
0.0
 30
0.0
 11
2.5000013411
 21
0.0
 31
0.0
  0
LINE
  5
22B
330
224
100
AcDbEntity
  8
OPISY
 62
     0
100
AcDbLine
 10
0.0
 20
5.0000001211
 30
0.0
 11
0.0
 21
5.8999999892
 31
0.0
  0
LINE
  5
22C
330
224
100
AcDbEntity
  8
OPISY
 62
     0
100
AcDbLine
 10
-4.9999989569
 20
0.0
 30
0.0
 11
-5.8999992907
 21
0.0
 31
0.0
  0
LINE
  5
22D
330
224
100
AcDbEntity
  8
OPISY
 62
     0
100
AcDbLine
 10
0.0
 20
-5.0000001211
 30
0.0
 11
0.0
 21
-5.8999999892
 31
0.0
  0
LINE
  5
22E
330
224
100
AcDbEntity
  8
OPISY
 62
     0
100
AcDbLine
 10
4.9999989569
 20
0.0
 30
0.0
 11
5.8999992907
 21
0.0
 31
0.0
  0
ENDBLK
  5
226
330
224
100
AcDbEntity
  8
0
100
AcDbBlockEnd
  0
BLOCK
  5
231
330
230
100
AcDbEntity
  8
0
100
AcDbBlockBegin
  2
SW_CENTERMARKSYMBOL_4
 70
     0
 10
0.0
 20
0.0
 30
0.0
  3
SW_CENTERMARKSYMBOL_4
  1

  0
LINE
  5
233
330
230
100
AcDbEntity
  8
OPISY
 62
     0
100
AcDbLine
 10
0.0
 20
0.0
 30
0.0
 11
0.0
 21
2.5000000605
 31
0.0
  0
LINE
  5
234
330
230
100
AcDbEntity
  8
OPISY
 62
     0
100
AcDbLine
 10
0.0
 20
0.0
 30
0.0
 11
-2.5000013411
 21
0.0
 31
0.0
  0
LINE
  5
235
330
230
100
AcDbEntity
  8
OPISY
 62
     0
100
AcDbLine
 10
0.0
 20
0.0
 30
0.0
 11
0.0
 21
-2.4999999441
 31
0.0
  0
LINE
  5
236
330
230
100
AcDbEntity
  8
OPISY
 62
     0
100
AcDbLine
 10
0.0
 20
0.0
 30
0.0
 11
2.4999994785
 21
0.0
 31
0.0
  0
LINE
  5
237
330
230
100
AcDbEntity
  8
OPISY
 62
     0
100
AcDbLine
 10
0.0
 20
5.0000001211
 30
0.0
 11
0.0
 21
12.4999999534
 31
0.0
  0
LINE
  5
238
330
230
100
AcDbEntity
  8
OPISY
 62
     0
100
AcDbLine
 10
-4.9999989569
 20
0.0
 30
0.0
 11
-12.4999992549
 21
0.0
 31
0.0
  0
LINE
  5
239
330
230
100
AcDbEntity
  8
OPISY
 62
     0
100
AcDbLine
 10
0.0
 20
-5.0000001211
 30
0.0
 11
0.0
 21
-12.5000004191
 31
0.0
  0
LINE
  5
23A
330
230
100
AcDbEntity
  8
OPISY
 62
     0
100
AcDbLine
 10
4.9999989569
 20
0.0
 30
0.0
 11
12.4999992549
 21
0.0
 31
0.0
  0
ENDBLK
  5
232
330
230
100
AcDbEntity
  8
0
100
AcDbBlockEnd
  0
BLOCK
  5
23D
330
23C
100
AcDbEntity
  8
0
100
AcDbBlockBegin
  2
SW_CENTERMARKSYMBOL_5
 70
     0
 10
0.0
 20
0.0
 30
0.0
  3
SW_CENTERMARKSYMBOL_5
  1

  0
LINE
  5
23F
330
23C
100
AcDbEntity
  8
OPISY
 62
     0
100
AcDbLine
 10
0.0
 20
0.0
 30
0.0
 11
0.0
 21
2.4999994785
 31
0.0
  0
LINE
  5
240
330
23C
100
AcDbEntity
  8
OPISY
 62
     0
100
AcDbLine
 10
0.0
 20
0.0
 30
0.0
 11
-2.4999976158
 21
0.0
 31
0.0
  0
LINE
  5
241
330
23C
100
AcDbEntity
  8
OPISY
 62
     0
100
AcDbLine
 10
0.0
 20
0.0
 30
0.0
 11
0.0
 21
-2.4999994785
 31
0.0
  0
LINE
  5
242
330
23C
100
AcDbEntity
  8
OPISY
 62
     0
100
AcDbLine
 10
0.0
 20
0.0
 30
0.0
 11
2.5000013411
 21
0.0
 31
0.0
  0
LINE
  5
243
330
23C
100
AcDbEntity
  8
OPISY
 62
     0
100
AcDbLine
 10
0.0
 20
4.9999989569
 30
0.0
 11
0.0
 21
5.4999999702
 31
0.0
  0
LINE
  5
244
330
23C
100
AcDbEntity
  8
OPISY
 62
     0
100
AcDbLine
 10
-4.9999989569
 20
0.0
 30
0.0
 11
-5.4999999702
 21
0.0
 31
0.0
  0
LINE
  5
245
330
23C
100
AcDbEntity
  8
OPISY
 62
     0
100
AcDbLine
 10
0.0
 20
-5.0000008196
 30
0.0
 11
0.0
 21
-5.5000018328
 31
0.0
  0
LINE
  5
246
330
23C
100
AcDbEntity
  8
OPISY
 62
     0
100
AcDbLine
 10
4.9999989569
 20
0.0
 30
0.0
 11
5.4999999702
 21
0.0
 31
0.0
  0
ENDBLK
  5
23E
330
23C
100
AcDbEntity
  8
0
100
AcDbBlockEnd
  0
BLOCK
  5
249
330
248
100
AcDbEntity
  8
0
100
AcDbBlockBegin
  2
SW_CENTERMARKSYMBOL_6
 70
     0
 10
0.0
 20
0.0
 30
0.0
  3
SW_CENTERMARKSYMBOL_6
  1

  0
LINE
  5
24B
330
248
100
AcDbEntity
  8
OPISY
 62
     0
100
AcDbLine
 10
0.0
 20
0.0
 30
0.0
 11
0.0
 21
2.4999994785
 31
0.0
  0
LINE
  5
24C
330
248
100
AcDbEntity
  8
OPISY
 62
     0
100
AcDbLine
 10
0.0
 20
0.0
 30
0.0
 11
-2.5000013411
 21
0.0
 31
0.0
  0
LINE
  5
24D
330
248
100
AcDbEntity
  8
OPISY
 62
     0
100
AcDbLine
 10
0.0
 20
0.0
 30
0.0
 11
0.0
 21
-2.4999994785
 31
0.0
  0
LINE
  5
24E
330
248
100
AcDbEntity
  8
OPISY
 62
     0
100
AcDbLine
 10
0.0
 20
0.0
 30
0.0
 11
2.4999976158
 21
0.0
 31
0.0
  0
LINE
  5
24F
330
248
100
AcDbEntity
  8
OPISY
 62
     0
100
AcDbLine
 10
0.0
 20
4.9999989569
 30
0.0
 11
0.0
 21
5.4999999702
 31
0.0
  0
LINE
  5
250
330
248
100
AcDbEntity
  8
OPISY
 62
     0
100
AcDbLine
 10
-4.9999989569
 20
0.0
 30
0.0
 11
-5.4999999702
 21
0.0
 31
0.0
  0
LINE
  5
251
330
248
100
AcDbEntity
  8
OPISY
 62
     0
100
AcDbLine
 10
0.0
 20
-5.0000008196
 30
0.0
 11
0.0
 21
-5.5000018328
 31
0.0
  0
LINE
  5
252
330
248
100
AcDbEntity
  8
OPISY
 62
     0
100
AcDbLine
 10
4.9999989569
 20
0.0
 30
0.0
 11
5.4999999702
 21
0.0
 31
0.0
  0
ENDBLK
  5
24A
330
248
100
AcDbEntity
  8
0
100
AcDbBlockEnd
  0
BLOCK
  5
255
330
254
100
AcDbEntity
  8
0
100
AcDbBlockBegin
  2
SW_CENTERMARKSYMBOL_7
 70
     0
 10
0.0
 20
0.0
 30
0.0
  3
SW_CENTERMARKSYMBOL_7
  1

  0
LINE
  5
257
330
254
100
AcDbEntity
  8
OPISY
 62
     0
100
AcDbLine
 10
0.0
 20
0.0
 30
0.0
 11
0.0
 21
2.4999976158
 31
0.0
  0
LINE
  5
258
330
254
100
AcDbEntity
  8
OPISY
 62
     0
100
AcDbLine
 10
0.0
 20
0.0
 30
0.0
 11
-2.4999994785
 21
0.0
 31
0.0
  0
LINE
  5
259
330
254
100
AcDbEntity
  8
OPISY
 62
     0
100
AcDbLine
 10
0.0
 20
0.0
 30
0.0
 11
0.0
 21
-2.4999976158
 31
0.0
  0
LINE
  5
25A
330
254
100
AcDbEntity
  8
OPISY
 62
     0
100
AcDbLine
 10
0.0
 20
0.0
 30
0.0
 11
2.5000013411
 21
0.0
 31
0.0
  0
LINE
  5
25B
330
254
100
AcDbEntity
  8
OPISY
 62
     0
100
AcDbLine
 10
0.0
 20
4.9999989569
 30
0.0
 11
0.0
 21
5.8999992907
 31
0.0
  0
LINE
  5
25C
330
254
100
AcDbEntity
  8
OPISY
 62
     0
100
AcDbLine
 10
-4.9999989569
 20
0.0
 30
0.0
 11
-5.8999992907
 21
0.0
 31
0.0
  0
LINE
  5
25D
330
254
100
AcDbEntity
  8
OPISY
 62
     0
100
AcDbLine
 10
0.0
 20
-5.0000026822
 30
0.0
 11
0.0
 21
-5.900003016
 31
0.0
  0
LINE
  5
25E
330
254
100
AcDbEntity
  8
OPISY
 62
     0
100
AcDbLine
 10
4.9999989569
 20
0.0
 30
0.0
 11
5.8999992907
 21
0.0
 31
0.0
  0
ENDBLK
  5
256
330
254
100
AcDbEntity
  8
0
100
AcDbBlockEnd
  0
BLOCK
  5
261
330
260
100
AcDbEntity
  8
0
100
AcDbBlockBegin
  2
SW_CENTERMARKSYMBOL_8
 70
     0
 10
0.0
 20
0.0
 30
0.0
  3
SW_CENTERMARKSYMBOL_8
  1

  0
LINE
  5
263
330
260
100
AcDbEntity
  8
OPISY
 62
     0
100
AcDbLine
 10
0.0
 20
0.0
 30
0.0
 11
0.0
 21
2.4999976158
 31
0.0
  0
LINE
  5
264
330
260
100
AcDbEntity
  8
OPISY
 62
     0
100
AcDbLine
 10
0.0
 20
0.0
 30
0.0
 11
-2.5000013411
 21
0.0
 31
0.0
  0
LINE
  5
265
330
260
100
AcDbEntity
  8
OPISY
 62
     0
100
AcDbLine
 10
0.0
 20
0.0
 30
0.0
 11
0.0
 21
-2.4999976158
 31
0.0
  0
LINE
  5
266
330
260
100
AcDbEntity
  8
OPISY
 62
     0
100
AcDbLine
 10
0.0
 20
0.0
 30
0.0
 11
2.4999994785
 21
0.0
 31
0.0
  0
LINE
  5
267
330
260
100
AcDbEntity
  8
OPISY
 62
     0
100
AcDbLine
 10
0.0
 20
4.9999989569
 30
0.0
 11
0.0
 21
12.4999992549
 31
0.0
  0
LINE
  5
268
330
260
100
AcDbEntity
  8
OPISY
 62
     0
100
AcDbLine
 10
-4.9999989569
 20
0.0
 30
0.0
 11
-12.4999992549
 21
0.0
 31
0.0
  0
LINE
  5
269
330
260
100
AcDbEntity
  8
OPISY
 62
     0
100
AcDbLine
 10
0.0
 20
-5.0000026822
 30
0.0
 11
0.0
 21
-12.5000029802
 31
0.0
  0
LINE
  5
26A
330
260
100
AcDbEntity
  8
OPISY
 62
     0
100
AcDbLine
 10
4.9999989569
 20
0.0
 30
0.0
 11
12.4999992549
 21
0.0
 31
0.0
  0
ENDBLK
  5
262
330
260
100
AcDbEntity
  8
0
100
AcDbBlockEnd
  0
BLOCK
  5
26D
330
26C
100
AcDbEntity
  8
0
100
AcDbBlockBegin
  2
SW_CENTERMARKSYMBOL_9
 70
     0
 10
0.0
 20
0.0
 30
0.0
  3
SW_CENTERMARKSYMBOL_9
  1

  0
LINE
  5
26F
330
26C
100
AcDbEntity
  8
OPISY
 62
     0
100
AcDbLine
 10
0.0
 20
0.0
 30
0.0
 11
0.0
 21
2.5000050664
 31
0.0
  0
LINE
  5
270
330
26C
100
AcDbEntity
  8
OPISY
 62
     0
100
AcDbLine
 10
0.0
 20
0.0
 30
0.0
 11
-2.4999976158
 21
0.0
 31
0.0
  0
LINE
  5
271
330
26C
100
AcDbEntity
  8
OPISY
 62
     0
100
AcDbLine
 10
0.0
 20
0.0
 30
0.0
 11
0.0
 21
-2.4999976158
 31
0.0
  0
LINE
  5
272
330
26C
100
AcDbEntity
  8
OPISY
 62
     0
100
AcDbLine
 10
0.0
 20
0.0
 30
0.0
 11
2.5000013411
 21
0.0
 31
0.0
  0
LINE
  5
273
330
26C
100
AcDbEntity
  8
OPISY
 62
     0
100
AcDbLine
 10
0.0
 20
5.0000026822
 30
0.0
 11
0.0
 21
5.5000036955
 31
0.0
  0
LINE
  5
274
330
26C
100
AcDbEntity
  8
OPISY
 62
     0
100
AcDbLine
 10
-4.9999989569
 20
0.0
 30
0.0
 11
-5.4999999702
 21
0.0
 31
0.0
  0
LINE
  5
275
330
26C
100
AcDbEntity
  8
OPISY
 62
     0
100
AcDbLine
 10
0.0
 20
-4.9999952316
 30
0.0
 11
0.0
 21
-5.4999962449
 31
0.0
  0
LINE
  5
276
330
26C
100
AcDbEntity
  8
OPISY
 62
     0
100
AcDbLine
 10
4.9999989569
 20
0.0
 30
0.0
 11
5.4999999702
 21
0.0
 31
0.0
  0
ENDBLK
  5
26E
330
26C
100
AcDbEntity
  8
0
100
AcDbBlockEnd
  0
BLOCK
  5
279
330
278
100
AcDbEntity
  8
0
100
AcDbBlockBegin
  2
SW_CENTERMARKSYMBOL_10
 70
     0
 10
0.0
 20
0.0
 30
0.0
  3
SW_CENTERMARKSYMBOL_10
  1

  0
LINE
  5
27B
330
278
100
AcDbEntity
  8
OPISY
 62
     0
100
AcDbLine
 10
0.0
 20
0.0
 30
0.0
 11
0.0
 21
2.5000050664
 31
0.0
  0
LINE
  5
27C
330
278
100
AcDbEntity
  8
OPISY
 62
     0
100
AcDbLine
 10
0.0
 20
0.0
 30
0.0
 11
-2.4999999441
 21
0.0
 31
0.0
  0
LINE
  5
27D
330
278
100
AcDbEntity
  8
OPISY
 62
     0
100
AcDbLine
 10
0.0
 20
0.0
 30
0.0
 11
0.0
 21
-2.4999976158
 31
0.0
  0
LINE
  5
27E
330
278
100
AcDbEntity
  8
OPISY
 62
     0
100
AcDbLine
 10
0.0
 20
0.0
 30
0.0
 11
2.4999999441
 21
0.0
 31
0.0
  0
LINE
  5
27F
330
278
100
AcDbEntity
  8
OPISY
 62
     0
100
AcDbLine
 10
0.0
 20
5.0000026822
 30
0.0
 11
0.0
 21
5.5000036955
 31
0.0
  0
LINE
  5
280
330
278
100
AcDbEntity
  8
OPISY
 62
     0
100
AcDbLine
 10
-4.9999998882
 20
0.0
 30
0.0
 11
-5.4999999702
 21
0.0
 31
0.0
  0
LINE
  5
281
330
278
100
AcDbEntity
  8
OPISY
 62
     0
100
AcDbLine
 10
0.0
 20
-4.9999952316
 30
0.0
 11
0.0
 21
-5.4999962449
 31
0.0
  0
LINE
  5
282
330
278
100
AcDbEntity
  8
OPISY
 62
     0
100
AcDbLine
 10
4.9999998882
 20
0.0
 30
0.0
 11
5.4999999702
 21
0.0
 31
0.0
  0
ENDBLK
  5
27A
330
278
100
AcDbEntity
  8
0
100
AcDbBlockEnd
  0
BLOCK
  5
285
330
284
100
AcDbEntity
  8
0
100
AcDbBlockBegin
  2
SW_CENTERMARKSYMBOL_11
 70
     0
 10
0.0
 20
0.0
 30
0.0
  3
SW_CENTERMARKSYMBOL_11
  1

  0
LINE
  5
287
330
284
100
AcDbEntity
  8
OPISY
 62
     0
100
AcDbLine
 10
0.0
 20
0.0
 30
0.0
 11
0.0
 21
2.5000050664
 31
0.0
  0
LINE
  5
288
330
284
100
AcDbEntity
  8
OPISY
 62
     0
100
AcDbLine
 10
0.0
 20
0.0
 30
0.0
 11
-2.5000013411
 21
0.0
 31
0.0
  0
LINE
  5
289
330
284
100
AcDbEntity
  8
OPISY
 62
     0
100
AcDbLine
 10
0.0
 20
0.0
 30
0.0
 11
0.0
 21
-2.4999976158
 31
0.0
  0
LINE
  5
28A
330
284
100
AcDbEntity
  8
OPISY
 62
     0
100
AcDbLine
 10
0.0
 20
0.0
 30
0.0
 11
2.4999976158
 21
0.0
 31
0.0
  0
LINE
  5
28B
330
284
100
AcDbEntity
  8
OPISY
 62
     0
100
AcDbLine
 10
0.0
 20
5.0000026822
 30
0.0
 11
0.0
 21
5.5000036955
 31
0.0
  0
LINE
  5
28C
330
284
100
AcDbEntity
  8
OPISY
 62
     0
100
AcDbLine
 10
-4.9999989569
 20
0.0
 30
0.0
 11
-5.4999999702
 21
0.0
 31
0.0
  0
LINE
  5
28D
330
284
100
AcDbEntity
  8
OPISY
 62
     0
100
AcDbLine
 10
0.0
 20
-4.9999952316
 30
0.0
 11
0.0
 21
-5.4999962449
 31
0.0
  0
LINE
  5
28E
330
284
100
AcDbEntity
  8
OPISY
 62
     0
100
AcDbLine
 10
4.9999989569
 20
0.0
 30
0.0
 11
5.4999999702
 21
0.0
 31
0.0
  0
ENDBLK
  5
286
330
284
100
AcDbEntity
  8
0
100
AcDbBlockEnd
  0
BLOCK
  5
2A5
330
2A4
100
AcDbEntity
  8
0
100
AcDbBlockBegin
  2
SW_HATCH_0
 70
     0
 10
0.0
 20
0.0
 30
0.0
  3
SW_HATCH_0
  1

  0
LINE
  5
2A7
330
2A4
100
AcDbEntity
  8
0
  6
CONTINUOUS
 62
     0
100
AcDbLine
 10
0.0
 20
0.0
 30
0.0
 11
2.6497831568
 21
2.6497831568
 31
0.0
  0
LINE
  5
2A8
330
2A4
100
AcDbEntity
  8
0
  6
CONTINUOUS
 62
     0
100
AcDbLine
 10
7.8128650784
 20
-5.6575182825
 30
0.0
 11
9.8161753267
 21
-3.6542089656
 31
0.0
  0
LINE
  5
2A9
330
2A4
100
AcDbEntity
  8
0
  6
CONTINUOUS
 62
     0
100
AcDbLine
 10
-1.0111816227
 20
-14.4815649837
 30
0.0
 11
2.8128651902
 21
-10.6575181708
 31
0.0
  0
LINE
  5
2AA
330
2A4
100
AcDbEntity
  8
0
  6
CONTINUOUS
 62
     0
100
AcDbLine
 10
-27.1871341392
 20
-0.2463655546
 30
0.0
 11
-24.3043983355
 21
2.6363702491
 31
0.0
  0
LINE
  5
2AB
330
2A4
100
AcDbEntity
  8
0
  6
CONTINUOUS
 62
     0
100
AcDbLine
 10
-33.2661699504
 20
-6.3254018314
 30
0.0
 11
-32.1871340275
 21
-5.2463654429
 31
0.0
  0
LINE
  5
2AC
330
2A4
100
AcDbEntity
  8
0
  6
CONTINUOUS
 62
     0
100
AcDbLine
 10
-27.1871341392
 20
-13.7167499197
 30
0.0
 11
-24.4859969243
 21
-11.015612632
 31
0.0
  0
LINE
  5
2AD
330
2A4
100
AcDbEntity
  8
0
  6
CONTINUOUS
 62
     0
100
AcDbLine
 10
-30.5989701301
 20
-17.1285851393
 30
0.0
 11
-27.8674717993
 21
-14.397086692
 31
0.0
  0
ENDBLK
  5
2A6
330
2A4
100
AcDbEntity
  8
0
100
AcDbBlockEnd
  0
BLOCK
  5
331
330
330
100
AcDbEntity
  8
0
100
AcDbBlockBegin
  2
*D26
 70
     1
 10
0.0
 20
0.0
 30
0.0
  3
*D26
  1

  0
SOLID
  5
333
330
330
100
AcDbEntity
  8
OPISY
100
AcDbTrace
 10
368.2306900959
 20
817.5352639676
 30
0.0
 11
369.7306900959
 21
829.5352639676
 31
0.0
 12
366.7306900959
 22
829.5352639676
 32
0.0
 13
366.7306900959
 23
829.5352639676
 33
0.0
  0
SOLID
  5
334
330
330
100
AcDbEntity
  8
OPISY
100
AcDbTrace
 10
368.2306900959
 20
808.3352639676
 30
0.0
 11
366.7306900959
 21
796.3352639676
 31
0.0
 12
369.7306900959
 22
796.3352639676
 32
0.0
 13
369.7306900959
 23
796.3352639676
 33
0.0
  0
LINE
  5
335
330
330
100
AcDbEntity
  8
OPISY
100
AcDbLine
 10
426.1229949413
 20
817.5352639676
 30
0.0
 11
366.7306900959
 21
817.5352639676
 31
0.0
  0
LINE
  5
336
330
330
100
AcDbEntity
  8
OPISY
100
AcDbLine
 10
418.3729949413
 20
808.3352639676
 30
0.0
 11
366.7306900959
 21
808.3352639676
 31
0.0
  0
LINE
  5
337
330
330
100
AcDbEntity
  8
OPISY
100
AcDbLine
 10
368.2306900959
 20
817.5352639676
 30
0.0
 11
368.2306900959
 21
835.5352639676
 31
0.0
  0
LINE
  5
338
330
330
100
AcDbEntity
  8
OPISY
100
AcDbLine
 10
368.2306900959
 20
817.5352639676
 30
0.0
 11
368.2306900959
 21
808.3352639676
 31
0.0
  0
LINE
  5
339
330
330
100
AcDbEntity
  8
OPISY
100
AcDbLine
 10
368.2306900959
 20
808.3352639676
 30
0.0
 11
368.2306900959
 21
766.9738631693
 31
0.0
  0
MTEXT
  5
33A
330
330
100
AcDbEntity
  8
OPISY
100
AcDbMText
 10
358.5626822222
 20
771.7363631693
 30
0.0
 40
7.5
 41
0.0
 71
     1
 72
     1
  1
9,2
  7
SLDTEXTSTYLE0
 11
-7.044195017643634E-15
 21
1.0
 31
0.0
  0
ENDBLK
  5
332
330
330
100
AcDbEntity
  8
0
100
AcDbBlockEnd
  0
BLOCK
  5
33D
330
33C
100
AcDbEntity
  8
0
100
AcDbBlockBegin
  2
*D27
 70
     1
 10
0.0
 20
0.0
 30
0.0
  3
*D27
  1

  0
SOLID
  5
33F
330
33C
100
AcDbEntity
  8
OPISY
100
AcDbTrace
 10
432.5229949413
 20
771.8352639676
 30
0.0
 11
420.5229949413
 21
773.3352639676
 31
0.0
 12
420.5229949413
 22
770.3352639676
 32
0.0
 13
420.5229949413
 23
770.3352639676
 33
0.0
  0
SOLID
  5
340
330
33C
100
AcDbEntity
  8
OPISY
100
AcDbTrace
 10
440.7229949413
 20
771.8352639676
 30
0.0
 11
452.7229949413
 21
770.3352639676
 31
0.0
 12
452.7229949413
 22
773.3352639676
 32
0.0
 13
452.7229949413
 23
773.3352639676
 33
0.0
  0
LINE
  5
341
330
33C
100
AcDbEntity
  8
OPISY
100
AcDbLine
 10
432.5229949413
 20
807.8352639676
 30
0.0
 11
432.5229949413
 21
770.3352639676
 31
0.0
  0
LINE
  5
342
330
33C
100
AcDbEntity
  8
OPISY
100
AcDbLine
 10
440.7229949413
 20
807.8352639676
 30
0.0
 11
440.7229949413
 21
770.3352639676
 31
0.0
  0
LINE
  5
343
330
33C
100
AcDbEntity
  8
OPISY
100
AcDbLine
 10
432.5229949413
 20
771.8352639676
 30
0.0
 11
414.5229949413
 21
771.8352639676
 31
0.0
  0
LINE
  5
344
330
33C
100
AcDbEntity
  8
OPISY
100
AcDbLine
 10
432.5229949413
 20
771.8352639676
 30
0.0
 11
440.7229949413
 21
771.8352639676
 31
0.0
  0
LINE
  5
345
330
33C
100
AcDbEntity
  8
OPISY
100
AcDbLine
 10
440.7229949413
 20
771.8352639676
 30
0.0
 11
482.0857491262
 21
771.8352639676
 31
0.0
  0
MTEXT
  5
346
330
33C
100
AcDbEntity
  8
OPISY
100
AcDbMText
 10
463.475496109
 20
781.5032718413
 30
0.0
 40
7.5
 41
0.0
 71
     1
 72
     1
  1
8,2
  7
SLDTEXTSTYLE0
  0
ENDBLK
  5
33E
330
33C
100
AcDbEntity
  8
0
100
AcDbBlockEnd
  0
BLOCK
  5
349
330
348
100
AcDbEntity
  8
0
100
AcDbBlockBegin
  2
*D28
 70
     1
 10
0.0
 20
0.0
 30
0.0
  3
*D28
  1

  0
SOLID
  5
34B
330
348
100
AcDbEntity
  8
OPISY
100
AcDbTrace
 10
427.6229949413
 20
753.8352639676
 30
0.0
 11
415.6229949413
 21
755.3352639676
 31
0.0
 12
415.6229949413
 22
752.3352639676
 32
0.0
 13
415.6229949413
 23
752.3352639676
 33
0.0
  0
SOLID
  5
34C
330
348
100
AcDbEntity
  8
OPISY
100
AcDbTrace
 10
445.6229949413
 20
753.8352639676
 30
0.0
 11
457.6229949413
 21
752.3352639676
 31
0.0
 12
457.6229949413
 22
755.3352639676
 32
0.0
 13
457.6229949413
 23
755.3352639676
 33
0.0
  0
LINE
  5
34D
330
348
100
AcDbEntity
  8
OPISY
100
AcDbLine
 10
427.6229949413
 20
812.3352639676
 30
0.0
 11
427.6229949413
 21
774.8352639676
 31
0.0
  0
LINE
  5
34E
330
348
100
AcDbEntity
  8
OPISY
100
AcDbLine
 10
427.6229949413
 20
768.8352639676
 30
0.0
 11
427.6229949413
 21
752.3352639676
 31
0.0
  0
LINE
  5
34F
330
348
100
AcDbEntity
  8
OPISY
100
AcDbLine
 10
445.6229949413
 20
812.3352639676
 30
0.0
 11
445.6229949413
 21
774.8352639676
 31
0.0
  0
LINE
  5
350
330
348
100
AcDbEntity
  8
OPISY
100
AcDbLine
 10
445.6229949413
 20
768.8352639676
 30
0.0
 11
445.6229949413
 21
752.3352639676
 31
0.0
  0
LINE
  5
351
330
348
100
AcDbEntity
  8
OPISY
100
AcDbLine
 10
427.6229949413
 20
753.8352639676
 30
0.0
 11
409.6229949413
 21
753.8352639676
 31
0.0
  0
LINE
  5
352
330
348
100
AcDbEntity
  8
OPISY
100
AcDbLine
 10
427.6229949413
 20
753.8352639676
 30
0.0
 11
445.6229949413
 21
753.8352639676
 31
0.0
  0
LINE
  5
353
330
348
100
AcDbEntity
  8
OPISY
100
AcDbLine
 10
445.6229949413
 20
753.8352639676
 30
0.0
 11
484.2172189573
 21
753.8352639676
 31
0.0
  0
MTEXT
  5
354
330
348
100
AcDbEntity
  8
OPISY
100
AcDbMText
 10
468.3784752073
 20
763.5032718413
 30
0.0
 40
7.5
 41
0.0
 71
     1
 72
     1
  1
18
  7
SLDTEXTSTYLE0
  0
ENDBLK
  5
34A
330
348
100
AcDbEntity
  8
0
100
AcDbBlockEnd
  0
BLOCK
  5
357
330
356
100
AcDbEntity
  8
0
100
AcDbBlockBegin
  2
*D29
 70
     1
 10
0.0
 20
0.0
 30
0.0
  3
*D29
  1

  0
SOLID
  5
359
330
356
100
AcDbEntity
  8
OPISY
100
AcDbTrace
 10
505.0152997867
 20
812.8352639676
 30
0.0
 11
506.5152997867
 21
824.8352639676
 31
0.0
 12
503.5152997867
 22
824.8352639676
 32
0.0
 13
503.5152997867
 23
824.8352639676
 33
0.0
  0
SOLID
  5
35A
330
356
100
AcDbEntity
  8
OPISY
100
AcDbTrace
 10
505.0152997867
 20
808.3352639676
 30
0.0
 11
503.5152997867
 21
796.3352639676
 31
0.0
 12
506.5152997867
 22
796.3352639676
 32
0.0
 13
506.5152997867
 23
796.3352639676
 33
0.0
  0
LINE
  5
35B
330
356
100
AcDbEntity
  8
OPISY
100
AcDbLine
 10
446.1229949413
 20
812.8352639676
 30
0.0
 11
506.5152997867
 21
812.8352639676
 31
0.0
  0
LINE
  5
35C
330
356
100
AcDbEntity
  8
OPISY
100
AcDbLine
 10
454.8729949413
 20
808.3352639676
 30
0.0
 11
506.5152997867
 21
808.3352639676
 31
0.0
  0
LINE
  5
35D
330
356
100
AcDbEntity
  8
OPISY
100
AcDbLine
 10
505.0152997867
 20
812.8352639676
 30
0.0
 11
505.0152997867
 21
830.8352639676
 31
0.0
  0
LINE
  5
35E
330
356
100
AcDbEntity
  8
OPISY
100
AcDbLine
 10
505.0152997867
 20
812.8352639676
 30
0.0
 11
505.0152997867
 21
808.3352639676
 31
0.0
  0
LINE
  5
35F
330
356
100
AcDbEntity
  8
OPISY
100
AcDbLine
 10
505.0152997867
 20
808.3352639676
 30
0.0
 11
505.0152997867
 21
766.9725097827
 31
0.0
  0
MTEXT
  5
360
330
356
100
AcDbEntity
  8
OPISY
100
AcDbMText
 10
495.347291913
 20
771.7350097827
 30
0.0
 40
7.5
 41
0.0
 71
     1
 72
     1
  1
4,5
  7
SLDTEXTSTYLE0
 11
-7.044195017643634E-15
 21
1.0
 31
0.0
  0
ENDBLK
  5
358
330
356
100
AcDbEntity
  8
0
100
AcDbBlockEnd
  0
BLOCK
  5
363
330
362
100
AcDbEntity
  8
0
100
AcDbBlockBegin
  2
*D30
 70
     1
 10
0.0
 20
0.0
 30
0.0
  3
*D30
  1

  0
SOLID
  5
365
330
362
100
AcDbEntity
  8
OPISY
100
AcDbTrace
 10
523.0152997867
 20
820.5352639676
 30
0.0
 11
524.5152997867
 21
832.5352639676
 31
0.0
 12
521.5152997867
 22
832.5352639676
 32
0.0
 13
521.5152997867
 23
832.5352639676
 33
0.0
  0
SOLID
  5
366
330
362
100
AcDbEntity
  8
OPISY
100
AcDbTrace
 10
523.0152997867
 20
812.8352639676
 30
0.0
 11
521.5152997867
 21
800.8352639676
 31
0.0
 12
524.5152997867
 22
800.8352639676
 32
0.0
 13
524.5152997867
 23
800.8352639676
 33
0.0
  0
LINE
  5
367
330
362
100
AcDbEntity
  8
OPISY
100
AcDbLine
 10
443.7087813789
 20
820.5352639676
 30
0.0
 11
502.0152997867
 21
820.5352639676
 31
0.0
  0
LINE
  5
368
330
362
100
AcDbEntity
  8
OPISY
100
AcDbLine
 10
508.0152997867
 20
820.5352639676
 30
0.0
 11
524.5152997867
 21
820.5352639676
 31
0.0
  0
LINE
  5
369
330
362
100
AcDbEntity
  8
OPISY
100
AcDbLine
 10
446.1229949413
 20
812.8352639676
 30
0.0
 11
524.5152997867
 21
812.8352639676
 31
0.0
  0
LINE
  5
36A
330
362
100
AcDbEntity
  8
OPISY
100
AcDbLine
 10
523.0152997867
 20
820.5352639676
 30
0.0
 11
523.0152997867
 21
838.5352639676
 31
0.0
  0
LINE
  5
36B
330
362
100
AcDbEntity
  8
OPISY
100
AcDbLine
 10
523.0152997867
 20
820.5352639676
 30
0.0
 11
523.0152997867
 21
812.8352639676
 31
0.0
  0
LINE
  5
36C
330
362
100
AcDbEntity
  8
OPISY
100
AcDbLine
 10
523.0152997867
 20
812.8352639676
 30
0.0
 11
523.0152997867
 21
771.4725097827
 31
0.0
  0
MTEXT
  5
36D
330
362
100
AcDbEntity
  8
OPISY
100
AcDbMText
 10
513.347291913
 20
776.2350097827
 30
0.0
 40
7.5
 41
0.0
 71
     1
 72
     1
  1
7,7
  7
SLDTEXTSTYLE0
 11
-7.044195017643634E-15
 21
1.0
 31
0.0
  0
ENDBLK
  5
364
330
362
100
AcDbEntity
  8
0
100
AcDbBlockEnd
  0
BLOCK
  5
371
330
370
100
AcDbEntity
  8
0
100
AcDbBlockBegin
  2
*D31
 70
     1
 10
0.0
 20
0.0
 30
0.0
  3
*D31
  1

  0
ARC
  5
373
330
370
100
AcDbEntity
  8
OPISY
100
AcDbCircle
 10
430.6229949413
 20
820.5352639676
 30
0.0
 40
62.82379144661027
100
AcDbArc
 50
0.0
 51
45.0
  0
SOLID
  5
374
330
370
100
AcDbEntity
  8
OPISY
100
AcDbTrace
 10
493.4467863879
 20
820.5352639676
 30
0.0
 11
493.8093703224
 21
832.623213872
 31
0.0
 12
490.8227185326
 22
832.3405283819
 32
0.0
 13
490.8227185326
 23
832.3405283819
 33
0.0
  0
SOLID
  5
375
330
370
100
AcDbEntity
  8
OPISY
100
AcDbTrace
 10
475.046123893
 20
864.9583929194
 30
0.0
 11
481.5382102393
 21
854.7553142236
 31
0.0
 12
483.8499807999
 22
856.6673071302
 32
0.0
 13
483.8499807999
 23
856.6673071302
 33
0.0
  0
LINE
  5
376
330
370
100
AcDbEntity
  8
OPISY
100
AcDbLine
 10
443.7087813789
 20
820.5352639676
 30
0.0
 11
494.9467863879
 21
820.5352639676
 31
0.0
  0
LINE
  5
377
330
370
100
AcDbEntity
  8
OPISY
100
AcDbLine
 10
431.3907618943
 20
821.3030309206
 30
0.0
 11
476.1067840648
 21
866.0190530911
 31
0.0
  0
MTEXT
  5
378
330
370
100
AcDbEntity
  8
OPISY
100
AcDbMText
 10
494.7109241029
 20
855.2435166995
 30
0.0
 40
7.5
 41
0.0
 71
     1
 72
     1
  1
45°
  7
SLDTEXTSTYLE0
 11
0.3826834323650949
 21
-0.9238795325112846
 31
0.0
  0
ENDBLK
  5
372
330
370
100
AcDbEntity
  8
0
100
AcDbBlockEnd
  0
BLOCK
  5
37A
330
379
100
AcDbEntity
  8
0
100
AcDbBlockBegin
  2
SW_CENTERMARKSYMBOL_12
 70
     0
 10
0.0
 20
0.0
 30
0.0
  3
SW_CENTERMARKSYMBOL_12
  1

  0
LINE
  5
37C
330
379
100
AcDbEntity
  8
OPISY
 62
     0
100
AcDbLine
 10
0.0
 20
0.0
 30
0.0
 11
0.0
 21
2.5
 31
0.0
  0
LINE
  5
37D
330
379
100
AcDbEntity
  8
OPISY
 62
     0
100
AcDbLine
 10
0.0
 20
0.0
 30
0.0
 11
-2.5
 21
0.0
 31
0.0
  0
LINE
  5
37E
330
379
100
AcDbEntity
  8
OPISY
 62
     0
100
AcDbLine
 10
0.0
 20
0.0
 30
0.0
 11
0.0
 21
-2.5
 31
0.0
  0
LINE
  5
37F
330
379
100
AcDbEntity
  8
OPISY
 62
     0
100
AcDbLine
 10
0.0
 20
0.0
 30
0.0
 11
2.5
 21
0.0
 31
0.0
  0
LINE
  5
380
330
379
100
AcDbEntity
  8
OPISY
 62
     0
100
AcDbLine
 10
0.0
 20
5.0
 30
0.0
 11
0.0
 21
6.5
 31
0.0
  0
LINE
  5
381
330
379
100
AcDbEntity
  8
OPISY
 62
     0
100
AcDbLine
 10
-5.0
 20
0.0
 30
0.0
 11
-6.5
 21
0.0
 31
0.0
  0
LINE
  5
382
330
379
100
AcDbEntity
  8
OPISY
 62
     0
100
AcDbLine
 10
0.0
 20
-5.0
 30
0.0
 11
0.0
 21
-6.5
 31
0.0
  0
LINE
  5
383
330
379
100
AcDbEntity
  8
OPISY
 62
     0
100
AcDbLine
 10
5.0
 20
0.0
 30
0.0
 11
6.5
 21
0.0
 31
0.0
  0
ENDBLK
  5
37B
330
379
100
AcDbEntity
  8
0
100
AcDbBlockEnd
  0
BLOCK
  5
386
330
385
100
AcDbEntity
  8
0
100
AcDbBlockBegin
  2
SW_CENTERMARKSYMBOL_13
 70
     0
 10
0.0
 20
0.0
 30
0.0
  3
SW_CENTERMARKSYMBOL_13
  1

  0
LINE
  5
388
330
385
100
AcDbEntity
  8
OPISY
 62
     0
100
AcDbLine
 10
0.0
 20
0.0
 30
0.0
 11
0.0
 21
2.5
 31
0.0
  0
LINE
  5
389
330
385
100
AcDbEntity
  8
OPISY
 62
     0
100
AcDbLine
 10
0.0
 20
0.0
 30
0.0
 11
-2.5
 21
0.0
 31
0.0
  0
LINE
  5
38A
330
385
100
AcDbEntity
  8
OPISY
 62
     0
100
AcDbLine
 10
0.0
 20
0.0
 30
0.0
 11
0.0
 21
-2.5
 31
0.0
  0
LINE
  5
38B
330
385
100
AcDbEntity
  8
OPISY
 62
     0
100
AcDbLine
 10
0.0
 20
0.0
 30
0.0
 11
2.5
 21
0.0
 31
0.0
  0
LINE
  5
38C
330
385
100
AcDbEntity
  8
OPISY
 62
     0
100
AcDbLine
 10
0.0
 20
5.0
 30
0.0
 11
0.0
 21
6.5
 31
0.0
  0
LINE
  5
38D
330
385
100
AcDbEntity
  8
OPISY
 62
     0
100
AcDbLine
 10
-5.0
 20
0.0
 30
0.0
 11
-6.5
 21
0.0
 31
0.0
  0
LINE
  5
38E
330
385
100
AcDbEntity
  8
OPISY
 62
     0
100
AcDbLine
 10
0.0
 20
-5.0
 30
0.0
 11
0.0
 21
-6.5
 31
0.0
  0
LINE
  5
38F
330
385
100
AcDbEntity
  8
OPISY
 62
     0
100
AcDbLine
 10
5.0
 20
0.0
 30
0.0
 11
6.5
 21
0.0
 31
0.0
  0
ENDBLK
  5
387
330
385
100
AcDbEntity
  8
0
100
AcDbBlockEnd
  0
BLOCK
  5
394
330
393
100
AcDbEntity
  8
0
100
AcDbBlockBegin
  2
SW_BROKEN_VIEW_1
 70
     0
 10
0.0
 20
0.0
 30
0.0
  3
SW_BROKEN_VIEW_1
  1

  0
ENDBLK
  5
395
330
393
100
AcDbEntity
  8
0
100
AcDbBlockEnd
  0
BLOCK
  5
401
330
400
100
AcDbEntity
  8
0
100
AcDbBlockBegin
  2
*D35
 70
     1
 10
0.0
 20
0.0
 30
0.0
  3
*D35
  1

  0
SOLID
  5
403
330
400
100
AcDbEntity
  8
OPISY
100
AcDbTrace
 10
172.6749810105
 20
304.3743925707
 30
0.0
 11
160.6749810105
 21
305.8743925707
 31
0.0
 12
160.6749810105
 22
302.8743925707
 32
0.0
 13
160.6749810105
 23
302.8743925707
 33
0.0
  0
SOLID
  5
404
330
400
100
AcDbEntity
  8
OPISY
100
AcDbTrace
 10
189.6749810105
 20
304.3743925707
 30
0.0
 11
201.6749810105
 21
302.8743925707
 31
0.0
 12
201.6749810105
 22
305.8743925707
 32
0.0
 13
201.6749810105
 23
305.8743925707
 33
0.0
  0
LINE
  5
405
330
400
100
AcDbEntity
  8
OPISY
100
AcDbLine
 10
172.6749810105
 20
341.8743925707
 30
0.0
 11
172.6749810105
 21
302.8743925707
 31
0.0
  0
LINE
  5
406
330
400
100
AcDbEntity
  8
OPISY
100
AcDbLine
 10
189.6749810105
 20
341.8743925707
 30
0.0
 11
189.6749810105
 21
325.3743925707
 31
0.0
  0
LINE
  5
407
330
400
100
AcDbEntity
  8
OPISY
100
AcDbLine
 10
189.6749810105
 20
319.3743925707
 30
0.0
 11
189.6749810105
 21
302.8743925707
 31
0.0
  0
LINE
  5
408
330
400
100
AcDbEntity
  8
OPISY
100
AcDbLine
 10
172.6749810105
 20
304.3743925707
 30
0.0
 11
154.6749810105
 21
304.3743925707
 31
0.0
  0
LINE
  5
409
330
400
100
AcDbEntity
  8
OPISY
100
AcDbLine
 10
172.6749810105
 20
304.3743925707
 30
0.0
 11
189.6749810105
 21
304.3743925707
 31
0.0
  0
LINE
  5
40A
330
400
100
AcDbEntity
  8
OPISY
100
AcDbLine
 10
189.6749810105
 20
304.3743925707
 30
0.0
 11
227.3199569547
 21
304.3743925707
 31
0.0
  0
MTEXT
  5
40B
330
400
100
AcDbEntity
  8
OPISY
100
AcDbMText
 10
211.4812132047
 20
314.0424004444
 30
0.0
 40
7.5
 41
0.0
 71
     1
 72
     1
  1
17
  7
SLDTEXTSTYLE0
  0
ENDBLK
  5
402
330
400
100
AcDbEntity
  8
0
100
AcDbBlockEnd
  0
BLOCK
  5
40E
330
40D
100
AcDbEntity
  8
0
100
AcDbBlockBegin
  2
*D36
 70
     1
 10
0.0
 20
0.0
 30
0.0
  3
*D36
  1

  0
SOLID
  5
410
330
40D
100
AcDbEntity
  8
OPISY
100
AcDbTrace
 10
155.1749810105
 20
409.8170566614
 30
0.0
 11
143.1749810105
 21
411.3170566614
 31
0.0
 12
143.1749810105
 22
408.3170566614
 32
0.0
 13
143.1749810105
 23
408.3170566614
 33
0.0
  0
SOLID
  5
411
330
40D
100
AcDbEntity
  8
OPISY
100
AcDbTrace
 10
162.4249810105
 20
409.8170566614
 30
0.0
 11
174.4249810105
 21
408.3170566614
 31
0.0
 12
174.4249810105
 22
411.3170566614
 32
0.0
 13
174.4249810105
 23
411.3170566614
 33
0.0
  0
LINE
  5
412
330
40D
100
AcDbEntity
  8
OPISY
100
AcDbLine
 10
155.1749810105
 20
425.4587018117
 30
0.0
 11
155.1749810105
 21
408.3170566614
 31
0.0
  0
LINE
  5
413
330
40D
100
AcDbEntity
  8
OPISY
100
AcDbLine
 10
162.4249810105
 20
481.4587018117
 30
0.0
 11
162.4249810105
 21
408.3170566614
 31
0.0
  0
LINE
  5
414
330
40D
100
AcDbEntity
  8
OPISY
100
AcDbLine
 10
155.1749810105
 20
409.8170566614
 30
0.0
 11
116.1396154758
 21
409.8170566614
 31
0.0
  0
LINE
  5
415
330
40D
100
AcDbEntity
  8
OPISY
100
AcDbLine
 10
155.1749810105
 20
409.8170566614
 30
0.0
 11
162.4249810105
 21
409.8170566614
 31
0.0
  0
LINE
  5
416
330
40D
100
AcDbEntity
  8
OPISY
100
AcDbLine
 10
162.4249810105
 20
409.8170566614
 30
0.0
 11
180.4249810105
 21
409.8170566614
 31
0.0
  0
MTEXT
  5
417
330
40D
100
AcDbEntity
  8
OPISY
100
AcDbMText
 10
120.9021154758
 20
419.4850645351
 30
0.0
 40
7.5
 41
0.0
 71
     1
 72
     1
  1
7,25
  7
SLDTEXTSTYLE0
  0
ENDBLK
  5
40F
330
40D
100
AcDbEntity
  8
0
100
AcDbBlockEnd
  0
BLOCK
  5
41A
330
419
100
AcDbEntity
  8
0
100
AcDbBlockBegin
  2
*D37
 70
     1
 10
0.0
 20
0.0
 30
0.0
  3
*D37
  1

  0
SOLID
  5
41C
330
419
100
AcDbEntity
  8
OPISY
100
AcDbTrace
 10
135.6749810105
 20
489.4587018117
 30
0.0
 11
134.1749810105
 21
477.4587018117
 31
0.0
 12
137.1749810105
 22
477.4587018117
 32
0.0
 13
137.1749810105
 23
477.4587018117
 33
0.0
  0
SOLID
  5
41D
330
419
100
AcDbEntity
  8
OPISY
100
AcDbTrace
 10
135.6749810105
 20
449.4587018117
 30
0.0
 11
137.1749810105
 21
461.4587018117
 31
0.0
 12
134.1749810105
 22
461.4587018117
 32
0.0
 13
134.1749810105
 23
461.4587018117
 33
0.0
  0
LINE
  5
41E
330
419
100
AcDbEntity
  8
OPISY
100
AcDbLine
 10
154.4249810105
 20
489.4587018117
 30
0.0
 11
134.1749810105
 21
489.4587018117
 31
0.0
  0
LINE
  5
41F
330
419
100
AcDbEntity
  8
OPISY
100
AcDbLine
 10
154.4249810105
 20
449.4587018117
 30
0.0
 11
134.1749810105
 21
449.4587018117
 31
0.0
  0
LINE
  5
420
330
419
100
AcDbEntity
  8
OPISY
100
AcDbLine
 10
135.6749810105
 20
489.4587018117
 30
0.0
 11
135.6749810105
 21
449.4587018117
 31
0.0
  0
MTEXT
  5
421
330
419
100
AcDbEntity
  8
OPISY
100
AcDbMText
 10
126.0069731368
 20
463.9205799367
 30
0.0
 40
7.5
 41
0.0
 71
     1
 72
     1
  1
40
  7
SLDTEXTSTYLE0
 11
-7.044195017643634E-15
 21
1.0
 31
0.0
  0
ENDBLK
  5
41B
330
419
100
AcDbEntity
  8
0
100
AcDbBlockEnd
  0
BLOCK
  5
424
330
423
100
AcDbEntity
  8
0
100
AcDbBlockBegin
  2
*D38
 70
     1
 10
0.0
 20
0.0
 30
0.0
  3
*D38
  1

  0
SOLID
  5
426
330
423
100
AcDbEntity
  8
OPISY
100
AcDbTrace
 10
165.5490982314
 20
486.9607243119
 30
0.0
 11
173.9847083319
 21
478.2952478545
 31
0.0
 12
175.8581914568
 22
480.6383357702
 32
0.0
 13
175.8581914568
 23
480.6383357702
 33
0.0
  0
SOLID
  5
427
330
423
100
AcDbEntity
  8
OPISY
100
AcDbTrace
 10
159.3008637895
 20
491.9566793116
 30
0.0
 11
150.8652536891
 21
500.6221557689
 31
0.0
 12
148.9917705642
 22
498.2790678532
 32
0.0
 13
148.9917705642
 23
498.2790678532
 33
0.0
  0
LINE
  5
428
330
423
100
AcDbEntity
  8
OPISY
100
AcDbLine
 10
159.3008637895
 20
491.9566793116
 30
0.0
 11
116.3280054175
 21
526.3168603563
 31
0.0
  0
LINE
  5
429
330
423
100
AcDbEntity
  8
OPISY
100
AcDbLine
 10
165.5490982314
 20
486.9607243119
 30
0.0
 11
179.6076257258
 21
475.7198255626
 31
0.0
  0
LINE
  5
42A
330
423
100
AcDbEntity
  8
OPISY
100
AcDbLine
 10
159.3008637895
 20
491.9566793116
 30
0.0
 11
165.5490982314
 21
486.9607243119
 31
0.0
  0
MTEXT
  5
42C
330
423
100
AcDbEntity
  8
OPISY
100
AcDbMText
 10
126.0436226213
 20
530.8416116879
 30
0.0
 40
7.5
 41
0.0
 71
     1
 72
     1
  1
2 x M
  7
SLDTEXTSTYLE4
 11
0.781029305240327
 21
-0.6244943749593044
 31
0.0
  0
MTEXT
  5
42D
330
423
100
AcDbEntity
  8
OPISY
100
AcDbMText
 10
145.6247275368
 20
515.1849778161
 30
0.0
 40
7.5
 41
0.0
 71
     1
 72
     1
  1
8
  7
SLDTEXTSTYLE0
 11
0.781029305240327
 21
-0.6244943749593044
 31
0.0
  0
ENDBLK
  5
425
330
423
100
AcDbEntity
  8
0
100
AcDbBlockEnd
  0
BLOCK
  5
430
330
42F
100
AcDbEntity
  8
0
100
AcDbBlockBegin
  2
*D39
 70
     1
 10
0.0
 20
0.0
 30
0.0
  3
*D39
  1

  0
SOLID
  5
432
330
42F
100
AcDbEntity
  8
OPISY
100
AcDbTrace
 10
155.1749810105
 20
322.3743925707
 30
0.0
 11
143.1749810105
 21
323.8743925707
 31
0.0
 12
143.1749810105
 22
320.8743925707
 32
0.0
 13
143.1749810105
 23
320.8743925707
 33
0.0
  0
SOLID
  5
433
330
42F
100
AcDbEntity
  8
OPISY
100
AcDbTrace
 10
172.6749810105
 20
322.3743925707
 30
0.0
 11
184.6749810105
 21
320.8743925707
 31
0.0
 12
184.6749810105
 22
323.8743925707
 32
0.0
 13
184.6749810105
 23
323.8743925707
 33
0.0
  0
LINE
  5
434
330
42F
100
AcDbEntity
  8
OPISY
100
AcDbLine
 10
155.1749810105
 20
425.4587018117
 30
0.0
 11
155.1749810105
 21
320.8743925707
 31
0.0
  0
LINE
  5
435
330
42F
100
AcDbEntity
  8
OPISY
100
AcDbLine
 10
172.6749810105
 20
341.8743925707
 30
0.0
 11
172.6749810105
 21
320.8743925707
 31
0.0
  0
LINE
  5
436
330
42F
100
AcDbEntity
  8
OPISY
100
AcDbLine
 10
155.1749810105
 20
322.3743925707
 30
0.0
 11
109.840906382
 21
322.3743925707
 31
0.0
  0
LINE
  5
437
330
42F
100
AcDbEntity
  8
OPISY
100
AcDbLine
 10
155.1749810105
 20
322.3743925707
 30
0.0
 11
172.6749810105
 21
322.3743925707
 31
0.0
  0
LINE
  5
438
330
42F
100
AcDbEntity
  8
OPISY
100
AcDbLine
 10
172.6749810105
 20
322.3743925707
 30
0.0
 11
190.6749810105
 21
322.3743925707
 31
0.0
  0
MTEXT
  5
439
330
42F
100
AcDbEntity
  8
OPISY
100
AcDbMText
 10
114.603406382
 20
332.0424004444
 30
0.0
 40
7.5
 41
0.0
 71
     1
 72
     1
  1
17,5
  7
SLDTEXTSTYLE0
  0
ENDBLK
  5
431
330
42F
100
AcDbEntity
  8
0
100
AcDbBlockEnd
  0
BLOCK
  5
43B
330
43A
100
AcDbEntity
  8
0
100
AcDbBlockBegin
  2
SW_CENTERMARKSYMBOL_14
 70
     0
 10
0.0
 20
0.0
 30
0.0
  3
SW_CENTERMARKSYMBOL_14
  1

  0
LINE
  5
43D
330
43A
100
AcDbEntity
  8
OPISY
 62
     0
100
AcDbLine
 10
0.0
 20
0.0
 30
0.0
 11
0.0
 21
2.5000013411
 31
0.0
  0
LINE
  5
43E
330
43A
100
AcDbEntity
  8
OPISY
 62
     0
100
AcDbLine
 10
0.0
 20
0.0
 30
0.0
 11
-2.4999994785
 21
0.0
 31
0.0
  0
LINE
  5
43F
330
43A
100
AcDbEntity
  8
OPISY
 62
     0
100
AcDbLine
 10
0.0
 20
0.0
 30
0.0
 11
0.0
 21
-2.4999976158
 31
0.0
  0
LINE
  5
440
330
43A
100
AcDbEntity
  8
OPISY
 62
     0
100
AcDbLine
 10
0.0
 20
0.0
 30
0.0
 11
2.5000004098
 21
0.0
 31
0.0
  0
LINE
  5
441
330
43A
100
AcDbEntity
  8
OPISY
 62
     0
100
AcDbLine
 10
0.0
 20
5.0000026822
 30
0.0
 11
0.0
 21
6.5000019968
 31
0.0
  0
LINE
  5
442
330
43A
100
AcDbEntity
  8
OPISY
 62
     0
100
AcDbLine
 10
-4.9999989569
 20
0.0
 30
0.0
 11
-6.5000001341
 21
0.0
 31
0.0
  0
LINE
  5
443
330
43A
100
AcDbEntity
  8
OPISY
 62
     0
100
AcDbLine
 10
0.0
 20
-4.9999989569
 30
0.0
 11
0.0
 21
-6.4999982715
 31
0.0
  0
LINE
  5
444
330
43A
100
AcDbEntity
  8
OPISY
 62
     0
100
AcDbLine
 10
5.0000008196
 20
0.0
 30
0.0
 11
6.5000001341
 21
0.0
 31
0.0
  0
ENDBLK
  5
43C
330
43A
100
AcDbEntity
  8
0
100
AcDbBlockEnd
  0
BLOCK
  5
447
330
446
100
AcDbEntity
  8
0
100
AcDbBlockBegin
  2
SW_CENTERMARKSYMBOL_15
 70
     0
 10
0.0
 20
0.0
 30
0.0
  3
SW_CENTERMARKSYMBOL_15
  1

  0
LINE
  5
449
330
446
100
AcDbEntity
  8
OPISY
 62
     0
100
AcDbLine
 10
0.0
 20
0.0
 30
0.0
 11
0.0
 21
2.5000004098
 31
0.0
  0
LINE
  5
44A
330
446
100
AcDbEntity
  8
OPISY
 62
     0
100
AcDbLine
 10
0.0
 20
0.0
 30
0.0
 11
-2.4999994785
 21
0.0
 31
0.0
  0
LINE
  5
44B
330
446
100
AcDbEntity
  8
OPISY
 62
     0
100
AcDbLine
 10
0.0
 20
0.0
 30
0.0
 11
0.0
 21
-2.5000004098
 31
0.0
  0
LINE
  5
44C
330
446
100
AcDbEntity
  8
OPISY
 62
     0
100
AcDbLine
 10
0.0
 20
0.0
 30
0.0
 11
2.5000004098
 21
0.0
 31
0.0
  0
LINE
  5
44D
330
446
100
AcDbEntity
  8
OPISY
 62
     0
100
AcDbLine
 10
0.0
 20
4.9999998882
 30
0.0
 11
0.0
 21
6.5000001341
 31
0.0
  0
LINE
  5
44E
330
446
100
AcDbEntity
  8
OPISY
 62
     0
100
AcDbLine
 10
-4.9999989569
 20
0.0
 30
0.0
 11
-6.5000001341
 21
0.0
 31
0.0
  0
LINE
  5
44F
330
446
100
AcDbEntity
  8
OPISY
 62
     0
100
AcDbLine
 10
0.0
 20
-5.0000008196
 30
0.0
 11
0.0
 21
-6.5000001341
 31
0.0
  0
LINE
  5
450
330
446
100
AcDbEntity
  8
OPISY
 62
     0
100
AcDbLine
 10
5.0000008196
 20
0.0
 30
0.0
 11
6.5000001341
 21
0.0
 31
0.0
  0
ENDBLK
  5
448
330
446
100
AcDbEntity
  8
0
100
AcDbBlockEnd
  0
BLOCK
  5
500
330
4FF
100
AcDbEntity
  8
0
100
AcDbBlockBegin
  2
*D42
 70
     1
 10
0.0
 20
0.0
 30
0.0
  3
*D42
  1

  0
SOLID
  5
502
330
4FF
100
AcDbEntity
  8
OPISY
100
AcDbTrace
 10
505.0152997867
 20
237.7369411775
 30
0.0
 11
506.5152997867
 21
249.7369411775
 31
0.0
 12
503.5152997867
 22
249.7369411775
 32
0.0
 13
503.5152997867
 23
249.7369411775
 33
0.0
  0
SOLID
  5
503
330
4FF
100
AcDbEntity
  8
OPISY
100
AcDbTrace
 10
505.0152997867
 20
230.4869411775
 30
0.0
 11
503.5152997867
 21
218.4869411775
 31
0.0
 12
506.5152997867
 22
218.4869411775
 32
0.0
 13
506.5152997867
 23
218.4869411775
 33
0.0
  0
LINE
  5
504
330
4FF
100
AcDbEntity
  8
OPISY
100
AcDbLine
 10
461.1479949413
 20
237.7369411775
 30
0.0
 11
506.5152997867
 21
237.7369411775
 31
0.0
  0
LINE
  5
505
330
4FF
100
AcDbEntity
  8
OPISY
100
AcDbLine
 10
478.1229949413
 20
230.4869411775
 30
0.0
 11
506.5152997867
 21
230.4869411775
 31
0.0
  0
LINE
  5
506
330
4FF
100
AcDbEntity
  8
OPISY
100
AcDbLine
 10
505.0152997867
 20
237.7369411775
 30
0.0
 11
505.0152997867
 21
269.1529044572
 31
0.0
  0
LINE
  5
507
330
4FF
100
AcDbEntity
  8
OPISY
100
AcDbLine
 10
505.0152997867
 20
237.7369411775
 30
0.0
 11
505.0152997867
 21
230.4869411775
 31
0.0
  0
LINE
  5
508
330
4FF
100
AcDbEntity
  8
OPISY
100
AcDbLine
 10
505.0152997867
 20
230.4869411775
 30
0.0
 11
505.0152997867
 21
212.4869411775
 31
0.0
  0
MTEXT
  5
509
330
4FF
100
AcDbEntity
  8
OPISY
100
AcDbMText
 10
495.347291913
 20
250.5426514399
 30
0.0
 40
7.5
 41
0.0
 71
     1
 72
     1
  1
7,3
  7
SLDTEXTSTYLE0
 11
-7.044195017643634E-15
 21
1.0
 31
0.0
  0
ENDBLK
  5
501
330
4FF
100
AcDbEntity
  8
0
100
AcDbBlockEnd
  0
BLOCK
  5
50C
330
50B
100
AcDbEntity
  8
0
100
AcDbBlockBegin
  2
*D43
 70
     1
 10
0.0
 20
0.0
 30
0.0
  3
*D43
  1

  0
SOLID
  5
50E
330
50B
100
AcDbEntity
  8
OPISY
100
AcDbTrace
 10
419.1229949413
 20
210.9869411775
 30
0.0
 11
407.1229949413
 21
212.4869411775
 31
0.0
 12
407.1229949413
 22
209.4869411775
 32
0.0
 13
407.1229949413
 23
209.4869411775
 33
0.0
  0
SOLID
  5
50F
330
50B
100
AcDbEntity
  8
OPISY
100
AcDbTrace
 10
454.1229949413
 20
210.9869411775
 30
0.0
 11
466.1229949413
 21
209.4869411775
 31
0.0
 12
466.1229949413
 22
212.4869411775
 32
0.0
 13
466.1229949413
 23
212.4869411775
 33
0.0
  0
LINE
  5
510
330
50B
100
AcDbEntity
  8
OPISY
100
AcDbLine
 10
419.1229949413
 20
230.7119411775
 30
0.0
 11
419.1229949413
 21
209.4869411775
 31
0.0
  0
LINE
  5
511
330
50B
100
AcDbEntity
  8
OPISY
100
AcDbLine
 10
454.1229949413
 20
230.7119411775
 30
0.0
 11
454.1229949413
 21
209.4869411775
 31
0.0
  0
LINE
  5
512
330
50B
100
AcDbEntity
  8
OPISY
100
AcDbLine
 10
419.1229949413
 20
210.9869411775
 30
0.0
 11
401.1229949413
 21
210.9869411775
 31
0.0
  0
LINE
  5
513
330
50B
100
AcDbEntity
  8
OPISY
100
AcDbLine
 10
419.1229949413
 20
210.9869411775
 30
0.0
 11
454.1229949413
 21
210.9869411775
 31
0.0
  0
LINE
  5
514
330
50B
100
AcDbEntity
  8
OPISY
100
AcDbLine
 10
454.1229949413
 20
210.9869411775
 30
0.0
 11
472.1229949413
 21
210.9869411775
 31
0.0
  0
MTEXT
  5
515
330
50B
100
AcDbEntity
  8
OPISY
100
AcDbMText
 10
431.0848730663
 20
220.6549490512
 30
0.0
 40
7.5
 41
0.0
 71
     1
 72
     1
  1
35
  7
SLDTEXTSTYLE0
  0
ENDBLK
  5
50D
330
50B
100
AcDbEntity
  8
0
100
AcDbBlockEnd
  0
BLOCK
  5
517
330
516
100
AcDbEntity
  8
0
100
AcDbBlockBegin
  2
SW_CENTERMARKSYMBOL_16
 70
     0
 10
0.0
 20
0.0
 30
0.0
  3
SW_CENTERMARKSYMBOL_16
  1

  0
LINE
  5
519
330
516
100
AcDbEntity
  8
OPISY
 62
     0
100
AcDbLine
 10
0.0
 20
0.0
 30
0.0
 11
0.0
 21
2.5
 31
0.0
  0
LINE
  5
51A
330
516
100
AcDbEntity
  8
OPISY
 62
     0
100
AcDbLine
 10
0.0
 20
0.0
 30
0.0
 11
-2.5
 21
0.0
 31
0.0
  0
LINE
  5
51B
330
516
100
AcDbEntity
  8
OPISY
 62
     0
100
AcDbLine
 10
0.0
 20
0.0
 30
0.0
 11
0.0
 21
-2.5
 31
0.0
  0
LINE
  5
51C
330
516
100
AcDbEntity
  8
OPISY
 62
     0
100
AcDbLine
 10
0.0
 20
0.0
 30
0.0
 11
2.5
 21
0.0
 31
0.0
  0
LINE
  5
51D
330
516
100
AcDbEntity
  8
OPISY
 62
     0
100
AcDbLine
 10
0.0
 20
5.0
 30
0.0
 11
0.0
 21
5.525
 31
0.0
  0
LINE
  5
51E
330
516
100
AcDbEntity
  8
OPISY
 62
     0
100
AcDbLine
 10
-5.0
 20
0.0
 30
0.0
 11
-5.525
 21
0.0
 31
0.0
  0
LINE
  5
51F
330
516
100
AcDbEntity
  8
OPISY
 62
     0
100
AcDbLine
 10
0.0
 20
-5.0
 30
0.0
 11
0.0
 21
-5.525
 31
0.0
  0
LINE
  5
520
330
516
100
AcDbEntity
  8
OPISY
 62
     0
100
AcDbLine
 10
5.0
 20
0.0
 30
0.0
 11
5.525
 21
0.0
 31
0.0
  0
ENDBLK
  5
518
330
516
100
AcDbEntity
  8
0
100
AcDbBlockEnd
  0
BLOCK
  5
523
330
522
100
AcDbEntity
  8
0
100
AcDbBlockBegin
  2
SW_CENTERMARKSYMBOL_17
 70
     0
 10
0.0
 20
0.0
 30
0.0
  3
SW_CENTERMARKSYMBOL_17
  1

  0
LINE
  5
525
330
522
100
AcDbEntity
  8
OPISY
 62
     0
100
AcDbLine
 10
0.0
 20
0.0
 30
0.0
 11
0.0
 21
2.5
 31
0.0
  0
LINE
  5
526
330
522
100
AcDbEntity
  8
OPISY
 62
     0
100
AcDbLine
 10
0.0
 20
0.0
 30
0.0
 11
-2.5
 21
0.0
 31
0.0
  0
LINE
  5
527
330
522
100
AcDbEntity
  8
OPISY
 62
     0
100
AcDbLine
 10
0.0
 20
0.0
 30
0.0
 11
0.0
 21
-2.5
 31
0.0
  0
LINE
  5
528
330
522
100
AcDbEntity
  8
OPISY
 62
     0
100
AcDbLine
 10
0.0
 20
0.0
 30
0.0
 11
2.5
 21
0.0
 31
0.0
  0
LINE
  5
529
330
522
100
AcDbEntity
  8
OPISY
 62
     0
100
AcDbLine
 10
0.0
 20
5.0
 30
0.0
 11
0.0
 21
5.525
 31
0.0
  0
LINE
  5
52A
330
522
100
AcDbEntity
  8
OPISY
 62
     0
100
AcDbLine
 10
-5.0
 20
0.0
 30
0.0
 11
-5.525
 21
0.0
 31
0.0
  0
LINE
  5
52B
330
522
100
AcDbEntity
  8
OPISY
 62
     0
100
AcDbLine
 10
0.0
 20
-5.0
 30
0.0
 11
0.0
 21
-5.525
 31
0.0
  0
LINE
  5
52C
330
522
100
AcDbEntity
  8
OPISY
 62
     0
100
AcDbLine
 10
5.0
 20
0.0
 30
0.0
 11
5.525
 21
0.0
 31
0.0
  0
ENDBLK
  5
524
330
522
100
AcDbEntity
  8
0
100
AcDbBlockEnd
  0
ENDSEC
  0
SECTION
  2
ENTITIES
  0
LINE
  5
42
330
1F
100
AcDbEntity
  8
0
  6
CONTINUOUS
 62
   218
100
AcDbLine
 10
615.3818367987
 20
135.0
 30
0.0
 11
75.3818367987
 21
135.0
 31
0.0
  0
LINE
  5
43
330
1F
100
AcDbEntity
  8
0
  6
CONTINUOUS
 62
     7
100
AcDbLine
 10
45.0
 20
15.0
 30
0.0
 11
615.0
 21
15.0
 31
0.0
  0
LINE
  5
44
330
1F
100
AcDbEntity
  8
0
  6
CONTINUOUS
 62
     7
100
AcDbLine
 10
615.3818367987
 20
105.0
 30
0.0
 11
75.3818367987
 21
105.0
 31
0.0
  0
LINE
  5
45
330
1F
100
AcDbEntity
  8
0
  6
CONTINUOUS
 62
   218
100
AcDbLine
 10
75.3818367987
 20
15.0
 30
0.0
 11
75.3818367987
 21
135.0
 31
0.0
  0
LINE
  5
46
330
1F
100
AcDbEntity
  8
0
  6
CONTINUOUS
 62
   218
100
AcDbLine
 10
615.0
 20
60.0
 30
0.0
 11
75.0
 21
60.0
 31
0.0
  0
LINE
  5
47
330
1F
100
AcDbEntity
  8
0
  6
CONTINUOUS
 62
     7
100
AcDbLine
 10
108.0346241716
 20
135.0
 30
0.0
 11
108.0346241716
 21
105.0
 31
0.0
  0
LINE
  5
48
330
1F
100
AcDbEntity
  8
0
  6
CONTINUOUS
 62
     7
100
AcDbLine
 10
435.3818367987
 20
91.400659683
 30
0.0
 11
615.3818367987
 21
91.400659683
 31
0.0
  0
LINE
  5
49
330
1F
100
AcDbEntity
  8
0
  6
CONTINUOUS
 62
     7
100
AcDbLine
 10
435.3818367987
 20
124.647861254
 30
0.0
 11
182.8242531362
 21
124.647861254
 31
0.0
  0
LINE
  5
4A
330
1F
100
AcDbEntity
  8
0
  6
CONTINUOUS
 62
     7
100
AcDbLine
 10
435.3818367987
 20
75.74419118
 30
0.0
 11
615.3818367987
 21
75.74419118
 31
0.0
  0
LINE
  5
4B
330
1F
100
AcDbEntity
  8
0
  6
CONTINUOUS
 62
   218
100
AcDbLine
 10
435.3818367987
 20
15.0
 30
0.0
 11
435.3818367987
 21
135.0
 31
0.0
  0
LINE
  5
4C
330
1F
100
AcDbEntity
  8
0
  6
CONTINUOUS
 62
     7
100
AcDbLine
 10
435.3818367987
 20
114.4170637516
 30
0.0
 11
182.8242531362
 21
114.4170637516
 31
0.0
  0
LINE
  5
4D
330
1F
100
AcDbEntity
  8
0
  6
CONTINUOUS
 62
     7
100
AcDbLine
 10
182.8242531362
 20
135.0
 30
0.0
 11
182.8242531362
 21
15.0
 31
0.0
  0
LINE
  5
4E
330
1F
100
AcDbEntity
  8
0
  6
CONTINUOUS
 62
     7
100
AcDbLine
 10
485.0704979236
 20
105.0
 30
0.0
 11
485.0704979236
 21
15.0
 31
0.0
  0
LINE
  5
4F
330
1F
100
AcDbEntity
  8
0
  6
CONTINUOUS
 62
     7
100
AcDbLine
 10
354.7999090028
 20
60.0
 30
0.0
 11
354.7999090028
 21
15.0
 31
0.0
  0
LINE
  5
50
330
1F
100
AcDbEntity
  8
0
  6
CONTINUOUS
 62
     7
100
AcDbLine
 10
392.0608851711
 20
60.0
 30
0.0
 11
392.0608851711
 21
15.0
 31
0.0
  0
LINE
  5
51
330
1F
100
AcDbEntity
  8
0
  6
CONTINUOUS
 62
     7
100
AcDbLine
 10
374.6389727308
 20
105.0
 30
0.0
 11
374.6389727308
 21
60.0
 31
0.0
  0
LINE
  5
52
330
1F
100
AcDbEntity
  8
0
  6
CONTINUOUS
 62
     7
100
AcDbLine
 10
286.9190303393
 20
105.0
 30
0.0
 11
286.9190303393
 21
60.0
 31
0.0
  0
LINE
  5
53
330
1F
100
AcDbEntity
  8
0
  6
CONTINUOUS
 62
     7
100
AcDbLine
 10
380.3094205314
 20
105.0
 30
0.0
 11
380.3094205314
 21
135.0
 31
0.0
  0
LINE
  5
54
330
1F
100
AcDbEntity
  8
0
  6
CONTINUOUS
 62
     7
100
AcDbLine
 10
45.0
 20
876.0
 30
0.0
 11
45.0
 21
15.0
 31
0.0
  0
LINE
  5
55
330
1F
100
AcDbEntity
  8
0
  6
CONTINUOUS
 62
     7
100
AcDbLine
 10
615.0
 20
15.0
 30
0.0
 11
615.0
 21
876.0
 31
0.0
  0
LINE
  5
56
330
1F
100
AcDbEntity
  8
0
  6
CONTINUOUS
 62
     7
100
AcDbLine
 10
615.0
 20
876.0
 30
0.0
 11
45.0
 21
876.0
 31
0.0
  0
INSERT
  5
85
330
1F
100
AcDbEntity
  8
OPISY
100
AcDbBlockReference
  2
SW_NOTE_0
 10
76.7077298071
 20
192.8549734432
 30
0.0
  0
MTEXT
  5
87
330
1F
100
AcDbEntity
  8
0
  6
CONTINUOUS
 62
     7
100
AcDbMText
 10
359.7942753521
 20
46.5239647278
 30
0.0
 40
15.0
 41
0.0
 71
     1
 72
     1
  1
1:3
  7
SLDTEXTSTYLE2
  0
MTEXT
  5
88
330
1F
100
AcDbEntity
  8
0
  6
CONTINUOUS
 62
     7
100
AcDbMText
 10
404.9051316716
 20
102.665720028
 30
0.0
 40
7.5
 41
0.0
 71
     1
 72
     1
  1
2.27kg
  7
SLDTEXTSTYLE2
  0
MTEXT
  5
89
330
1F
100
AcDbEntity
  8
0
  6
CONTINUOUS
 62
     7
100
AcDbMText
 10
183.1383201712
 20
133.3889707593
 30
0.0
 40
7.5
 41
0.0
 71
     1
 72
     1
  1
Plik:  TSP-Z0.SLDDRW
  7
SLDTEXTSTYLE2
  0
MTEXT
  5
8A
330
1F
100
AcDbEntity
  8
0
  6
CONTINUOUS
 62
     7
100
AcDbMText
 10
184.2837351715
 20
55.280521328
 30
0.0
 40
10.5
 41
0.0
 71
     1
 72
     1
  1
Prowadnica liniowa TS_1
  7
SLDTEXTSTYLE2
  0
MTEXT
  5
8B
330
1F
100
AcDbEntity
  8
0
  6
CONTINUOUS
 62
     7
100
AcDbMText
 10
122.4667676574
 20
125.6776166219
 30
0.0
 40
7.5
 41
0.0
 71
     1
 72
     1
  1
2015-02-12
  7
SLDTEXTSTYLE2
  0
MTEXT
  5
8C
330
1F
100
AcDbEntity
  8
0
  6
CONTINUOUS
 62
     7
100
AcDbMText
 10
485.8589260013
 20
87.1515427056
 30
0.0
 40
7.5
 41
0.0
 71
     1
 72
     1
  1
DK
  7
SLDTEXTSTYLE2
  0
MTEXT
  5
8D
330
1F
100
AcDbEntity
  8
0
  6
CONTINUOUS
 62
     7
100
AcDbMText
 10
370.5067714805
 20
94.0774284859
 30
0.0
 40
7.5
 41
0.0
 71
     1
 72
     1
  1
-
  7
SLDTEXTSTYLE2
  0
MTEXT
  5
8E
330
1F
100
AcDbEntity
  8
0
  6
CONTINUOUS
 62
     7
100
AcDbMText
 10
185.5470442707
 20
69.1325558471
 30
0.0
 40
6.0
 41
0.0
 71
     1
 72
     1
  1
Ilość
  7
SLDTEXTSTYLE1
  0
MTEXT
  5
8F
330
1F
100
AcDbEntity
  8
0
  6
CONTINUOUS
 62
     7
100
AcDbMText
 10
435.7585274072
 20
86.4302222342
 30
0.0
 40
6.0
 41
0.0
 71
     1
 72
     1
  1
Rysował
  7
SLDTEXTSTYLE1
  0
MTEXT
  5
90
330
1F
100
AcDbEntity
  8
0
  6
CONTINUOUS
 62
     7
100
AcDbMText
 10
435.9128913039
 20
71.6037539711
 30
0.0
 40
6.0
 41
0.0
 71
     1
 72
     1
  1
Sprawdził
  7
SLDTEXTSTYLE1
  0
MTEXT
  5
91
330
1F
100
AcDbEntity
  8
0
  6
CONTINUOUS
 62
     7
100
AcDbMText
 10
435.5350362147
 20
55.94674684
 30
0.0
 40
6.0
 41
0.0
 71
     1
 72
     1
  1
Zatwierdził
  7
SLDTEXTSTYLE1
  0
MTEXT
  5
92
330
1F
100
AcDbEntity
  8
0
  6
CONTINUOUS
 62
     7
100
AcDbMText
 10
287.0620141859
 20
70.1158674898
 30
0.0
 40
6.0
 41
0.0
 71
     1
 72
     1
  1
Materiał
  7
SLDTEXTSTYLE1
  0
MTEXT
  5
93
330
1F
100
AcDbEntity
  8
0
  6
CONTINUOUS
 62
     7
100
AcDbMText
 10
376.1150046521
 20
70.0249832562
 30
0.0
 40
6.0
 41
0.0
 71
     1
 72
     1
  1
Waga
  7
SLDTEXTSTYLE0
  0
MTEXT
  5
94
330
1F
100
AcDbEntity
  8
0
  6
CONTINUOUS
 62
     7
100
AcDbMText
 10
436.9846619692
 20
114.0148458975
 30
0.0
 40
6.0
 41
0.0
 71
     1
 72
     1
  1
Notatka
  7
SLDTEXTSTYLE0
  0
MTEXT
  5
95
330
1F
100
AcDbEntity
  8
0
  6
CONTINUOUS
 62
     7
100
AcDbMText
 10
108.7892014375
 20
113.859930427
 30
0.0
 40
6.0
 41
0.0
 71
     1
 72
     1
  1
DATA
  7
SLDTEXTSTYLE0
  0
MTEXT
  5
96
330
1F
100
AcDbEntity
  8
0
  6
CONTINUOUS
 62
     7
100
AcDbMText
 10
75.856418359
 20
114.5676815145
 30
0.0
 40
6.0
 41
0.0
 71
     1
 72
     1
  1
REV. No.
  7
SLDTEXTSTYLE0
  0
MTEXT
  5
97
330
1F
100
AcDbEntity
  8
0
  6
CONTINUOUS
 62
     7
100
AcDbMText
 10
400.4486282038
 20
47.4047715809
 30
0.0
 40
12.0
 41
0.0
 71
     1
 72
     1
  1
1/1
  7
SLDTEXTSTYLE0
  0
MTEXT
  5
98
330
1F
100
AcDbEntity
  8
0
  6
CONTINUOUS
 62
     7
100
AcDbMText
 10
520.7180278506
 20
101.271465629
 30
0.0
 40
6.0
 41
0.0
 71
     1
 72
     1
  1
Imię i nazwisko
  7
SLDTEXTSTYLE1
  0
INSERT
  5
9E
330
1F
100
AcDbEntity
  8
0
  6
CONTINUOUS
 62
     7
100
AcDbBlockReference
  2
SW_NOTE_1
 10
588.5747888944
 20
98.6847463463
 30
0.0
  0
MTEXT
  5
9F
330
1F
100
AcDbEntity
  8
0
  6
CONTINUOUS
 62
     7
100
AcDbMText
 10
78.4840847597
 20
69.1325558471
 30
0.0
 40
6.0
 41
0.0
 71
     1
 72
     1
  1
Format
  7
SLDTEXTSTYLE0
  0
MTEXT
  5
A0
330
1F
100
AcDbEntity
  8
0
  6
CONTINUOUS
 62
     7
100
AcDbMText
 10
106.3991248406
 20
97.5478059779
 30
0.0
 40
24.0
 41
0.0
 71
     1
 72
     1
  1
A4
  7
SLDTEXTSTYLE2
  0
INSERT
  5
AA
330
1F
100
AcDbEntity
  8
0
  6
CONTINUOUS
 62
     7
100
AcDbBlockReference
  2
SW_BROKEN_VIEW_0
 10
416.0979958145
 20
516.9587016261
 30
0.0
  0
LINE
  5
AB
330
1F
100
AcDbEntity
  8
0
  6
CONTINUOUS
 62
     7
100
AcDbLine
 10
416.1229943751
 20
706.9052205059
 30
0.0
 11
416.1229943751
 21
678.3110544655
 31
0.0
  0
LINE
  5
AC
330
1F
100
AcDbEntity
  8
0
  6
CONTINUOUS
 62
     7
100
AcDbLine
 10
457.1229955075
 20
689.2860279057
 30
0.0
 11
457.1229955075
 21
706.9052205059
 31
0.0
  0
LINE
  5
AD
330
1F
100
AcDbEntity
  8
0
  6
CONTINUOUS
 62
     7
100
AcDbLine
 10
418.8729943602
 20
706.9052205059
 30
0.0
 11
416.1229943751
 21
706.9052205059
 31
0.0
  0
LINE
  5
AE
330
1F
100
AcDbEntity
  8
0
  6
CONTINUOUS
 62
     7
100
AcDbLine
 10
457.1229955075
 20
706.9052205059
 30
0.0
 11
454.3729955224
 21
706.9052205059
 31
0.0
  0
LINE
  5
AF
330
1F
100
AcDbEntity
  8
0
  6
CONTINUOUS
 62
     7
100
AcDbLine
 10
429.8729947662
 20
706.9052205059
 30
0.0
 11
429.8729947662
 21
688.292299268
 31
0.0
  0
LINE
  5
B0
330
1F
100
AcDbEntity
  8
0
  6
CONTINUOUS
 62
     7
100
AcDbLine
 10
436.2229949514
 20
706.9052205059
 30
0.0
 11
436.2229949514
 21
684.0648398373
 31
0.0
  0
LINE
  5
B1
330
1F
100
AcDbEntity
  8
0
  6
CONTINUOUS
 62
     7
100
AcDbLine
 10
436.2229949514
 20
706.9052205059
 30
0.0
 11
429.8729947662
 21
706.9052205059
 31
0.0
  0
LINE
  5
B2
330
1F
100
AcDbEntity
  8
0
  6
CONTINUOUS
 62
     7
100
AcDbLine
 10
437.0229949312
 20
706.9052205059
 30
0.0
 11
437.0229949312
 21
683.5322425339
 31
0.0
  0
LINE
  5
B3
330
1F
100
AcDbEntity
  8
0
  6
CONTINUOUS
 62
     7
100
AcDbLine
 10
443.3729951164
 20
706.9052205059
 30
0.0
 11
443.3729951164
 21
679.3047831032
 31
0.0
  0
LINE
  5
B4
330
1F
100
AcDbEntity
  8
0
  6
CONTINUOUS
 62
     7
100
AcDbLine
 10
443.3729951164
 20
706.9052205059
 30
0.0
 11
437.0229949312
 21
706.9052205059
 31
0.0
  0
LINE
  5
B5
330
1F
100
AcDbEntity
  8
0
  6
CONTINUOUS
 62
     7
100
AcDbLine
 10
452.8729943453
 20
706.9052205059
 30
0.0
 11
452.8729943453
 21
685.0360379193
 31
0.0
  0
LINE
  5
B6
330
1F
100
AcDbEntity
  8
0
  6
CONTINUOUS
 62
     7
100
AcDbLine
 10
449.1019006712
 20
706.9052205059
 30
0.0
 11
452.8729943453
 21
706.9052205059
 31
0.0
  0
LINE
  5
B7
330
1F
100
AcDbEntity
  8
0
  6
CONTINUOUS
 62
     7
100
AcDbLine
 10
420.3729955373
 20
706.9052205059
 30
0.0
 11
420.3729955373
 21
682.5610444519
 31
0.0
  0
LINE
  5
B8
330
1F
100
AcDbEntity
  8
0
  6
CONTINUOUS
 62
     7
100
AcDbLine
 10
424.1440892114
 20
706.9052205059
 30
0.0
 11
420.3729955373
 21
706.9052205059
 31
0.0
  0
LINE
  5
B9
330
1F
100
AcDbEntity
  8
0
  6
CONTINUOUS
 62
     7
100
AcDbLine
 10
420.3729955373
 20
706.9052205059
 30
0.0
 11
419.8729945241
 21
706.9052205059
 31
0.0
  0
LINE
  5
BA
330
1F
100
AcDbEntity
  8
0
  6
CONTINUOUS
 62
     7
100
AcDbLine
 10
443.3729951164
 20
706.9052205059
 30
0.0
 11
447.2276409982
 21
706.9052205059
 31
0.0
  0
LINE
  5
BB
330
1F
100
AcDbEntity
  8
0
  6
CONTINUOUS
 62
     7
100
AcDbLine
 10
429.8729947662
 20
706.9052205059
 30
0.0
 11
426.0183488844
 21
706.9052205059
 31
0.0
  0
LINE
  5
BC
330
1F
100
AcDbEntity
  8
0
  6
CONTINUOUS
 62
     7
100
AcDbLine
 10
453.3729953585
 20
706.9052205059
 30
0.0
 11
452.8729943453
 21
706.9052205059
 31
0.0
  0
LINE
  5
BD
330
1F
100
AcDbEntity
  8
0
  6
CONTINUOUS
 62
     7
100
AcDbLine
 10
454.3729955224
 20
706.9052205059
 30
0.0
 11
454.3729955224
 21
686.5360484097
 31
0.0
  0
LINE
  5
BE
330
1F
100
AcDbEntity
  8
0
  6
CONTINUOUS
 62
     7
100
AcDbLine
 10
453.3729953585
 20
706.9052205059
 30
0.0
 11
454.3729955224
 21
706.9052205059
 31
0.0
  0
LINE
  5
BF
330
1F
100
AcDbEntity
  8
0
  6
CONTINUOUS
 62
     7
100
AcDbLine
 10
436.2229949514
 20
706.9052205059
 30
0.0
 11
436.4815735792
 21
706.9052205059
 31
0.0
  0
LINE
  5
C0
330
1F
100
AcDbEntity
  8
0
  6
CONTINUOUS
 62
     7
100
AcDbLine
 10
418.8729943602
 20
681.0610339615
 30
0.0
 11
418.8729943602
 21
706.9052205059
 31
0.0
  0
LINE
  5
C1
330
1F
100
AcDbEntity
  8
0
  6
CONTINUOUS
 62
     7
100
AcDbLine
 10
418.8729943602
 20
706.9052205059
 30
0.0
 11
419.8729945241
 21
706.9052205059
 31
0.0
  0
LINE
  5
C2
330
1F
100
AcDbEntity
  8
0
  6
CONTINUOUS
 62
     7
100
AcDbLine
 10
436.7644163034
 20
706.9052205059
 30
0.0
 11
437.0229949312
 21
706.9052205059
 31
0.0
  0
LINE
  5
C3
330
1F
100
AcDbEntity
  8
0
  6
CONTINUOUS
 62
     7
100
AcDbLine
 10
436.4815735792
 20
706.9052205059
 30
0.0
 11
436.7644163034
 21
706.9052205059
 31
0.0
  0
LINE
  5
C4
330
1F
100
AcDbEntity
  8
0
  6
CONTINUOUS
 62
     7
100
AcDbLine
 10
447.2276409982
 20
706.9052205059
 30
0.0
 11
449.1019006712
 21
706.9052205059
 31
0.0
  0
LINE
  5
C5
330
1F
100
AcDbEntity
  8
0
  6
CONTINUOUS
 62
     7
100
AcDbLine
 10
426.0183488844
 20
706.9052205059
 30
0.0
 11
424.1440892114
 21
706.9052205059
 31
0.0
  0
LINE
  5
C6
330
1F
100
AcDbEntity
  8
0
  6
CONTINUOUS
 62
     7
100
AcDbLine
 10
416.1229943751
 20
666.311045379
 30
0.0
 11
416.1229943751
 21
516.9587016261
 31
0.0
  0
LINE
  5
C7
330
1F
100
AcDbEntity
  8
0
  6
CONTINUOUS
 62
     7
100
AcDbLine
 10
416.1229943751
 20
421.9587046808
 30
0.0
 11
416.1229943751
 21
376.6023416227
 31
0.0
  0
LINE
  5
C8
330
1F
100
AcDbEntity
  8
0
  6
CONTINUOUS
 62
     7
100
AcDbLine
 10
457.1229955075
 20
387.5773448652
 30
0.0
 11
457.1229955075
 21
421.9587046808
 31
0.0
  0
LINE
  5
C9
330
1F
100
AcDbEntity
  8
0
  6
CONTINUOUS
 62
     7
100
AcDbLine
 10
457.1229955075
 20
516.9587016261
 30
0.0
 11
457.1229955075
 21
677.2860486215
 31
0.0
  0
ARC
  5
CA
330
1F
100
AcDbEntity
  8
0
  6
CONTINUOUS
 62
     7
100
AcDbCircle
 10
405.6229945328
 20
499.4587017015
 30
0.0
 40
3.499999887792146
100
AcDbArc
 50
195.5792723055
 51
344.420725716
  0
LINE
  5
CB
330
1F
100
AcDbEntity
  8
0
  6
CONTINUOUS
 62
     7
100
AcDbLine
 10
402.7702165662
 20
505.9587016857
 30
0.0
 11
401.4202197908
 21
505.1792787543
 31
0.0
  0
LINE
  5
CC
330
1F
100
AcDbEntity
  8
0
  6
CONTINUOUS
 62
     7
100
AcDbLine
 10
401.4202197908
 20
505.1792787543
 30
0.0
 11
401.620219451
 21
505.5256893082
 31
0.0
  0
LINE
  5
CD
330
1F
100
AcDbEntity
  8
0
  6
CONTINUOUS
 62
     7
100
AcDbLine
 10
401.620219451
 20
505.5256893082
 30
0.0
 11
402.3702172456
 21
505.9587016857
 31
0.0
  0
LINE
  5
CE
330
1F
100
AcDbEntity
  8
0
  6
CONTINUOUS
 62
     7
100
AcDbLine
 10
402.3702172456
 20
505.9587016857
 30
0.0
 11
402.7702165662
 21
505.9587016857
 31
0.0
  0
LINE
  5
CF
330
1F
100
AcDbEntity
  8
0
  6
CONTINUOUS
 62
     7
100
AcDbLine
 10
409.8257711051
 20
505.1792787543
 30
0.0
 11
408.4757724671
 21
505.9587016857
 31
0.0
  0
LINE
  5
D0
330
1F
100
AcDbEntity
  8
0
  6
CONTINUOUS
 62
     7
100
AcDbLine
 10
408.4757724671
 20
505.9587016857
 30
0.0
 11
408.8757717876
 21
505.9587016857
 31
0.0
  0
LINE
  5
D1
330
1F
100
AcDbEntity
  8
0
  6
CONTINUOUS
 62
     7
100
AcDbLine
 10
408.8757717876
 20
505.9587016857
 30
0.0
 11
409.6257714449
 21
505.5256893082
 31
0.0
  0
LINE
  5
D2
330
1F
100
AcDbEntity
  8
0
  6
CONTINUOUS
 62
     7
100
AcDbLine
 10
409.6257714449
 20
505.5256893082
 30
0.0
 11
409.8257711051
 21
505.1792787543
 31
0.0
  0
LINE
  5
D3
330
1F
100
AcDbEntity
  8
0
  6
CONTINUOUS
 62
     7
100
AcDbLine
 10
412.6785481243
 20
498.6792789694
 30
0.0
 11
412.6785481243
 21
500.2381246721
 31
0.0
  0
LINE
  5
D4
330
1F
100
AcDbEntity
  8
0
  6
CONTINUOUS
 62
     7
100
AcDbLine
 10
412.8785477845
 20
499.8917145111
 30
0.0
 11
412.8785477845
 21
499.0256890577
 31
0.0
  0
LINE
  5
D5
330
1F
100
AcDbEntity
  8
0
  6
CONTINUOUS
 62
     7
100
AcDbLine
 10
412.6785481243
 20
500.2381246721
 30
0.0
 11
412.8785477845
 21
499.8917145111
 31
0.0
  0
LINE
  5
D6
330
1F
100
AcDbEntity
  8
0
  6
CONTINUOUS
 62
     7
100
AcDbLine
 10
412.8785477845
 20
499.0256890577
 30
0.0
 11
412.6785481243
 21
498.6792789694
 31
0.0
  0
LINE
  5
D7
330
1F
100
AcDbEntity
  8
0
  6
CONTINUOUS
 62
     7
100
AcDbLine
 10
408.4757724671
 20
492.9587018831
 30
0.0
 11
409.8257711051
 21
493.7381248145
 31
0.0
  0
LINE
  5
D8
330
1F
100
AcDbEntity
  8
0
  6
CONTINUOUS
 62
     7
100
AcDbLine
 10
409.6257714449
 20
493.3917147262
 30
0.0
 11
408.8757717876
 21
492.9587018831
 31
0.0
  0
LINE
  5
D9
330
1F
100
AcDbEntity
  8
0
  6
CONTINUOUS
 62
     7
100
AcDbLine
 10
408.8757717876
 20
492.9587018831
 30
0.0
 11
408.4757724671
 21
492.9587018831
 31
0.0
  0
LINE
  5
DA
330
1F
100
AcDbEntity
  8
0
  6
CONTINUOUS
 62
     7
100
AcDbLine
 10
409.8257711051
 20
493.7381248145
 30
0.0
 11
409.6257714449
 21
493.3917147262
 31
0.0
  0
LINE
  5
DB
330
1F
100
AcDbEntity
  8
0
  6
CONTINUOUS
 62
     7
100
AcDbLine
 10
401.4202197908
 20
493.7381248145
 30
0.0
 11
402.7702165662
 21
492.9587018831
 31
0.0
  0
LINE
  5
DC
330
1F
100
AcDbEntity
  8
0
  6
CONTINUOUS
 62
     7
100
AcDbLine
 10
402.3702172456
 20
492.9587018831
 30
0.0
 11
401.620219451
 21
493.3917147262
 31
0.0
  0
LINE
  5
DD
330
1F
100
AcDbEntity
  8
0
  6
CONTINUOUS
 62
     7
100
AcDbLine
 10
402.7702165662
 20
492.9587018831
 30
0.0
 11
402.3702172456
 21
492.9587018831
 31
0.0
  0
LINE
  5
DE
330
1F
100
AcDbEntity
  8
0
  6
CONTINUOUS
 62
     7
100
AcDbLine
 10
401.620219451
 20
493.3917147262
 30
0.0
 11
401.4202197908
 21
493.7381248145
 31
0.0
  0
LINE
  5
DF
330
1F
100
AcDbEntity
  8
0
  6
CONTINUOUS
 62
     7
100
AcDbLine
 10
398.567440909
 20
500.2381246721
 30
0.0
 11
398.567440909
 21
498.6792789694
 31
0.0
  0
LINE
  5
E0
330
1F
100
AcDbEntity
  8
0
  6
CONTINUOUS
 62
     7
100
AcDbLine
 10
398.3674412487
 20
499.0256890577
 30
0.0
 11
398.3674412487
 21
499.8917145111
 31
0.0
  0
LINE
  5
E1
330
1F
100
AcDbEntity
  8
0
  6
CONTINUOUS
 62
     7
100
AcDbLine
 10
398.3674412487
 20
499.8917145111
 30
0.0
 11
398.567440909
 21
500.2381246721
 31
0.0
  0
LINE
  5
E2
330
1F
100
AcDbEntity
  8
0
  6
CONTINUOUS
 62
     7
100
AcDbLine
 10
398.567440909
 20
498.6792789694
 30
0.0
 11
398.3674412487
 21
499.0256890577
 31
0.0
  0
LINE
  5
E3
330
1F
100
AcDbEntity
  8
0
  6
CONTINUOUS
 62
     7
100
AcDbLine
 10
408.4757724671
 20
505.9587016857
 30
0.0
 11
402.7702165662
 21
505.9587016857
 31
0.0
  0
CIRCLE
  5
E4
330
1F
100
AcDbEntity
  8
0
  6
CONTINUOUS
 62
     7
100
AcDbCircle
 10
405.622993661
 20
498.9587022857
 30
0.0
 40
4.024999856746671
  0
LINE
  5
E5
330
1F
100
AcDbEntity
  8
0
  6
CONTINUOUS
 62
     7
100
AcDbLine
 10
412.6785481243
 20
500.2381246721
 30
0.0
 11
409.8257711051
 21
505.1792787543
 31
0.0
  0
LINE
  5
E6
330
1F
100
AcDbEntity
  8
0
  6
CONTINUOUS
 62
     7
100
AcDbLine
 10
402.7702165662
 20
492.9587018831
 30
0.0
 11
408.4757724671
 21
492.9587018831
 31
0.0
  0
LINE
  5
E7
330
1F
100
AcDbEntity
  8
0
  6
CONTINUOUS
 62
     7
100
AcDbLine
 10
401.4202197908
 20
505.1792787543
 30
0.0
 11
398.567440909
 21
500.2381246721
 31
0.0
  0
LINE
  5
E8
330
1F
100
AcDbEntity
  8
0
  6
CONTINUOUS
 62
     7
100
AcDbLine
 10
398.567440909
 20
498.6792789694
 30
0.0
 11
401.4202197908
 21
493.7381248145
 31
0.0
  0
LINE
  5
E9
330
1F
100
AcDbEntity
  8
0
  6
CONTINUOUS
 62
     7
100
AcDbLine
 10
409.8257711051
 20
493.7381248145
 30
0.0
 11
412.6785481243
 21
498.6792789694
 31
0.0
  0
CIRCLE
  5
EA
330
1F
100
AcDbEntity
  8
0
  6
CONTINUOUS
 62
     7
100
AcDbCircle
 10
405.6229941172
 20
498.9587024725
 30
0.0
 40
3.400000206145037
  0
CIRCLE
  5
EB
330
1F
100
AcDbEntity
  8
0
  6
CONTINUOUS
 62
     7
100
AcDbCircle
 10
467.6229954191
 20
439.458700338
 30
0.0
 40
3.400000917659106
  0
CIRCLE
  5
EC
330
1F
100
AcDbEntity
  8
0
  6
CONTINUOUS
 62
     7
100
AcDbCircle
 10
436.622992712
 20
428.208703257
 30
0.0
 40
3.000001920919031
  0
CIRCLE
  5
ED
330
1F
100
AcDbEntity
  8
0
  6
CONTINUOUS
 62
     7
100
AcDbCircle
 10
475.6229942863
 20
428.2087029769
 30
0.0
 40
3.000001920918502
  0
CIRCLE
  5
EE
330
1F
100
AcDbEntity
  8
0
  6
CONTINUOUS
 62
     7
100
AcDbCircle
 10
475.6229968451
 20
469.4587018221
 30
0.0
 40
3.000000170604205
  0
CIRCLE
  5
EF
330
1F
100
AcDbEntity
  8
0
  6
CONTINUOUS
 62
     7
100
AcDbCircle
 10
475.6229964008
 20
510.7087017603
 30
0.0
 40
3.000000170604114
  0
CIRCLE
  5
F0
330
1F
100
AcDbEntity
  8
0
  6
CONTINUOUS
 62
     7
100
AcDbCircle
 10
436.6229948265
 20
510.7087020404
 30
0.0
 40
3.000000170604004
  0
CIRCLE
  5
F1
330
1F
100
AcDbEntity
  8
0
  6
CONTINUOUS
 62
     7
100
AcDbCircle
 10
397.6229947914
 20
510.7087017603
 30
0.0
 40
3.000000170604114
  0
CIRCLE
  5
F2
330
1F
100
AcDbEntity
  8
0
  6
CONTINUOUS
 62
     7
100
AcDbCircle
 10
397.6229952358
 20
469.4587018221
 30
0.0
 40
3.000000170604166
  0
CIRCLE
  5
F3
330
1F
100
AcDbEntity
  8
0
  6
CONTINUOUS
 62
     7
100
AcDbCircle
 10
397.622992677
 20
428.2087029769
 30
0.0
 40
3.000001920918502
  0
CIRCLE
  5
F4
330
1F
100
AcDbEntity
  8
0
  6
CONTINUOUS
 62
     7
100
AcDbCircle
 10
467.6229957407
 20
499.4587025436
 30
0.0
 40
3.400000203915519
  0
CIRCLE
  5
F5
330
1F
100
AcDbEntity
  8
0
  6
CONTINUOUS
 62
     7
100
AcDbCircle
 10
405.6229974143
 20
439.4587009333
 30
0.0
 40
9.999999851388148
  0
ARC
  5
F6
330
1F
100
AcDbEntity
  8
0
  6
CONTINUOUS
 62
     7
100
AcDbCircle
 10
405.6229956076
 20
499.4587011281
 30
0.0
 40
9.999999616862816
100
AcDbArc
 50
17.5798819934
 51
0.0000037601
  0
LINE
  5
F7
330
1F
100
AcDbEntity
  8
0
  6
CONTINUOUS
 62
     7
100
AcDbLine
 10
449.2651391668
 20
515.9587014622
 30
0.0
 11
424.6632605685
 21
515.9587014622
 31
0.0
  0
SPLINE
  5
F8
330
1F
100
AcDbEntity
  8
0
  6
CONTINUOUS
 62
     7
100
AcDbSpline
210
0.0
220
0.0
230
1.0
 70
     8
 71
     3
 72
    24
 73
    20
 74
     0
 42
0.00000001
 43
0.00000001
 40
0.0
 40
0.0
 40
0.0
 40
0.0
 40
0.0769653242860359
 40
0.1550958961809209
 40
0.2212691605452035
 40
0.2867658277992389
 40
0.3556451386938176
 40
0.4086723815662485
 40
0.4587200266548854
 40
0.50806770469328
 40
0.5611934778586795
 40
0.5972162105160433
 40
0.6317949496203151
 40
0.6642218088298744
 40
0.6964628934640402
 40
0.773858012791329
 40
0.8498677336592191
 40
0.9243181111138934
 40
1.0
 40
1.0
 40
1.0
 40
1.0
 10
449.2651391668375
 20
515.9587014621557
 30
0.0
 10
449.0161847669323
 20
514.7549481958595
 30
0.0
 10
448.5145068214465
 20
512.3292169545663
 30
0.0
 10
447.9121974353311
 20
508.8440737646713
 30
0.0
 10
447.079706248826
 20
505.5984035171836
 30
0.0
 10
446.823576255831
 20
502.3657097635603
 30
0.0
 10
447.6550658470151
 20
499.4132607093176
 30
0.0
 10
449.1835529187457
 20
497.1005713459615
 30
0.0
 10
451.1778544607796
 20
495.5512733576751
 30
0.0
 10
453.7202540566822
 20
495.2969585526017
 30
0.0
 10
455.843207963492
 20
496.0925474083985
 30
0.0
 10
457.458631002082
 20
497.2493938243284
 30
0.0
 10
458.5525294162852
 20
498.5084270078817
 30
0.0
 10
459.1760325159111
 20
499.9987757258343
 30
0.0
 10
459.3463475162571
 20
502.2873149179758
 30
0.0
 10
458.7386026267026
 20
505.2089157667257
 30
0.0
 10
458.4808332904952
 20
508.8467865063171
 30
0.0
 10
458.7762890328284
 20
512.4679648170143
 30
0.0
 10
459.3937115361999
 20
514.7887768281449
 30
0.0
 10
459.7049550978597
 20
515.9587014621557
 30
0.0
  0
LINE
  5
F9
330
1F
100
AcDbEntity
  8
0
  6
CONTINUOUS
 62
     7
100
AcDbLine
 10
476.6229940472
 20
515.9587014622
 30
0.0
 11
459.7049550979
 21
515.9587014622
 31
0.0
  0
ARC
  5
FA
330
1F
100
AcDbEntity
  8
0
  6
CONTINUOUS
 62
     7
100
AcDbCircle
 10
476.6229940543
 20
511.9587008136
 30
0.0
 40
4.000000648589378
100
AcDbArc
 50
0.0000132391
 51
90.0000001012
  0
LINE
  5
FB
330
1F
100
AcDbEntity
  8
0
  6
CONTINUOUS
 62
     7
100
AcDbLine
 10
480.6229947029
 20
426.9586999124
 30
0.0
 11
480.6229947029
 21
511.9587017378
 31
0.0
  0
ARC
  5
FC
330
1F
100
AcDbEntity
  8
0
  6
CONTINUOUS
 62
     7
100
AcDbCircle
 10
476.6229908746
 20
426.9587030851
 30
0.0
 40
4.00000382832804
100
AcDbArc
 50
270.0000454452
 51
359.9999545548
  0
LINE
  5
FD
330
1F
100
AcDbEntity
  8
0
  6
CONTINUOUS
 62
     7
100
AcDbLine
 10
396.6229958354
 20
422.9586992568
 30
0.0
 11
476.6229940472
 21
422.9586992568
 31
0.0
  0
ARC
  5
FE
330
1F
100
AcDbEntity
  8
0
  6
CONTINUOUS
 62
     7
100
AcDbCircle
 10
396.622999008
 20
426.9587030851
 30
0.0
 40
4.00000382832804
100
AcDbArc
 50
180.0000454452
 51
269.9999545548
  0
LINE
  5
FF
330
1F
100
AcDbEntity
  8
0
  6
CONTINUOUS
 62
     7
100
AcDbLine
 10
392.6229951797
 20
511.9587017378
 30
0.0
 11
392.6229951797
 21
426.9586999124
 31
0.0
  0
ARC
  5
100
330
1F
100
AcDbEntity
  8
0
  6
CONTINUOUS
 62
     7
100
AcDbCircle
 10
396.6229958283
 20
511.9587008136
 30
0.0
 40
4.000000648589378
100
AcDbArc
 50
89.9999998988
 51
179.9999867609
  0
LINE
  5
101
330
1F
100
AcDbEntity
  8
0
  6
CONTINUOUS
 62
     7
100
AcDbLine
 10
414.8371582745
 20
515.9587014622
 30
0.0
 11
396.6229958354
 21
515.9587014622
 31
0.0
  0
SPLINE
  5
102
330
1F
100
AcDbEntity
  8
0
  6
CONTINUOUS
 62
     7
100
AcDbSpline
210
0.0
220
0.0
230
1.0
 70
     8
 71
     3
 72
    11
 73
     7
 74
     0
 42
0.00000001
 43
0.00000001
 40
0.0
 40
0.0
 40
0.0
 40
0.0
 40
0.2985489077071489
 40
0.6027138915836947
 40
0.8010277239358683
 40
1.0
 40
1.0
 40
1.0
 40
1.0
 10
414.8371582744773
 20
515.9587014621557
 30
0.0
 10
414.9800892821517
 20
514.6212215879467
 30
0.0
 10
415.2686400074749
 20
511.9211021800739
 30
0.0
 10
415.6462569687974
 20
508.3153587414936
 30
0.0
 10
415.39683507231
 20
505.1555132092971
 30
0.0
 10
415.2363423753627
 20
503.3721914939051
 30
0.0
 10
415.1559630302842
 20
502.47905283854
 30
0.0
  0
SPLINE
  5
103
330
1F
100
AcDbEntity
  8
0
  6
CONTINUOUS
 62
     7
100
AcDbSpline
210
0.0
220
0.0
230
1.0
 70
     8
 71
     3
 72
    20
 73
    16
 74
     0
 42
0.00000001
 43
0.00000001
 40
0.0
 40
0.0
 40
0.0
 40
0.0
 40
0.0396905854270386
 40
0.098499444003312
 40
0.1573078798055255
 40
0.2251890513891567
 40
0.2899054506915555
 40
0.3474557297808127
 40
0.4064240556734382
 40
0.4949572915055751
 40
0.5921441058253666
 40
0.6895944956308032
 40
0.7933635903527202
 40
0.8919256279201884
 40
1.0
 40
1.0
 40
1.0
 40
1.0
 10
415.6229952244218
 20
499.4587017843932
 30
0.0
 10
415.7830191586311
 20
499.1328670928692
 30
0.0
 10
416.1801478070811
 20
498.3242487364807
 30
0.0
 10
417.189922423171
 20
497.2523171452298
 30
0.0
 10
418.7725448204592
 20
496.5277305441784
 30
0.0
 10
420.5622057195675
 20
496.5334398148129
 30
0.0
 10
422.2519124165233
 20
497.0825121878112
 30
0.0
 10
423.4834047300817
 20
498.2767106549288
 30
0.0
 10
424.1635820281799
 20
500.0595112978418
 30
0.0
 10
424.3582041918144
 20
502.2992202633528
 30
0.0
 10
424.3035667474885
 20
504.8792725111362
 30
0.0
 10
424.2197757973274
 20
507.6124110731639
 30
0.0
 10
424.6575196032234
 20
510.3126627124889
 30
0.0
 10
425.3058557270924
 20
513.116986306781
 30
0.0
 10
424.8839332378198
 20
514.9828321914513
 30
0.0
 10
424.6632605685051
 20
515.9587014621557
 30
0.0
  0
CIRCLE
  5
104
330
1F
100
AcDbEntity
  8
0
  6
CONTINUOUS
 62
     7
100
AcDbCircle
 10
405.6229979525
 20
439.4587023945
 30
0.0
 40
9.499997548468345
  0
LINE
  5
105
330
1F
100
AcDbEntity
  8
0
  6
CONTINUOUS
 62
     7
100
AcDbLine
 10
391.6229931532
 20
426.9586999124
 30
0.0
 11
391.6229931532
 21
511.9587017378
 31
0.0
  0
ARC
  5
106
330
1F
100
AcDbEntity
  8
0
  6
CONTINUOUS
 62
     7
100
AcDbCircle
 10
396.6229915791
 20
426.9587031067
 30
0.0
 40
4.999998425939615
100
AcDbArc
 50
180.0000366041
 51
270.0000487733
  0
LINE
  5
107
330
1F
100
AcDbEntity
  8
0
  6
CONTINUOUS
 62
     7
100
AcDbLine
 10
476.6229940472
 20
421.9587046808
 30
0.0
 11
396.6229958354
 21
421.9587046808
 31
0.0
  0
CIRCLE
  5
108
330
1F
100
AcDbEntity
  8
0
  6
CONTINUOUS
 62
     7
100
AcDbCircle
 10
436.6229957986
 20
428.2087020905
 30
0.0
 40
2.499999790995627
  0
CIRCLE
  5
109
330
1F
100
AcDbEntity
  8
0
  6
CONTINUOUS
 62
     7
100
AcDbCircle
 10
397.622995068
 20
428.2087028314
 30
0.0
 40
2.499999790995658
  0
ARC
  5
10A
330
1F
100
AcDbEntity
  8
0
  6
CONTINUOUS
 62
     7
100
AcDbCircle
 10
476.6229983035
 20
426.9587031067
 30
0.0
 40
4.999998425939506
100
AcDbArc
 50
269.9999512267
 51
359.9999633959
  0
LINE
  5
10B
330
1F
100
AcDbEntity
  8
0
  6
CONTINUOUS
 62
     7
100
AcDbLine
 10
481.6229967294
 20
511.9587017378
 30
0.0
 11
481.6229967294
 21
426.9586999124
 31
0.0
  0
CIRCLE
  5
10C
330
1F
100
AcDbEntity
  8
0
  6
CONTINUOUS
 62
     7
100
AcDbCircle
 10
475.6229961317
 20
428.2087015143
 30
0.0
 40
2.499999790996714
  0
CIRCLE
  5
10D
330
1F
100
AcDbEntity
  8
0
  6
CONTINUOUS
 62
     7
100
AcDbCircle
 10
405.6229950446
 20
499.4587020975
 30
0.0
 40
9.499999832036723
  0
SPLINE
  5
10E
330
1F
100
AcDbEntity
  8
0
  6
CONTINUOUS
 62
     7
100
AcDbSpline
210
0.0
220
0.0
230
1.0
 70
     8
 71
     3
 72
    10
 73
     6
 74
     0
 42
0.00000001
 43
0.00000001
 40
0.0
 40
0.0
 40
0.0
 40
0.0
 40
0.4310558961658127
 40
0.802733289938049
 40
1.0
 40
1.0
 40
1.0
 40
1.0
 10
415.1559630302842
 20
502.47905283854
 30
0.0
 10
415.1567147107501
 20
502.0364861320961
 30
0.0
 10
415.1581145267338
 20
501.2123168504764
 30
0.0
 10
415.345328374696
 20
500.1945061345605
 30
0.0
 10
415.5515078152841
 20
499.6481401227387
 30
0.0
 10
415.6229952244218
 20
499.4587017843932
 30
0.0
  0
CIRCLE
  5
10F
330
1F
100
AcDbEntity
  8
0
  6
CONTINUOUS
 62
     7
100
AcDbCircle
 10
475.622994349
 20
469.4587010979
 30
0.0
 40
2.500000651425353
  0
CIRCLE
  5
110
330
1F
100
AcDbEntity
  8
0
  6
CONTINUOUS
 62
     7
100
AcDbCircle
 10
397.6229932852
 20
469.458702415
 30
0.0
 40
2.500000651427093
  0
CIRCLE
  5
111
330
1F
100
AcDbEntity
  8
0
  6
CONTINUOUS
 62
     7
100
AcDbCircle
 10
397.6229944094
 20
510.7087026571
 30
0.0
 40
2.499999790996079
  0
LINE
  5
112
330
1F
100
AcDbEntity
  8
0
  6
CONTINUOUS
 62
     7
100
AcDbLine
 10
396.6229958354
 20
516.9587016261
 30
0.0
 11
414.7535851119
 21
516.9587016261
 31
0.0
  0
LINE
  5
113
330
1F
100
AcDbEntity
  8
0
  6
CONTINUOUS
 62
     7
100
AcDbLine
 10
414.7535851119
 20
516.9587016261
 30
0.0
 11
414.8371582745
 21
515.9587014622
 31
0.0
  0
ARC
  5
114
330
1F
100
AcDbEntity
  8
0
  6
CONTINUOUS
 62
     7
100
AcDbCircle
 10
396.6229947588
 20
511.9587000204
 30
0.0
 40
5.000001605670948
100
AcDbArc
 50
89.9999876638
 51
179.9999803197
  0
CIRCLE
  5
115
330
1F
100
AcDbEntity
  8
0
  6
CONTINUOUS
 62
     7
100
AcDbCircle
 10
436.62299514
 20
510.7087019163
 30
0.0
 40
2.499999790995494
  0
LINE
  5
116
330
1F
100
AcDbEntity
  8
0
  6
CONTINUOUS
 62
     7
100
AcDbLine
 10
459.948391643
 20
516.9587016261
 30
0.0
 11
476.6229940472
 21
516.9587016261
 31
0.0
  0
LINE
  5
117
330
1F
100
AcDbEntity
  8
0
  6
CONTINUOUS
 62
     7
100
AcDbLine
 10
459.7049550979
 20
515.9587014622
 30
0.0
 11
459.948391643
 21
516.9587016261
 31
0.0
  0
CIRCLE
  5
118
330
1F
100
AcDbEntity
  8
0
  6
CONTINUOUS
 62
     7
100
AcDbCircle
 10
475.6229954732
 20
510.7087013401
 30
0.0
 40
2.499999790996036
  0
LINE
  5
119
330
1F
100
AcDbEntity
  8
0
  6
CONTINUOUS
 62
     7
100
AcDbLine
 10
424.4104660941
 20
516.9587016261
 30
0.0
 11
449.5162311835
 21
516.9587016261
 31
0.0
  0
LINE
  5
11A
330
1F
100
AcDbEntity
  8
0
  6
CONTINUOUS
 62
     7
100
AcDbLine
 10
449.5162311835
 20
516.9587016261
 30
0.0
 11
449.2651391668
 21
515.9587014622
 31
0.0
  0
LINE
  5
11B
330
1F
100
AcDbEntity
  8
0
  6
CONTINUOUS
 62
     7
100
AcDbLine
 10
424.6632605685
 20
515.9587014622
 30
0.0
 11
424.4104660941
 21
516.9587016261
 31
0.0
  0
ARC
  5
11C
330
1F
100
AcDbEntity
  8
0
  6
CONTINUOUS
 62
     7
100
AcDbCircle
 10
476.6229951238
 20
511.9587000204
 30
0.0
 40
5.000001605670948
100
AcDbArc
 50
0.0000196803
 51
90.0000123362
  0
LINE
  5
11D
330
1F
100
AcDbEntity
  8
0
  6
CONTINUOUS
 62
     7
100
AcDbLine
 10
419.1229948668
 20
498.4565502653
 30
0.0
 11
421.6229952766
 21
499.9587018081
 31
0.0
  0
LINE
  5
11E
330
1F
100
AcDbEntity
  8
0
  6
CONTINUOUS
 62
     7
100
AcDbLine
 10
416.6229953883
 20
499.9587018081
 30
0.0
 11
419.1229948668
 21
498.4565502653
 31
0.0
  0
LINE
  5
11F
330
1F
100
AcDbEntity
  8
0
  6
CONTINUOUS
 62
     7
100
AcDbLine
 10
421.6229952766
 20
499.9587018081
 30
0.0
 11
416.6229953883
 21
499.9587018081
 31
0.0
  0
LINE
  5
120
330
1F
100
AcDbEntity
  8
0
  6
CONTINUOUS
 62
     7
100
AcDbLine
 10
451.0979950322
 20
516.9587016261
 30
0.0
 11
451.622994606
 21
516.4337020522
 31
0.0
  0
LINE
  5
121
330
1F
100
AcDbEntity
  8
0
  6
CONTINUOUS
 62
     7
100
AcDbLine
 10
451.622994606
 20
516.4337020522
 30
0.0
 11
451.622994606
 21
499.9587018081
 31
0.0
  0
LINE
  5
122
330
1F
100
AcDbEntity
  8
0
  6
CONTINUOUS
 62
     7
100
AcDbLine
 10
451.622994606
 20
499.9587018081
 30
0.0
 11
454.1229950158
 21
498.4565502653
 31
0.0
  0
LINE
  5
123
330
1F
100
AcDbEntity
  8
0
  6
CONTINUOUS
 62
     7
100
AcDbLine
 10
454.1229950158
 20
498.4565502653
 30
0.0
 11
456.6229944943
 21
499.9587018081
 31
0.0
  0
LINE
  5
124
330
1F
100
AcDbEntity
  8
0
  6
CONTINUOUS
 62
     7
100
AcDbLine
 10
456.6229944943
 20
499.9587018081
 30
0.0
 11
456.6229944943
 21
516.4337020522
 31
0.0
  0
LINE
  5
125
330
1F
100
AcDbEntity
  8
0
  6
CONTINUOUS
 62
     7
100
AcDbLine
 10
456.6229944943
 20
516.4337020522
 30
0.0
 11
457.1479940681
 21
516.9587016261
 31
0.0
  0
LINE
  5
126
330
1F
100
AcDbEntity
  8
0
  6
CONTINUOUS
 62
     7
100
AcDbLine
 10
457.1479940681
 20
516.9587016261
 30
0.0
 11
459.948391643
 21
516.9587016261
 31
0.0
  0
LINE
  5
127
330
1F
100
AcDbEntity
  8
0
  6
CONTINUOUS
 62
     7
100
AcDbLine
 10
449.5162311835
 20
516.9587016261
 30
0.0
 11
451.0979950322
 21
516.9587016261
 31
0.0
  0
LINE
  5
128
330
1F
100
AcDbEntity
  8
0
  6
CONTINUOUS
 62
     7
100
AcDbLine
 10
416.0979958145
 20
516.9587016261
 30
0.0
 11
416.6229953883
 21
516.4337020522
 31
0.0
  0
LINE
  5
129
330
1F
100
AcDbEntity
  8
0
  6
CONTINUOUS
 62
     7
100
AcDbLine
 10
416.6229953883
 20
516.4337020522
 30
0.0
 11
416.6229953883
 21
499.9587018081
 31
0.0
  0
LINE
  5
12A
330
1F
100
AcDbEntity
  8
0
  6
CONTINUOUS
 62
     7
100
AcDbLine
 10
421.6229952766
 20
499.9587018081
 30
0.0
 11
421.6229952766
 21
516.4337020522
 31
0.0
  0
LINE
  5
12B
330
1F
100
AcDbEntity
  8
0
  6
CONTINUOUS
 62
     7
100
AcDbLine
 10
421.6229952766
 20
516.4337020522
 30
0.0
 11
422.1479948504
 21
516.9587016261
 31
0.0
  0
LINE
  5
12C
330
1F
100
AcDbEntity
  8
0
  6
CONTINUOUS
 62
     7
100
AcDbLine
 10
422.1479948504
 20
516.9587016261
 30
0.0
 11
424.4104660941
 21
516.9587016261
 31
0.0
  0
LINE
  5
12D
330
1F
100
AcDbEntity
  8
0
  6
CONTINUOUS
 62
     7
100
AcDbLine
 10
414.7535851119
 20
516.9587016261
 30
0.0
 11
416.0979958145
 21
516.9587016261
 31
0.0
  0
LINE
  5
12E
330
1F
100
AcDbEntity
  8
0
  6
CONTINUOUS
 62
     7
100
AcDbLine
 10
456.6229944943
 20
499.9587018081
 30
0.0
 11
451.622994606
 21
499.9587018081
 31
0.0
  0
LINE
  5
12F
330
1F
100
AcDbEntity
  8
0
  6
CONTINUOUS
 62
     7
100
AcDbLine
 10
456.6229944943
 20
516.4337020522
 30
0.0
 11
451.622994606
 21
516.4337020522
 31
0.0
  0
LINE
  5
130
330
1F
100
AcDbEntity
  8
0
  6
CONTINUOUS
 62
     7
100
AcDbLine
 10
421.6229952766
 20
516.4337020522
 30
0.0
 11
416.6229953883
 21
516.4337020522
 31
0.0
  0
LINE
  5
131
330
1F
100
AcDbEntity
  8
0
  6
CONTINUOUS
 62
     7
100
AcDbLine
 10
422.1479948504
 20
516.9587016261
 30
0.0
 11
416.0979958145
 21
516.9587016261
 31
0.0
  0
LINE
  5
132
330
1F
100
AcDbEntity
  8
0
  6
CONTINUOUS
 62
     7
100
AcDbLine
 10
457.1479940681
 20
516.9587016261
 30
0.0
 11
451.0979950322
 21
516.9587016261
 31
0.0
  0
ARC
  5
133
330
1F
100
AcDbEntity
  8
0
  6
CONTINUOUS
 62
     7
100
AcDbCircle
 10
467.6229585573
 20
499.4586421136
 30
0.0
 40
12.00006938412485
100
AcDbArc
 50
46.8743916466
 51
62.2915434286
  0
ARC
  5
134
330
1F
100
AcDbEntity
  8
0
  6
CONTINUOUS
 62
     7
100
AcDbCircle
 10
405.6228998431
 20
499.4588270105
 30
0.0
 40
11.99984455467768
100
AcDbArc
 50
117.7083112654
 51
133.1257536593
  0
ARC
  5
135
330
1F
100
AcDbEntity
  8
0
  6
CONTINUOUS
 62
     7
100
AcDbCircle
 10
405.623238352
 20
439.4590709514
 30
0.0
 40
12.00043887565936
100
AcDbArc
 50
226.8746896691
 51
242.2913534731
  0
ARC
  5
136
330
1F
100
AcDbEntity
  8
0
  6
CONTINUOUS
 62
     7
100
AcDbCircle
 10
467.6233540084
 20
439.4582237147
 30
0.0
 40
11.99940866043205
100
AcDbArc
 50
297.7079807017
 51
313.1259761561
  0
ARC
  5
137
330
1F
100
AcDbEntity
  8
0
  6
CONTINUOUS
 62
     7
100
AcDbCircle
 10
405.6229945166
 20
439.4587009083
 30
0.0
 40
3.500000080586781
100
AcDbArc
 50
195.5792846144
 51
344.4207153856
  0
LINE
  5
138
330
1F
100
AcDbEntity
  8
0
  6
CONTINUOUS
 62
     7
100
AcDbLine
 10
398.567440909
 20
440.2381230301
 30
0.0
 11
398.567440909
 21
438.67927903
 31
0.0
  0
LINE
  5
139
330
1F
100
AcDbEntity
  8
0
  6
CONTINUOUS
 62
     7
100
AcDbLine
 10
398.3674412487
 20
439.0256900495
 30
0.0
 11
398.3674412487
 21
439.8917157358
 31
0.0
  0
LINE
  5
13A
330
1F
100
AcDbEntity
  8
0
  6
CONTINUOUS
 62
     7
100
AcDbLine
 10
398.3674412487
 20
439.8917157358
 30
0.0
 11
398.567440909
 21
440.2381230301
 31
0.0
  0
LINE
  5
13B
330
1F
100
AcDbEntity
  8
0
  6
CONTINUOUS
 62
     7
100
AcDbLine
 10
398.567440909
 20
438.67927903
 30
0.0
 11
398.3674412487
 21
439.0256900495
 31
0.0
  0
LINE
  5
13C
330
1F
100
AcDbEntity
  8
0
  6
CONTINUOUS
 62
     7
100
AcDbLine
 10
408.4757724671
 20
432.9587046212
 30
0.0
 11
409.8257711051
 21
433.7381247586
 31
0.0
  0
LINE
  5
13D
330
1F
100
AcDbEntity
  8
0
  6
CONTINUOUS
 62
     7
100
AcDbLine
 10
409.8257711051
 20
433.7381247586
 30
0.0
 11
409.6257714449
 21
433.3917174643
 31
0.0
  0
LINE
  5
13E
330
1F
100
AcDbEntity
  8
0
  6
CONTINUOUS
 62
     7
100
AcDbLine
 10
409.6257714449
 20
433.3917174643
 30
0.0
 11
408.8757717876
 21
432.9587046212
 31
0.0
  0
LINE
  5
13F
330
1F
100
AcDbEntity
  8
0
  6
CONTINUOUS
 62
     7
100
AcDbLine
 10
408.8757717876
 20
432.9587046212
 30
0.0
 11
408.4757724671
 21
432.9587046212
 31
0.0
  0
LINE
  5
140
330
1F
100
AcDbEntity
  8
0
  6
CONTINUOUS
 62
     7
100
AcDbLine
 10
401.4202197908
 20
433.7381247586
 30
0.0
 11
402.7702165662
 21
432.9587046212
 31
0.0
  0
LINE
  5
141
330
1F
100
AcDbEntity
  8
0
  6
CONTINUOUS
 62
     7
100
AcDbLine
 10
402.3702172456
 20
432.9587046212
 30
0.0
 11
401.620219451
 21
433.3917174643
 31
0.0
  0
LINE
  5
142
330
1F
100
AcDbEntity
  8
0
  6
CONTINUOUS
 62
     7
100
AcDbLine
 10
402.7702165662
 20
432.9587046212
 30
0.0
 11
402.3702172456
 21
432.9587046212
 31
0.0
  0
LINE
  5
143
330
1F
100
AcDbEntity
  8
0
  6
CONTINUOUS
 62
     7
100
AcDbLine
 10
401.620219451
 20
433.3917174643
 30
0.0
 11
401.4202197908
 21
433.7381247586
 31
0.0
  0
LINE
  5
144
330
1F
100
AcDbEntity
  8
0
  6
CONTINUOUS
 62
     7
100
AcDbLine
 10
402.7702165662
 20
445.9587011641
 30
0.0
 11
401.4202197908
 21
445.1792773014
 31
0.0
  0
LINE
  5
145
330
1F
100
AcDbEntity
  8
0
  6
CONTINUOUS
 62
     7
100
AcDbLine
 10
401.4202197908
 20
445.1792773014
 30
0.0
 11
401.620219451
 21
445.525688321
 31
0.0
  0
LINE
  5
146
330
1F
100
AcDbEntity
  8
0
  6
CONTINUOUS
 62
     7
100
AcDbLine
 10
401.620219451
 20
445.525688321
 30
0.0
 11
402.3702172456
 21
445.9587011641
 31
0.0
  0
LINE
  5
147
330
1F
100
AcDbEntity
  8
0
  6
CONTINUOUS
 62
     7
100
AcDbLine
 10
402.3702172456
 20
445.9587011641
 30
0.0
 11
402.7702165662
 21
445.9587011641
 31
0.0
  0
LINE
  5
148
330
1F
100
AcDbEntity
  8
0
  6
CONTINUOUS
 62
     7
100
AcDbLine
 10
412.6785481243
 20
438.67927903
 30
0.0
 11
412.6785481243
 21
440.2381230301
 31
0.0
  0
LINE
  5
149
330
1F
100
AcDbEntity
  8
0
  6
CONTINUOUS
 62
     7
100
AcDbLine
 10
412.8785477845
 20
439.8917157358
 30
0.0
 11
412.8785477845
 21
439.0256900495
 31
0.0
  0
LINE
  5
14A
330
1F
100
AcDbEntity
  8
0
  6
CONTINUOUS
 62
     7
100
AcDbLine
 10
412.8785477845
 20
439.0256900495
 30
0.0
 11
412.6785481243
 21
438.67927903
 31
0.0
  0
LINE
  5
14B
330
1F
100
AcDbEntity
  8
0
  6
CONTINUOUS
 62
     7
100
AcDbLine
 10
412.6785481243
 20
440.2381230301
 30
0.0
 11
412.8785477845
 21
439.8917157358
 31
0.0
  0
LINE
  5
14C
330
1F
100
AcDbEntity
  8
0
  6
CONTINUOUS
 62
     7
100
AcDbLine
 10
401.4202197908
 20
445.1792773014
 30
0.0
 11
398.567440909
 21
440.2381230301
 31
0.0
  0
LINE
  5
14D
330
1F
100
AcDbEntity
  8
0
  6
CONTINUOUS
 62
     7
100
AcDbLine
 10
409.8257711051
 20
445.1792773014
 30
0.0
 11
408.4757724671
 21
445.9587011641
 31
0.0
  0
CIRCLE
  5
14E
330
1F
100
AcDbEntity
  8
0
  6
CONTINUOUS
 62
     7
100
AcDbCircle
 10
405.6229941249
 20
438.9587001578
 30
0.0
 40
4.025000683283018
  0
LINE
  5
14F
330
1F
100
AcDbEntity
  8
0
  6
CONTINUOUS
 62
     7
100
AcDbLine
 10
409.8257711051
 20
433.7381247586
 30
0.0
 11
412.6785481243
 21
438.67927903
 31
0.0
  0
LINE
  5
150
330
1F
100
AcDbEntity
  8
0
  6
CONTINUOUS
 62
     7
100
AcDbLine
 10
408.4757724671
 20
445.9587011641
 30
0.0
 11
402.7702165662
 21
445.9587011641
 31
0.0
  0
LINE
  5
151
330
1F
100
AcDbEntity
  8
0
  6
CONTINUOUS
 62
     7
100
AcDbLine
 10
402.7702165662
 20
432.9587046212
 30
0.0
 11
408.4757724671
 21
432.9587046212
 31
0.0
  0
LINE
  5
152
330
1F
100
AcDbEntity
  8
0
  6
CONTINUOUS
 62
     7
100
AcDbLine
 10
412.6785481243
 20
440.2381230301
 30
0.0
 11
409.8257711051
 21
445.1792773014
 31
0.0
  0
LINE
  5
153
330
1F
100
AcDbEntity
  8
0
  6
CONTINUOUS
 62
     7
100
AcDbLine
 10
398.567440909
 20
438.67927903
 30
0.0
 11
401.4202197908
 21
433.7381247586
 31
0.0
  0
CIRCLE
  5
154
330
1F
100
AcDbEntity
  8
0
  6
CONTINUOUS
 62
     7
100
AcDbCircle
 10
405.6229952436
 20
438.9587007774
 30
0.0
 40
3.40000254499663
  0
LINE
  5
155
330
1F
100
AcDbEntity
  8
0
  6
CONTINUOUS
 62
     7
100
AcDbLine
 10
408.8757717876
 20
445.9587011641
 30
0.0
 11
409.6257714449
 21
445.525688321
 31
0.0
  0
LINE
  5
156
330
1F
100
AcDbEntity
  8
0
  6
CONTINUOUS
 62
     7
100
AcDbLine
 10
408.4757724671
 20
445.9587011641
 30
0.0
 11
408.8757717876
 21
445.9587011641
 31
0.0
  0
LINE
  5
157
330
1F
100
AcDbEntity
  8
0
  6
CONTINUOUS
 62
     7
100
AcDbLine
 10
409.6257714449
 20
445.525688321
 30
0.0
 11
409.8257711051
 21
445.1792773014
 31
0.0
  0
LINE
  5
158
330
1F
100
AcDbEntity
  8
0
  6
CONTINUOUS
 62
     7
100
AcDbLine
 10
436.2229949514
 20
672.0648307508
 30
0.0
 11
436.2229949514
 21
588.6411491937
 31
0.0
  0
ARC
  5
159
330
1F
100
AcDbEntity
  8
0
  6
CONTINUOUS
 62
     7
100
AcDbCircle
 10
436.6229943825
 20
585.1640824384
 30
0.0
 40
3.499998966521335
100
AcDbArc
 50
96.5624204403
 51
263.4375795597
  0
LINE
  5
15A
330
1F
100
AcDbEntity
  8
0
  6
CONTINUOUS
 62
     7
100
AcDbLine
 10
436.2229949514
 20
581.6870156831
 30
0.0
 11
436.2229949514
 21
516.9587016261
 31
0.0
  0
LINE
  5
15B
330
1F
100
AcDbEntity
  8
0
  6
CONTINUOUS
 62
     7
100
AcDbLine
 10
436.2229949514
 20
513.1764944798
 30
0.0
 11
436.2229949514
 21
508.2409095174
 31
0.0
  0
LINE
  5
15C
330
1F
100
AcDbEntity
  8
0
  6
CONTINUOUS
 62
     7
100
AcDbLine
 10
436.2229949514
 20
430.6764949268
 30
0.0
 11
436.2229949514
 21
425.7409099644
 31
0.0
  0
LINE
  5
15D
330
1F
100
AcDbEntity
  8
0
  6
CONTINUOUS
 62
     7
100
AcDbLine
 10
436.2229949514
 20
421.9587046808
 30
0.0
 11
436.2229949514
 21
418.6411474055
 31
0.0
  0
LINE
  5
15E
330
1F
100
AcDbEntity
  8
0
  6
CONTINUOUS
 62
     7
100
AcDbLine
 10
436.2229949514
 20
411.6870138949
 30
0.0
 11
436.2229949514
 21
382.3561344451
 31
0.0
  0
LINE
  5
15F
330
1F
100
AcDbEntity
  8
0
  6
CONTINUOUS
 62
     7
100
AcDbLine
 10
429.8729947662
 20
676.2923050827
 30
0.0
 11
429.8729947662
 21
516.9587016261
 31
0.0
  0
LINE
  5
160
330
1F
100
AcDbEntity
  8
0
  6
CONTINUOUS
 62
     7
100
AcDbLine
 10
429.8729947662
 20
421.9587046808
 30
0.0
 11
429.8729947662
 21
386.5836013264
 31
0.0
  0
ARC
  5
161
330
1F
100
AcDbEntity
  8
0
  6
CONTINUOUS
 62
     7
100
AcDbCircle
 10
436.622993007
 20
415.1640806502
 30
0.0
 40
3.499998809325921
100
AcDbArc
 50
96.5623980712
 51
263.4376019288
  0
LINE
  5
162
330
1F
100
AcDbEntity
  8
0
  6
CONTINUOUS
 62
     7
100
AcDbLine
 10
437.0229949312
 20
411.6870138949
 30
0.0
 11
437.0229949312
 21
381.8235445923
 31
0.0
  0
ARC
  5
163
330
1F
100
AcDbEntity
  8
0
  6
CONTINUOUS
 62
     7
100
AcDbCircle
 10
436.6231677617
 20
415.162220142
 30
0.0
 40
3.498130961699584
100
AcDbArc
 50
272.3141346435
 51
276.5631001077
  0
LINE
  5
164
330
1F
100
AcDbEntity
  8
0
  6
CONTINUOUS
 62
     7
100
AcDbLine
 10
443.3729951164
 20
667.3047889179
 30
0.0
 11
443.3729951164
 21
516.9587016261
 31
0.0
  0
LINE
  5
165
330
1F
100
AcDbEntity
  8
0
  6
CONTINUOUS
 62
     7
100
AcDbLine
 10
443.3729951164
 20
421.9587046808
 30
0.0
 11
443.3729951164
 21
377.5960851616
 31
0.0
  0
LINE
  5
166
330
1F
100
AcDbEntity
  8
0
  6
CONTINUOUS
 62
     7
100
AcDbLine
 10
437.0229949312
 20
581.6870156831
 30
0.0
 11
437.0229949312
 21
516.9587016261
 31
0.0
  0
LINE
  5
167
330
1F
100
AcDbEntity
  8
0
  6
CONTINUOUS
 62
     7
100
AcDbLine
 10
437.0229949312
 20
513.1764944798
 30
0.0
 11
437.0229949312
 21
508.2409095174
 31
0.0
  0
LINE
  5
168
330
1F
100
AcDbEntity
  8
0
  6
CONTINUOUS
 62
     7
100
AcDbLine
 10
437.0229949312
 20
430.6764949268
 30
0.0
 11
437.0229949312
 21
425.7409099644
 31
0.0
  0
LINE
  5
169
330
1F
100
AcDbEntity
  8
0
  6
CONTINUOUS
 62
     7
100
AcDbLine
 10
437.0229949312
 20
421.9587046808
 30
0.0
 11
437.0229949312
 21
418.6411474055
 31
0.0
  0
ARC
  5
16A
330
1F
100
AcDbEntity
  8
0
  6
CONTINUOUS
 62
     7
100
AcDbCircle
 10
436.6229968756
 20
585.1640824384
 30
0.0
 40
3.499998809325864
100
AcDbArc
 50
276.5623980712
 51
83.4376019288
  0
LINE
  5
16B
330
1F
100
AcDbEntity
  8
0
  6
CONTINUOUS
 62
     7
100
AcDbLine
 10
437.0229949312
 20
671.5322483486
 30
0.0
 11
437.0229949312
 21
588.6411491937
 31
0.0
  0
ARC
  5
16C
330
1F
100
AcDbEntity
  8
0
  6
CONTINUOUS
 62
     7
100
AcDbCircle
 10
436.6229955001
 20
415.1640806502
 30
0.0
 40
3.499998966521378
100
AcDbArc
 50
276.5624204403
 51
83.4375795597
  0
ARC
  5
16D
330
1F
100
AcDbEntity
  8
0
  6
CONTINUOUS
 62
     7
100
AcDbCircle
 10
436.6228221209
 20
415.162220142
 30
0.0
 40
3.498130961701739
100
AcDbArc
 50
263.4368998923
 51
267.6858653565
  0
LINE
  5
16E
330
1F
100
AcDbEntity
  8
0
  6
CONTINUOUS
 62
     7
100
AcDbLine
 10
452.8729943453
 20
673.036043734
 30
0.0
 11
452.8729943453
 21
516.9587016261
 31
0.0
  0
LINE
  5
16F
330
1F
100
AcDbEntity
  8
0
  6
CONTINUOUS
 62
     7
100
AcDbLine
 10
452.8729943453
 20
421.9587046808
 30
0.0
 11
452.8729943453
 21
383.3273399776
 31
0.0
  0
LINE
  5
170
330
1F
100
AcDbEntity
  8
0
  6
CONTINUOUS
 62
     7
100
AcDbLine
 10
420.3729955373
 20
670.5610353655
 30
0.0
 11
420.3729955373
 21
516.9587016261
 31
0.0
  0
LINE
  5
171
330
1F
100
AcDbEntity
  8
0
  6
CONTINUOUS
 62
     7
100
AcDbLine
 10
420.3729955373
 20
421.9587046808
 30
0.0
 11
420.3729955373
 21
380.8523390597
 31
0.0
  0
ARC
  5
172
330
1F
100
AcDbEntity
  8
0
  6
CONTINUOUS
 62
     7
100
AcDbCircle
 10
436.6225949763
 20
585.1683012304
 30
0.0
 40
3.504235891885178
100
AcDbArc
 50
272.3194738074
 51
276.5610429559
  0
ARC
  5
173
330
1F
100
AcDbEntity
  8
0
  6
CONTINUOUS
 62
     7
100
AcDbCircle
 10
436.6225949763
 20
415.1598618582
 30
0.0
 40
3.504235891835397
100
AcDbArc
 50
83.4389570441
 51
87.6805261926
  0
ARC
  5
174
330
1F
100
AcDbEntity
  8
0
  6
CONTINUOUS
 62
     7
100
AcDbCircle
 10
436.6233949063
 20
585.1683012304
 30
0.0
 40
3.504235891884258
100
AcDbArc
 50
263.4389570441
 51
267.6805261926
  0
ARC
  5
175
330
1F
100
AcDbEntity
  8
0
  6
CONTINUOUS
 62
     7
100
AcDbCircle
 10
436.6233949063
 20
415.1598618582
 30
0.0
 40
3.504235891837729
100
AcDbArc
 50
92.3194738074
 51
96.5610429559
  0
LINE
  5
176
330
1F
100
AcDbEntity
  8
0
  6
CONTINUOUS
 62
     7
100
AcDbLine
 10
454.3729955224
 20
674.5360393232
 30
0.0
 11
454.3729955224
 21
516.9587016261
 31
0.0
  0
LINE
  5
177
330
1F
100
AcDbEntity
  8
0
  6
CONTINUOUS
 62
     7
100
AcDbLine
 10
454.3729955224
 20
421.9587046808
 30
0.0
 11
454.3729955224
 21
384.8273430175
 31
0.0
  0
ARC
  5
178
330
1F
100
AcDbEntity
  8
0
  6
CONTINUOUS
 62
     7
100
AcDbCircle
 10
436.6231677617
 20
585.1659429466
 30
0.0
 40
3.498130961652925
100
AcDbArc
 50
83.4368998923
 51
87.6858653565
  0
LINE
  5
179
330
1F
100
AcDbEntity
  8
0
  6
CONTINUOUS
 62
     7
100
AcDbLine
 10
418.8729943602
 20
379.3523434705
 30
0.0
 11
418.8729943602
 21
421.9587046808
 31
0.0
  0
LINE
  5
17A
330
1F
100
AcDbEntity
  8
0
  6
CONTINUOUS
 62
     7
100
AcDbLine
 10
418.8729943602
 20
516.9587016261
 30
0.0
 11
418.8729943602
 21
669.0610397762
 31
0.0
  0
ARC
  5
17B
330
1F
100
AcDbEntity
  8
0
  6
CONTINUOUS
 62
     7
100
AcDbCircle
 10
436.6228221209
 20
585.1659429466
 30
0.0
 40
3.49813096165816
100
AcDbArc
 50
92.3141346435
 51
96.5631001077
  0
SPLINE
  5
17C
330
1F
100
AcDbEntity
  8
0
  6
CONTINUOUS
 62
     7
100
AcDbSpline
210
0.0
220
0.0
230
1.0
 70
     8
 71
     3
 72
    12
 73
     8
 74
     0
 42
0.00000001
 43
0.00000001
 40
0.0
 40
0.0
 40
0.0
 40
0.0
 40
0.1936958594201311
 40
0.4219006695581884
 40
0.6586622522257676
 40
0.8774423535132468
 40
1.0
 40
1.0
 40
1.0
 40
1.0
 10
436.7644163033589
 20
581.6669363683521
 30
0.0
 10
436.7461610490009
 20
581.6662841516849
 30
0.0
 10
436.7063981750829
 20
581.6648635191042
 30
0.0
 10
436.6442842704593
 20
581.6639489728709
 30
0.0
 10
436.5798008890418
 20
581.6641533768125
 30
0.0
 10
436.5252910494333
 20
581.6652994514651
 30
0.0
 10
436.493123403454
 20
581.6665039073197
 30
0.0
 10
436.4815735792405
 20
581.6669363683521
 30
0.0
  0
SPLINE
  5
17D
330
1F
100
AcDbEntity
  8
0
  6
CONTINUOUS
 62
     7
100
AcDbSpline
210
0.0
220
0.0
230
1.0
 70
     8
 71
     3
 72
    12
 73
     8
 74
     0
 42
0.00000001
 43
0.00000001
 40
0.0
 40
0.0
 40
0.0
 40
0.0
 40
0.1936958594201311
 40
0.4219006695581884
 40
0.6586622522257676
 40
0.8774423535132468
 40
1.0
 40
1.0
 40
1.0
 40
1.0
 10
436.4815735792405
 20
418.6612267202198
 30
0.0
 10
436.4998288335985
 20
418.6618789368871
 30
0.0
 10
436.5395917075166
 20
418.6632995694678
 30
0.0
 10
436.6017056121402
 20
418.6642141157012
 30
0.0
 10
436.6661889935577
 20
418.6640097117595
 30
0.0
 10
436.7206988331662
 20
418.6628636371069
 30
0.0
 10
436.7528664791454
 20
418.6616591812523
 30
0.0
 10
436.7644163033589
 20
418.6612267202198
 30
0.0
  0
SPLINE
  5
17E
330
1F
100
AcDbEntity
  8
0
  6
CONTINUOUS
 62
     7
100
AcDbSpline
210
0.0
220
0.0
230
1.0
 70
     8
 71
     3
 72
    12
 73
     8
 74
     0
 42
0.00000001
 43
0.00000001
 40
0.0
 40
0.0
 40
0.0
 40
0.0
 40
0.193696534111098
 40
0.421901128837389
 40
0.6586625744282976
 40
0.8774424692003749
 40
0.9999999999999999
 40
0.9999999999999999
 40
0.9999999999999999
 40
0.9999999999999999
 10
436.4815735792405
 20
588.6612210577786
 30
0.0
 10
436.4998288130465
 20
588.6618762015443
 30
0.0
 10
436.539591546981
 20
588.6633032063976
 30
0.0
 10
436.6017056523302
 20
588.6642178502532
 30
0.0
 10
436.666188971118
 20
588.6640016720766
 30
0.0
 10
436.7206988349163
 20
588.6628582657962
 30
0.0
 10
436.7528664796078
 20
588.6616535957256
 30
0.0
 10
436.7644163033589
 20
588.6612210577786
 30
0.0
  0
SPLINE
  5
17F
330
1F
100
AcDbEntity
  8
0
  6
CONTINUOUS
 62
     7
100
AcDbSpline
210
0.0
220
0.0
230
1.0
 70
     8
 71
     3
 72
    12
 73
     8
 74
     0
 42
0.00000001
 43
0.00000001
 40
0.0
 40
0.0
 40
0.0
 40
0.0
 40
0.193696534111098
 40
0.421901128837389
 40
0.6586625744282976
 40
0.8774424692003749
 40
0.9999999999999999
 40
0.9999999999999999
 40
0.9999999999999999
 40
0.9999999999999999
 10
436.7644163033589
 20
411.6669420307934
 30
0.0
 10
436.746161069553
 20
411.6662868870278
 30
0.0
 10
436.7063983356185
 20
411.6648598821745
 30
0.0
 10
436.6442842302692
 20
411.6639452383188
 30
0.0
 10
436.5798009114814
 20
411.6641614164955
 30
0.0
 10
436.5252910476831
 20
411.6653048227757
 30
0.0
 10
436.4931234029917
 20
411.6665094928464
 30
0.0
 10
436.4815735792405
 20
411.6669420307934
 30
0.0
  0
LINE
  5
180
330
1F
100
AcDbEntity
  8
0
  6
CONTINUOUS
 62
     7
100
AcDbLine
 10
416.1229943751
 20
364.6023483889
 30
0.0
 11
416.1229943751
 21
343.3743925707
 31
0.0
  0
LINE
  5
181
330
1F
100
AcDbEntity
  8
0
  6
CONTINUOUS
 62
     7
100
AcDbLine
 10
457.1229955075
 20
343.3743925707
 30
0.0
 11
457.1229955075
 21
375.5773516314
 31
0.0
  0
LINE
  5
182
330
1F
100
AcDbEntity
  8
0
  6
CONTINUOUS
 62
     7
100
AcDbLine
 10
418.8729943602
 20
343.3743925707
 30
0.0
 11
416.1229943751
 21
343.3743925707
 31
0.0
  0
LINE
  5
183
330
1F
100
AcDbEntity
  8
0
  6
CONTINUOUS
 62
     7
100
AcDbLine
 10
457.1229955075
 20
343.3743925707
 30
0.0
 11
454.3729955224
 21
343.3743925707
 31
0.0
  0
LINE
  5
184
330
1F
100
AcDbEntity
  8
0
  6
CONTINUOUS
 62
     7
100
AcDbLine
 10
436.2229949514
 20
343.3743925707
 30
0.0
 11
436.4815735792
 21
343.3743925707
 31
0.0
  0
LINE
  5
185
330
1F
100
AcDbEntity
  8
0
  6
CONTINUOUS
 62
     7
100
AcDbLine
 10
436.2229949514
 20
370.3561337607
 30
0.0
 11
436.2229949514
 21
343.3743925707
 31
0.0
  0
LINE
  5
186
330
1F
100
AcDbEntity
  8
0
  6
CONTINUOUS
 62
     7
100
AcDbLine
 10
436.2229949514
 20
343.3743925707
 30
0.0
 11
429.8729947662
 21
343.3743925707
 31
0.0
  0
LINE
  5
187
330
1F
100
AcDbEntity
  8
0
  6
CONTINUOUS
 62
     7
100
AcDbLine
 10
429.8729947662
 20
374.5835931914
 30
0.0
 11
429.8729947662
 21
343.3743925707
 31
0.0
  0
LINE
  5
188
330
1F
100
AcDbEntity
  8
0
  6
CONTINUOUS
 62
     7
100
AcDbLine
 10
443.3729951164
 20
365.5960770266
 30
0.0
 11
443.3729951164
 21
343.3743925707
 31
0.0
  0
LINE
  5
189
330
1F
100
AcDbEntity
  8
0
  6
CONTINUOUS
 62
     7
100
AcDbLine
 10
443.3729951164
 20
343.3743925707
 30
0.0
 11
437.0229949312
 21
343.3743925707
 31
0.0
  0
LINE
  5
18A
330
1F
100
AcDbEntity
  8
0
  6
CONTINUOUS
 62
     7
100
AcDbLine
 10
437.0229949312
 20
369.8235364573
 30
0.0
 11
437.0229949312
 21
343.3743925707
 31
0.0
  0
LINE
  5
18B
330
1F
100
AcDbEntity
  8
0
  6
CONTINUOUS
 62
     7
100
AcDbLine
 10
452.8729943453
 20
371.3273318427
 30
0.0
 11
452.8729943453
 21
343.3743925707
 31
0.0
  0
LINE
  5
18C
330
1F
100
AcDbEntity
  8
0
  6
CONTINUOUS
 62
     7
100
AcDbLine
 10
449.1019006712
 20
343.3743925707
 30
0.0
 11
452.8729943453
 21
343.3743925707
 31
0.0
  0
LINE
  5
18D
330
1F
100
AcDbEntity
  8
0
  6
CONTINUOUS
 62
     7
100
AcDbLine
 10
436.7644163034
 20
343.3743925707
 30
0.0
 11
437.0229949312
 21
343.3743925707
 31
0.0
  0
LINE
  5
18E
330
1F
100
AcDbEntity
  8
0
  6
CONTINUOUS
 62
     7
100
AcDbLine
 10
420.3729955373
 20
368.8523383753
 30
0.0
 11
420.3729955373
 21
343.3743925707
 31
0.0
  0
LINE
  5
18F
330
1F
100
AcDbEntity
  8
0
  6
CONTINUOUS
 62
     7
100
AcDbLine
 10
424.1440892114
 20
343.3743925707
 30
0.0
 11
420.3729955373
 21
343.3743925707
 31
0.0
  0
LINE
  5
190
330
1F
100
AcDbEntity
  8
0
  6
CONTINUOUS
 62
     7
100
AcDbLine
 10
420.3729955373
 20
343.3743925707
 30
0.0
 11
419.8729945241
 21
343.3743925707
 31
0.0
  0
LINE
  5
191
330
1F
100
AcDbEntity
  8
0
  6
CONTINUOUS
 62
     7
100
AcDbLine
 10
443.3729951164
 20
343.3743925707
 30
0.0
 11
447.2276409982
 21
343.3743925707
 31
0.0
  0
LINE
  5
192
330
1F
100
AcDbEntity
  8
0
  6
CONTINUOUS
 62
     7
100
AcDbLine
 10
429.8729947662
 20
343.3743925707
 30
0.0
 11
426.0183488844
 21
343.3743925707
 31
0.0
  0
LINE
  5
193
330
1F
100
AcDbEntity
  8
0
  6
CONTINUOUS
 62
     7
100
AcDbLine
 10
453.3729953585
 20
343.3743925707
 30
0.0
 11
452.8729943453
 21
343.3743925707
 31
0.0
  0
LINE
  5
194
330
1F
100
AcDbEntity
  8
0
  6
CONTINUOUS
 62
     7
100
AcDbLine
 10
454.3729955224
 20
372.8273423331
 30
0.0
 11
454.3729955224
 21
343.3743925707
 31
0.0
  0
LINE
  5
195
330
1F
100
AcDbEntity
  8
0
  6
CONTINUOUS
 62
     7
100
AcDbLine
 10
454.3729955224
 20
343.3743925707
 30
0.0
 11
453.3729953585
 21
343.3743925707
 31
0.0
  0
LINE
  5
196
330
1F
100
AcDbEntity
  8
0
  6
CONTINUOUS
 62
     7
100
AcDbLine
 10
418.8729943602
 20
343.3743925707
 30
0.0
 11
418.8729943602
 21
367.3523278849
 31
0.0
  0
LINE
  5
197
330
1F
100
AcDbEntity
  8
0
  6
CONTINUOUS
 62
     7
100
AcDbLine
 10
419.8729945241
 20
343.3743925707
 30
0.0
 11
418.8729943602
 21
343.3743925707
 31
0.0
  0
LINE
  5
198
330
1F
100
AcDbEntity
  8
0
  6
CONTINUOUS
 62
     7
100
AcDbLine
 10
436.7644163034
 20
343.3743925707
 30
0.0
 11
436.4815735792
 21
343.3743925707
 31
0.0
  0
LINE
  5
199
330
1F
100
AcDbEntity
  8
0
  6
CONTINUOUS
 62
     7
100
AcDbLine
 10
447.2276409982
 20
343.3743925707
 30
0.0
 11
449.1019006712
 21
343.3743925707
 31
0.0
  0
LINE
  5
19A
330
1F
100
AcDbEntity
  8
0
  6
CONTINUOUS
 62
     7
100
AcDbLine
 10
426.0183488844
 20
343.3743925707
 30
0.0
 11
424.1440892114
 21
343.3743925707
 31
0.0
  0
DIMENSION
  5
19B
330
1F
100
AcDbEntity
  8
OPISY
100
AcDbDimension
  2
*D4
 10
505.0152997867
 20
516.9587018117
 30
0.0
 11
505.0152997867
 21
510.9587018117
 31
0.0
 70
   160
  3
SLDDIMSTYLE0
100
AcDbAlignedDimension
 13
457.1229949413
 23
504.9587018117
 33
0.0
 14
476.6229949413
 24
516.9587018117
 34
0.0
 50
90.0
100
AcDbRotatedDimension
  0
DIMENSION
  5
1A8
330
1F
100
AcDbEntity
  8
OPISY
100
AcDbDimension
  2
*D5
 10
457.1479949413
 20
543.1128571069
 30
0.0
 11
486.3961755255
 21
543.1128571069
 31
0.0
 70
   160
  1
2 x M6
  3
SLDDIMSTYLE0
100
AcDbAlignedDimension
 13
451.0979949413
 23
516.9587018117
 33
0.0
 14
457.1479949413
 24
516.9587018117
 34
0.0
100
AcDbRotatedDimension
  0
DIMENSION
  5
1B5
330
1F
100
AcDbEntity
  8
OPISY
100
AcDbDimension
  2
*D6
 10
457.1229949413
 20
727.9052205059
 30
0.0
 11
436.6229949413
 21
727.9052205059
 31
0.0
 70
   160
  1
%%c<>
  3
SLDDIMSTYLE0
100
AcDbAlignedDimension
 13
416.1229949413
 23
706.9052205059
 33
0.0
 14
457.1229949413
 24
706.9052205059
 34
0.0
100
AcDbRotatedDimension
  0
DIMENSION
  5
1C2
330
1F
100
AcDbEntity
  8
OPISY
100
AcDbDimension
  2
*D7
 10
523.0152997867
 20
706.9052205059
 30
0.0
 11
523.0152997867
 21
525.1398065383
 31
0.0
 70
   160
  1
L max 2500mm
  3
SLDDIMSTYLE1
100
AcDbAlignedDimension
 13
457.1229949413
 23
343.3743925707
 33
0.0
 14
457.1229949413
 24
706.9052205059
 34
0.0
 50
90.0
100
AcDbRotatedDimension
  0
DIMENSION
  5
1CD
330
1F
100
AcDbEntity
  8
OPISY
100
AcDbDimension
  2
*D8
 10
481.6229949413
 20
304.3743925707
 30
0.0
 11
436.6229949413
 21
304.3743925707
 31
0.0
 70
   160
  3
SLDDIMSTYLE1
100
AcDbAlignedDimension
 13
391.6229949413
 23
426.9587018117
 33
0.0
 14
481.6229949413
 24
426.9587018117
 34
0.0
100
AcDbRotatedDimension
  0
DIMENSION
  5
1D7
330
1F
100
AcDbEntity
  8
OPISY
100
AcDbDimension
  2
*D9
 10
475.6229949413
 20
322.3743925707
 30
0.0
 11
436.6229949413
 21
322.3743925707
 31
0.0
 70
   160
  3
SLDDIMSTYLE1
100
AcDbAlignedDimension
 13
397.6229949413
 23
422.7087018117
 33
0.0
 14
475.6229949413
 24
422.7087018117
 34
0.0
100
AcDbRotatedDimension
  0
DIMENSION
  5
1E1
330
1F
100
AcDbEntity
  8
OPISY
100
AcDbDimension
  2
*D10
 10
368.2306900959
 20
428.2087018117
 30
0.0
 11
368.2306900959
 21
469.4587018117
 31
0.0
 70
   160
  3
SLDDIMSTYLE1
100
AcDbAlignedDimension
 13
392.1229949413
 23
510.7087018117
 33
0.0
 14
392.1229949413
 24
428.2087018117
 34
0.0
 50
90.0
100
AcDbRotatedDimension
  0
DIMENSION
  5
1EB
330
1F
100
AcDbEntity
  8
OPISY
100
AcDbDimension
  2
*D11
 10
395.5016745977
 20
512.8300221553
 30
0.0
 11
369.0777292293
 21
539.2540275237
 31
0.0
 70
   163
  1
8 x M6
  3
SLDDIMSTYLE2
100
AcDbDiametricDimension
 15
399.7443152849
 25
508.5873814682
 35
0.0
 40
0.0
  0
DIMENSION
  5
1F6
330
1F
100
AcDbEntity
  8
OPISY
100
AcDbDimension
  2
*D12
 10
350.2306900959
 20
421.9587018117
 30
0.0
 11
350.2306900959
 21
469.4587018117
 31
0.0
 70
   160
  3
SLDDIMSTYLE1
100
AcDbAlignedDimension
 13
396.6229949413
 23
516.9587018117
 33
0.0
 14
396.6229949413
 24
421.9587018117
 34
0.0
 50
90.0
100
AcDbRotatedDimension
  0
INSERT
  5
20B
330
1F
100
AcDbEntity
  8
OPISY
100
AcDbBlockReference
  2
SW_CENTERMARKSYMBOL_0
 10
397.6229941366
 20
510.7087019986
 30
0.0
  0
INSERT
  5
217
330
1F
100
AcDbEntity
  8
OPISY
100
AcDbBlockReference
  2
SW_CENTERMARKSYMBOL_1
 10
436.6229949413
 20
510.7087019986
 30
0.0
  0
INSERT
  5
223
330
1F
100
AcDbEntity
  8
OPISY
100
AcDbBlockReference
  2
SW_CENTERMARKSYMBOL_2
 10
475.622995746
 20
510.7087019986
 30
0.0
  0
INSERT
  5
22F
330
1F
100
AcDbEntity
  8
OPISY
100
AcDbBlockReference
  2
SW_CENTERMARKSYMBOL_3
 10
467.6229944347
 20
499.4587017844
 30
0.0
  0
INSERT
  5
23B
330
1F
100
AcDbEntity
  8
OPISY
100
AcDbBlockReference
  2
SW_CENTERMARKSYMBOL_4
 10
405.6229954479
 20
499.4587017844
 30
0.0
  0
INSERT
  5
247
330
1F
100
AcDbEntity
  8
OPISY
100
AcDbBlockReference
  2
SW_CENTERMARKSYMBOL_5
 10
397.6229941366
 20
469.4587022221
 30
0.0
  0
INSERT
  5
253
330
1F
100
AcDbEntity
  8
OPISY
100
AcDbBlockReference
  2
SW_CENTERMARKSYMBOL_6
 10
475.622995746
 20
469.4587022221
 30
0.0
  0
INSERT
  5
25F
330
1F
100
AcDbEntity
  8
OPISY
100
AcDbBlockReference
  2
SW_CENTERMARKSYMBOL_7
 10
467.6229944347
 20
439.4587028927
 30
0.0
  0
INSERT
  5
26B
330
1F
100
AcDbEntity
  8
OPISY
100
AcDbBlockReference
  2
SW_CENTERMARKSYMBOL_8
 10
405.6229954479
 20
439.4587028927
 30
0.0
  0
INSERT
  5
277
330
1F
100
AcDbEntity
  8
OPISY
100
AcDbBlockReference
  2
SW_CENTERMARKSYMBOL_9
 10
397.6229941366
 20
428.2086987203
 30
0.0
  0
INSERT
  5
283
330
1F
100
AcDbEntity
  8
OPISY
100
AcDbBlockReference
  2
SW_CENTERMARKSYMBOL_10
 10
436.6229949413
 20
428.2086987203
 30
0.0
  0
INSERT
  5
28F
330
1F
100
AcDbEntity
  8
OPISY
100
AcDbBlockReference
  2
SW_CENTERMARKSYMBOL_11
 10
475.622995746
 20
428.2086987203
 30
0.0
  0
LINE
  5
290
330
1F
100
AcDbEntity
  8
0
  6
HIDDEN
 62
     7
100
AcDbLine
 10
466.6479949413
 20
370.0898413057
 30
0.0
 11
457.6354949413
 21
376.0898413057
 31
0.0
  0
LINE
  5
291
330
1F
100
AcDbEntity
  8
0
  6
HIDDEN
 62
     7
100
AcDbLine
 10
457.6354949413
 20
376.0898413057
 30
0.0
 11
445.6354949413
 21
364.0898413057
 31
0.0
  0
LINE
  5
292
330
1F
100
AcDbEntity
  8
0
  6
HIDDEN
 62
     7
100
AcDbLine
 10
445.6354949413
 20
364.0898413057
 30
0.0
 11
427.6104949413
 21
376.0898413057
 31
0.0
  0
LINE
  5
293
330
1F
100
AcDbEntity
  8
0
  6
HIDDEN
 62
     7
100
AcDbLine
 10
427.6104949413
 20
376.0898413057
 30
0.0
 11
415.6104949413
 21
364.0898413057
 31
0.0
  0
LINE
  5
294
330
1F
100
AcDbEntity
  8
0
  6
HIDDEN
 62
     7
100
AcDbLine
 10
415.6104949413
 20
364.0898413057
 30
0.0
 11
406.5979949413
 21
370.0898413057
 31
0.0
  0
LINE
  5
295
330
1F
100
AcDbEntity
  8
0
  6
HIDDEN
 62
     7
100
AcDbLine
 10
466.6479949413
 20
382.0898413057
 30
0.0
 11
457.6354949413
 21
388.0898413057
 31
0.0
  0
LINE
  5
296
330
1F
100
AcDbEntity
  8
0
  6
HIDDEN
 62
     7
100
AcDbLine
 10
457.6354949413
 20
388.0898413057
 30
0.0
 11
445.6354949413
 21
376.0898413057
 31
0.0
  0
LINE
  5
297
330
1F
100
AcDbEntity
  8
0
  6
HIDDEN
 62
     7
100
AcDbLine
 10
445.6354949413
 20
376.0898413057
 30
0.0
 11
427.6104949413
 21
388.0898413057
 31
0.0
  0
LINE
  5
298
330
1F
100
AcDbEntity
  8
0
  6
HIDDEN
 62
     7
100
AcDbLine
 10
427.6104949413
 20
388.0898413057
 30
0.0
 11
415.6104949413
 21
376.0898413057
 31
0.0
  0
LINE
  5
299
330
1F
100
AcDbEntity
  8
0
  6
HIDDEN
 62
     7
100
AcDbLine
 10
415.6104949413
 20
376.0898413057
 30
0.0
 11
406.5979949413
 21
382.0898413057
 31
0.0
  0
LINE
  5
29A
330
1F
100
AcDbEntity
  8
0
  6
HIDDEN
 62
     7
100
AcDbLine
 10
466.6479949413
 20
671.7985412342
 30
0.0
 11
457.6354949413
 21
677.7985412342
 31
0.0
  0
LINE
  5
29B
330
1F
100
AcDbEntity
  8
0
  6
HIDDEN
 62
     7
100
AcDbLine
 10
457.6354949413
 20
677.7985412342
 30
0.0
 11
445.6354949413
 21
665.7985412342
 31
0.0
  0
LINE
  5
29C
330
1F
100
AcDbEntity
  8
0
  6
HIDDEN
 62
     7
100
AcDbLine
 10
445.6354949413
 20
665.7985412342
 30
0.0
 11
427.6104949413
 21
677.7985412342
 31
0.0
  0
LINE
  5
29D
330
1F
100
AcDbEntity
  8
0
  6
HIDDEN
 62
     7
100
AcDbLine
 10
427.6104949413
 20
677.7985412342
 30
0.0
 11
415.6104949413
 21
665.7985412342
 31
0.0
  0
LINE
  5
29E
330
1F
100
AcDbEntity
  8
0
  6
HIDDEN
 62
     7
100
AcDbLine
 10
415.6104949413
 20
665.7985412342
 30
0.0
 11
406.5979949413
 21
671.7985412342
 31
0.0
  0
LINE
  5
29F
330
1F
100
AcDbEntity
  8
0
  6
HIDDEN
 62
     7
100
AcDbLine
 10
466.6479949413
 20
683.7985412342
 30
0.0
 11
457.6354949413
 21
689.7985412342
 31
0.0
  0
LINE
  5
2A0
330
1F
100
AcDbEntity
  8
0
  6
HIDDEN
 62
     7
100
AcDbLine
 10
457.6354949413
 20
689.7985412342
 30
0.0
 11
445.6354949413
 21
677.7985412342
 31
0.0
  0
LINE
  5
2A1
330
1F
100
AcDbEntity
  8
0
  6
HIDDEN
 62
     7
100
AcDbLine
 10
445.6354949413
 20
677.7985412342
 30
0.0
 11
427.6104949413
 21
689.7985412342
 31
0.0
  0
LINE
  5
2A2
330
1F
100
AcDbEntity
  8
0
  6
HIDDEN
 62
     7
100
AcDbLine
 10
427.6104949413
 20
689.7985412342
 30
0.0
 11
415.6104949413
 21
677.7985412342
 31
0.0
  0
LINE
  5
2A3
330
1F
100
AcDbEntity
  8
0
  6
HIDDEN
 62
     7
100
AcDbLine
 10
415.6104949413
 20
677.7985412342
 30
0.0
 11
406.5979949413
 21
683.7985412342
 31
0.0
  0
INSERT
  5
2AE
330
1F
100
AcDbEntity
  8
0
  6
CONTINUOUS
 62
     7
100
AcDbBlockReference
  2
SW_HATCH_0
 10
448.8101294158
 20
513.9470009288
 30
0.0
  0
ARC
  5
2AF
330
1F
100
AcDbEntity
  8
0
  6
CONTINUOUS
 62
     7
100
AcDbCircle
 10
455.9229949413
 20
824.5352639676
 30
0.0
 40
0.3000000000000114
100
AcDbArc
 50
90.0
 51
180.0
  0
ARC
  5
2B0
330
1F
100
AcDbEntity
  8
0
  6
CONTINUOUS
 62
     7
100
AcDbCircle
 10
479.3229949413
 20
824.5352639676
 30
0.0
 40
0.2999999999999545
100
AcDbArc
 50
0.0
 51
90.0
  0
ARC
  5
2B1
330
1F
100
AcDbEntity
  8
0
  6
CONTINUOUS
 62
     7
100
AcDbCircle
 10
479.3229949413
 20
822.3663528809
 30
0.0
 40
0.2999999999999795
100
AcDbArc
 50
315.1781789379
 51
0.0
  0
LINE
  5
2B2
330
1F
100
AcDbEntity
  8
0
  6
CONTINUOUS
 62
     7
100
AcDbLine
 10
455.6229943304
 20
816.2127649901
 30
0.0
 11
455.6229943304
 21
814.1352638976
 31
0.0
  0
LINE
  5
2B3
330
1F
100
AcDbEntity
  8
0
  6
CONTINUOUS
 62
     7
100
AcDbLine
 10
479.6229964016
 20
814.1352638976
 30
0.0
 11
479.6229964016
 21
816.3041750575
 31
0.0
  0
ARC
  5
2B4
330
1F
100
AcDbEntity
  8
0
  6
CONTINUOUS
 62
     7
100
AcDbCircle
 10
479.3229949413
 20
816.3041750544
 30
0.0
 40
0.2999999999999795
100
AcDbArc
 50
0.0
 51
44.8218210621
  0
ARC
  5
2B5
330
1F
100
AcDbEntity
  8
0
  6
CONTINUOUS
 62
     7
100
AcDbCircle
 10
455.9229949413
 20
814.1352639676
 30
0.0
 40
0.3000000000000682
100
AcDbArc
 50
180.0
 51
270.0
  0
ARC
  5
2B6
330
1F
100
AcDbEntity
  8
0
  6
CONTINUOUS
 62
     7
100
AcDbCircle
 10
479.3229949413
 20
814.1352639676
 30
0.0
 40
0.3000000000000682
100
AcDbArc
 50
270.0
 51
0.0
  0
LINE
  5
2B7
330
1F
100
AcDbEntity
  8
0
  6
CONTINUOUS
 62
     7
100
AcDbLine
 10
455.6229943304
 20
824.5352639259
 30
0.0
 11
455.6229943304
 21
822.4577631244
 31
0.0
  0
LINE
  5
2B8
330
1F
100
AcDbEntity
  8
0
  6
CONTINUOUS
 62
     7
100
AcDbLine
 10
479.6229964016
 20
822.3663528823
 30
0.0
 11
479.6229964016
 21
824.5352639259
 31
0.0
  0
ARC
  5
2B9
330
1F
100
AcDbEntity
  8
0
  6
CONTINUOUS
 62
     7
100
AcDbCircle
 10
482.3729949413
 20
819.3352639676
 30
0.0
 40
4.000000000000061
100
AcDbArc
 50
135.1781789379
 51
224.821821062
  0
ARC
  5
2BA
330
1F
100
AcDbEntity
  8
0
  6
CONTINUOUS
 62
     7
100
AcDbCircle
 10
393.9229949413
 20
816.3041750544
 30
0.0
 40
0.3000000000000198
100
AcDbArc
 50
135.178178938
 51
180.0
  0
ARC
  5
2BB
330
1F
100
AcDbEntity
  8
0
  6
CONTINUOUS
 62
     7
100
AcDbCircle
 10
393.9229949413
 20
824.5352639676
 30
0.0
 40
0.3000000000000114
100
AcDbArc
 50
90.0
 51
180.0
  0
ARC
  5
2BC
330
1F
100
AcDbEntity
  8
0
  6
CONTINUOUS
 62
     7
100
AcDbCircle
 10
417.3229949413
 20
824.5352639676
 30
0.0
 40
0.2999999999999545
100
AcDbArc
 50
0.0
 51
90.0
  0
LINE
  5
2BD
330
1F
100
AcDbEntity
  8
0
  6
CONTINUOUS
 62
     7
100
AcDbLine
 10
393.622993481
 20
816.3041750575
 30
0.0
 11
393.622993481
 21
814.1352638976
 31
0.0
  0
LINE
  5
2BE
330
1F
100
AcDbEntity
  8
0
  6
CONTINUOUS
 62
     7
100
AcDbLine
 10
417.6229955522
 20
814.1352638976
 30
0.0
 11
417.6229955522
 21
816.2127649901
 31
0.0
  0
ARC
  5
2BF
330
1F
100
AcDbEntity
  8
0
  6
CONTINUOUS
 62
     7
100
AcDbCircle
 10
393.9229949413
 20
814.1352639676
 30
0.0
 40
0.3000000000000682
100
AcDbArc
 50
180.0
 51
270.0
  0
ARC
  5
2C0
330
1F
100
AcDbEntity
  8
0
  6
CONTINUOUS
 62
     7
100
AcDbCircle
 10
417.3229949413
 20
814.1352639676
 30
0.0
 40
0.3000000000000682
100
AcDbArc
 50
270.0
 51
0.0
  0
LINE
  5
2C1
330
1F
100
AcDbEntity
  8
0
  6
CONTINUOUS
 62
     7
100
AcDbLine
 10
393.622993481
 20
824.5352639259
 30
0.0
 11
393.622993481
 21
822.3663528823
 31
0.0
  0
LINE
  5
2C2
330
1F
100
AcDbEntity
  8
0
  6
CONTINUOUS
 62
     7
100
AcDbLine
 10
417.6229955522
 20
822.4577631244
 30
0.0
 11
417.6229955522
 21
824.5352639259
 31
0.0
  0
ARC
  5
2C3
330
1F
100
AcDbEntity
  8
0
  6
CONTINUOUS
 62
     7
100
AcDbCircle
 10
393.9229949413
 20
822.3663528809
 30
0.0
 40
0.3000000000000198
100
AcDbArc
 50
180.0
 51
224.821821062
  0
ARC
  5
2C4
330
1F
100
AcDbEntity
  8
0
  6
CONTINUOUS
 62
     7
100
AcDbCircle
 10
390.8729949413
 20
819.3352639676
 30
0.0
 40
4.000000000000061
100
AcDbArc
 50
315.178178938
 51
44.8218210621
  0
LINE
  5
2C5
330
1F
100
AcDbEntity
  8
0
  6
CONTINUOUS
 62
     7
100
AcDbLine
 10
460.8729956566
 20
828.33526399
 30
0.0
 11
460.8729956566
 21
824.8352643476
 31
0.0
  0
LINE
  5
2C6
330
1F
100
AcDbEntity
  8
0
  6
CONTINUOUS
 62
     7
100
AcDbLine
 10
474.3729932128
 20
824.8352643476
 30
0.0
 11
474.3729932128
 21
828.33526399
 31
0.0
  0
LINE
  5
2C7
330
1F
100
AcDbEntity
  8
0
  6
CONTINUOUS
 62
     7
100
AcDbLine
 10
398.8729966698
 20
828.33526399
 30
0.0
 11
398.8729966698
 21
824.8352643476
 31
0.0
  0
LINE
  5
2C8
330
1F
100
AcDbEntity
  8
0
  6
CONTINUOUS
 62
     7
100
AcDbLine
 10
412.372994226
 20
824.8352643476
 30
0.0
 11
412.372994226
 21
828.33526399
 31
0.0
  0
LINE
  5
2C9
330
1F
100
AcDbEntity
  8
0
  6
CONTINUOUS
 62
     7
100
AcDbLine
 10
457.4904972581
 20
824.8352643476
 30
0.0
 11
479.3229950486
 21
824.8352643476
 31
0.0
  0
LINE
  5
2CA
330
1F
100
AcDbEntity
  8
0
  6
CONTINUOUS
 62
     7
100
AcDbLine
 10
455.9229956834
 20
824.8352643476
 30
0.0
 11
457.4904972581
 21
824.8352643476
 31
0.0
  0
LINE
  5
2CB
330
1F
100
AcDbEntity
  8
0
  6
CONTINUOUS
 62
     7
100
AcDbLine
 10
457.4904972581
 20
813.8352639415
 30
0.0
 11
479.3229950486
 21
813.8352639415
 31
0.0
  0
LINE
  5
2CC
330
1F
100
AcDbEntity
  8
0
  6
CONTINUOUS
 62
     7
100
AcDbLine
 10
455.9229956834
 20
813.8352639415
 30
0.0
 11
457.4904972581
 21
813.8352639415
 31
0.0
  0
LINE
  5
2CD
330
1F
100
AcDbEntity
  8
0
  6
CONTINUOUS
 62
     7
100
AcDbLine
 10
395.4904964088
 20
824.8352643476
 30
0.0
 11
417.3229941992
 21
824.8352643476
 31
0.0
  0
LINE
  5
2CE
330
1F
100
AcDbEntity
  8
0
  6
CONTINUOUS
 62
     7
100
AcDbLine
 10
393.922994834
 20
824.8352643476
 30
0.0
 11
395.4904964088
 21
824.8352643476
 31
0.0
  0
LINE
  5
2CF
330
1F
100
AcDbEntity
  8
0
  6
CONTINUOUS
 62
     7
100
AcDbLine
 10
395.4904964088
 20
813.8352639415
 30
0.0
 11
417.3229941992
 21
813.8352639415
 31
0.0
  0
LINE
  5
2D0
330
1F
100
AcDbEntity
  8
0
  6
CONTINUOUS
 62
     7
100
AcDbLine
 10
393.922994834
 20
813.8352639415
 30
0.0
 11
395.4904964088
 21
813.8352639415
 31
0.0
  0
LINE
  5
2D1
330
1F
100
AcDbEntity
  8
0
  6
CONTINUOUS
 62
     7
100
AcDbLine
 10
467.6229944347
 20
813.8352639415
 30
0.0
 11
467.6229944347
 21
811.3352639974
 31
0.0
  0
LINE
  5
2D2
330
1F
100
AcDbEntity
  8
0
  6
CONTINUOUS
 62
     7
100
AcDbLine
 10
461.6229953138
 20
811.3352639974
 30
0.0
 11
467.6229944347
 21
811.3352639974
 31
0.0
  0
LINE
  5
2D3
330
1F
100
AcDbEntity
  8
0
  6
CONTINUOUS
 62
     7
100
AcDbLine
 10
461.6229953138
 20
813.8352639415
 30
0.0
 11
461.6229953138
 21
811.3352639974
 31
0.0
  0
LINE
  5
2D4
330
1F
100
AcDbEntity
  8
0
  6
CONTINUOUS
 62
     7
100
AcDbLine
 10
473.6229954181
 20
813.8352639415
 30
0.0
 11
473.6229954181
 21
811.3352639974
 31
0.0
  0
LINE
  5
2D5
330
1F
100
AcDbEntity
  8
0
  6
CONTINUOUS
 62
     7
100
AcDbLine
 10
467.6229944347
 20
811.3352639974
 30
0.0
 11
473.6229954181
 21
811.3352639974
 31
0.0
  0
LINE
  5
2D6
330
1F
100
AcDbEntity
  8
0
  6
CONTINUOUS
 62
     7
100
AcDbLine
 10
405.6229954479
 20
813.8352639415
 30
0.0
 11
405.6229954479
 21
811.3352639974
 31
0.0
  0
LINE
  5
2D7
330
1F
100
AcDbEntity
  8
0
  6
CONTINUOUS
 62
     7
100
AcDbLine
 10
399.6229944645
 20
813.8352639415
 30
0.0
 11
399.6229944645
 21
811.3352639974
 31
0.0
  0
LINE
  5
2D8
330
1F
100
AcDbEntity
  8
0
  6
CONTINUOUS
 62
     7
100
AcDbLine
 10
399.6229944645
 20
811.3352639974
 30
0.0
 11
405.6229954479
 21
811.3352639974
 31
0.0
  0
LINE
  5
2D9
330
1F
100
AcDbEntity
  8
0
  6
CONTINUOUS
 62
     7
100
AcDbLine
 10
411.6229945688
 20
813.8352639415
 30
0.0
 11
411.6229945688
 21
811.3352639974
 31
0.0
  0
LINE
  5
2DA
330
1F
100
AcDbEntity
  8
0
  6
CONTINUOUS
 62
     7
100
AcDbLine
 10
405.6229954479
 20
811.3352639974
 30
0.0
 11
411.6229945688
 21
811.3352639974
 31
0.0
  0
LINE
  5
2DB
330
1F
100
AcDbEntity
  8
0
  6
CONTINUOUS
 62
     7
100
AcDbLine
 10
476.6229940472
 20
828.33526399
 30
0.0
 11
396.6229958354
 21
828.33526399
 31
0.0
  0
LINE
  5
2DC
330
1F
100
AcDbEntity
  8
0
  6
CONTINUOUS
 62
     7
100
AcDbLine
 10
396.6229958354
 20
829.3352641539
 30
0.0
 11
476.6229940472
 21
829.3352641539
 31
0.0
  0
LINE
  5
2DD
330
1F
100
AcDbEntity
  8
0
  6
CONTINUOUS
 62
     7
100
AcDbLine
 10
396.6229958354
 20
828.33526399
 30
0.0
 11
392.6229951797
 21
828.33526399
 31
0.0
  0
LINE
  5
2DE
330
1F
100
AcDbEntity
  8
0
  6
CONTINUOUS
 62
     7
100
AcDbLine
 10
392.6229951797
 20
828.33526399
 30
0.0
 11
391.6229931532
 21
829.3352641539
 31
0.0
  0
LINE
  5
2DF
330
1F
100
AcDbEntity
  8
0
  6
CONTINUOUS
 62
     7
100
AcDbLine
 10
391.6229931532
 20
829.3352641539
 30
0.0
 11
396.6229958354
 21
829.3352641539
 31
0.0
  0
LINE
  5
2E0
330
1F
100
AcDbEntity
  8
0
  6
CONTINUOUS
 62
     7
100
AcDbLine
 10
480.6229947029
 20
828.33526399
 30
0.0
 11
476.6229940472
 21
828.33526399
 31
0.0
  0
LINE
  5
2E1
330
1F
100
AcDbEntity
  8
0
  6
CONTINUOUS
 62
     7
100
AcDbLine
 10
476.6229940472
 20
829.3352641539
 30
0.0
 11
481.6229967294
 21
829.3352641539
 31
0.0
  0
LINE
  5
2E2
330
1F
100
AcDbEntity
  8
0
  6
CONTINUOUS
 62
     7
100
AcDbLine
 10
480.6229947029
 20
828.33526399
 30
0.0
 11
481.6229967294
 21
829.3352641539
 31
0.0
  0
LINE
  5
2E3
330
1F
100
AcDbEntity
  8
0
  6
CONTINUOUS
 62
     7
100
AcDbLine
 10
396.6229958354
 20
842.8352645041
 30
0.0
 11
476.6229940472
 21
842.8352645041
 31
0.0
  0
LINE
  5
2E4
330
1F
100
AcDbEntity
  8
0
  6
CONTINUOUS
 62
     7
100
AcDbLine
 10
476.6229940472
 20
841.8352643401
 30
0.0
 11
396.6229958354
 21
841.8352643401
 31
0.0
  0
LINE
  5
2E5
330
1F
100
AcDbEntity
  8
0
  6
CONTINUOUS
 62
     7
100
AcDbLine
 10
392.6229951797
 20
842.8352645041
 30
0.0
 11
396.6229958354
 21
842.8352645041
 31
0.0
  0
LINE
  5
2E6
330
1F
100
AcDbEntity
  8
0
  6
CONTINUOUS
 62
     7
100
AcDbLine
 10
396.6229958354
 20
841.8352643401
 30
0.0
 11
391.6229931532
 21
841.8352643401
 31
0.0
  0
LINE
  5
2E7
330
1F
100
AcDbEntity
  8
0
  6
CONTINUOUS
 62
     7
100
AcDbLine
 10
392.6229951797
 20
842.8352645041
 30
0.0
 11
391.6229931532
 21
841.8352643401
 31
0.0
  0
LINE
  5
2E8
330
1F
100
AcDbEntity
  8
0
  6
CONTINUOUS
 62
     7
100
AcDbLine
 10
481.6229967294
 20
841.8352643401
 30
0.0
 11
476.6229940472
 21
841.8352643401
 31
0.0
  0
LINE
  5
2E9
330
1F
100
AcDbEntity
  8
0
  6
CONTINUOUS
 62
     7
100
AcDbLine
 10
481.6229967294
 20
841.8352643401
 30
0.0
 11
481.6229967294
 21
829.3352641539
 31
0.0
  0
LINE
  5
2EA
330
1F
100
AcDbEntity
  8
0
  6
CONTINUOUS
 62
     7
100
AcDbLine
 10
476.6229940472
 20
842.8352645041
 30
0.0
 11
480.6229947029
 21
842.8352645041
 31
0.0
  0
LINE
  5
2EB
330
1F
100
AcDbEntity
  8
0
  6
CONTINUOUS
 62
     7
100
AcDbLine
 10
480.6229947029
 20
842.8352645041
 30
0.0
 11
481.6229967294
 21
841.8352643401
 31
0.0
  0
LINE
  5
2EC
330
1F
100
AcDbEntity
  8
0
  6
CONTINUOUS
 62
     7
100
AcDbLine
 10
391.6229931532
 20
829.3352641539
 30
0.0
 11
391.6229931532
 21
841.8352643401
 31
0.0
  0
CIRCLE
  5
2ED
330
1F
100
AcDbEntity
  8
0
  6
CONTINUOUS
 62
     7
100
AcDbCircle
 10
420.1229949413
 20
819.3352639676
 30
0.0
 40
4.000000000000114
  0
CIRCLE
  5
2EE
330
1F
100
AcDbEntity
  8
0
  6
CONTINUOUS
 62
     7
100
AcDbCircle
 10
453.1229949413
 20
819.3352639676
 30
0.0
 40
4.000000000000114
  0
ARC
  5
2EF
330
1F
100
AcDbEntity
  8
0
  6
CONTINUOUS
 62
     7
100
AcDbCircle
 10
453.1229949413
 20
819.3352639676
 30
0.0
 40
6.005206074732157
100
AcDbArc
 50
92.3859440304
 51
132.0363020504
  0
LINE
  5
2F0
330
1F
100
AcDbEntity
  8
0
  6
CONTINUOUS
 62
     7
100
AcDbLine
 10
453.3729953585
 20
825.3352644295
 30
0.0
 11
452.8729943453
 21
825.3352644295
 31
0.0
  0
LINE
  5
2F1
330
1F
100
AcDbEntity
  8
0
  6
CONTINUOUS
 62
     7
100
AcDbLine
 10
454.3729955224
 20
823.4018965066
 30
0.0
 11
454.3729955224
 21
824.3352638
 31
0.0
  0
ARC
  5
2F2
330
1F
100
AcDbEntity
  8
0
  6
CONTINUOUS
 62
     7
100
AcDbCircle
 10
453.1229949413
 20
819.3352639676
 30
0.0
 40
4.00000000000002
100
AcDbArc
 50
75.5224878141
 51
159.8036693413
  0
LINE
  5
2F3
330
1F
100
AcDbEntity
  8
0
  6
CONTINUOUS
 62
     7
100
AcDbLine
 10
449.1812316595
 20
820.5852638838
 30
0.0
 11
448.8229947059
 21
820.5852638838
 31
0.0
  0
LINE
  5
2F4
330
1F
100
AcDbEntity
  8
0
  6
CONTINUOUS
 62
     7
100
AcDbLine
 10
448.6229950456
 20
820.3852639907
 30
0.0
 11
448.6229950456
 21
818.2852639492
 31
0.0
  0
ARC
  5
2F5
330
1F
100
AcDbEntity
  8
0
  6
CONTINUOUS
 62
     7
100
AcDbCircle
 10
453.1229949413
 20
819.3352639676
 30
0.0
 40
4.000000000000098
100
AcDbArc
 50
200.1963306587
 51
284.4775121859
  0
LINE
  5
2F6
330
1F
100
AcDbEntity
  8
0
  6
CONTINUOUS
 62
     7
100
AcDbLine
 10
454.3729955224
 20
809.3352641352
 30
0.0
 11
454.3729955224
 21
815.2686314332
 31
0.0
  0
LINE
  5
2F7
330
1F
100
AcDbEntity
  8
0
  6
CONTINUOUS
 62
     7
100
AcDbLine
 10
441.7229951253
 20
808.3352635057
 30
0.0
 11
453.3729953585
 21
808.3352635057
 31
0.0
  0
ARC
  5
2F8
330
1F
100
AcDbEntity
  8
0
  6
CONTINUOUS
 62
     7
100
AcDbCircle
 10
441.7229949413
 20
809.3352639676
 30
0.0
 40
1.000000000000057
100
AcDbArc
 50
180.0
 51
270.0
  0
LINE
  5
2F9
330
1F
100
AcDbEntity
  8
0
  6
CONTINUOUS
 62
     7
100
AcDbLine
 10
440.7229949614
 20
809.3352641352
 30
0.0
 11
440.7229949614
 21
811.8352640794
 31
0.0
  0
LINE
  5
2FA
330
1F
100
AcDbEntity
  8
0
  6
CONTINUOUS
 62
     7
100
AcDbLine
 10
432.5229949212
 20
811.8352640794
 30
0.0
 11
432.5229949212
 21
809.3352641352
 31
0.0
  0
ARC
  5
2FB
330
1F
100
AcDbEntity
  8
0
  6
CONTINUOUS
 62
     7
100
AcDbCircle
 10
431.5229949413
 20
809.3352639676
 30
0.0
 40
1.000000000000057
100
AcDbArc
 50
270.0
 51
0.0
  0
LINE
  5
2FC
330
1F
100
AcDbEntity
  8
0
  6
CONTINUOUS
 62
     7
100
AcDbLine
 10
419.8729945241
 20
808.3352635057
 30
0.0
 11
431.5229947573
 21
808.3352635057
 31
0.0
  0
ARC
  5
2FD
330
1F
100
AcDbEntity
  8
0
  6
CONTINUOUS
 62
     7
100
AcDbCircle
 10
420.1229949413
 20
819.3352639676
 30
0.0
 40
4.000000000000098
100
AcDbArc
 50
255.5224878141
 51
339.8036693413
  0
LINE
  5
2FE
330
1F
100
AcDbEntity
  8
0
  6
CONTINUOUS
 62
     7
100
AcDbLine
 10
424.622994837
 20
818.2852639492
 30
0.0
 11
424.622994837
 21
820.3852639907
 31
0.0
  0
ARC
  5
2FF
330
1F
100
AcDbEntity
  8
0
  6
CONTINUOUS
 62
     7
100
AcDbCircle
 10
424.064758506
 20
820.7852639676
 30
0.0
 40
0.2000000000001592
100
AcDbArc
 50
200.1963306587
 51
270.0
  0
ARC
  5
300
330
1F
100
AcDbEntity
  8
0
  6
CONTINUOUS
 62
     7
100
AcDbCircle
 10
420.1229949413
 20
819.3352639676
 30
0.0
 40
4.00000000000002
100
AcDbArc
 50
20.1963306587
 51
104.4775121859
  0
LINE
  5
301
330
1F
100
AcDbEntity
  8
0
  6
CONTINUOUS
 62
     7
100
AcDbLine
 10
418.8729943602
 20
824.3352638
 30
0.0
 11
418.8729943602
 21
823.4018965066
 31
0.0
  0
ARC
  5
302
330
1F
100
AcDbEntity
  8
0
  6
CONTINUOUS
 62
     7
100
AcDbCircle
 10
425.081530714
 20
824.8352639676
 30
0.0
 40
1.399999999999963
100
AcDbArc
 50
227.9636979496
 51
312.0019436989
  0
ARC
  5
303
330
1F
100
AcDbEntity
  8
0
  6
CONTINUOUS
 62
     7
100
AcDbCircle
 10
436.6229949413
 20
825.2181066801
 30
0.0
 40
0.2000000000000498
100
AcDbArc
 50
225.0
 51
315.0
  0
ARC
  5
304
330
1F
100
AcDbEntity
  8
0
  6
CONTINUOUS
 62
     7
100
AcDbCircle
 10
443.2092224522
 20
819.3322914896
 30
0.0
 40
6.005206074732198
100
AcDbArc
 50
47.9980563011
 51
88.4372499702
  0
LINE
  5
305
330
1F
100
AcDbEntity
  8
0
  6
CONTINUOUS
 62
     7
100
AcDbLine
 10
420.3729955373
 20
825.3352644295
 30
0.0
 11
419.8729945241
 21
825.3352644295
 31
0.0
  0
ARC
  5
306
330
1F
100
AcDbEntity
  8
0
  6
CONTINUOUS
 62
     7
100
AcDbCircle
 10
448.1644591686
 20
824.8352639676
 30
0.0
 40
1.399999999999971
100
AcDbArc
 50
227.9980563011
 51
312.0363020504
  0
ARC
  5
307
330
1F
100
AcDbEntity
  8
0
  6
CONTINUOUS
 62
     7
100
AcDbCircle
 10
420.1229949413
 20
819.3352639676
 30
0.0
 40
6.005206074732157
100
AcDbArc
 50
47.9636979496
 51
87.6140559696
  0
LINE
  5
308
330
1F
100
AcDbEntity
  8
0
  6
CONTINUOUS
 62
     7
100
AcDbLine
 10
436.7644163034
 20
825.0766855107
 30
0.0
 11
437.0229949312
 21
825.3352644295
 31
0.0
  0
ARC
  5
309
330
1F
100
AcDbEntity
  8
0
  6
CONTINUOUS
 62
     7
100
AcDbCircle
 10
430.0367674304
 20
819.3322914896
 30
0.0
 40
6.005206074732196
100
AcDbArc
 50
91.5627500298
 51
132.0019436989
  0
LINE
  5
30A
330
1F
100
AcDbEntity
  8
0
  6
CONTINUOUS
 62
     7
100
AcDbLine
 10
436.2229949514
 20
825.3352644295
 30
0.0
 11
436.4815735792
 21
825.0766855107
 31
0.0
  0
LINE
  5
30B
330
1F
100
AcDbEntity
  8
0
  6
CONTINUOUS
 62
     7
100
AcDbLine
 10
418.8729943602
 20
815.2686314332
 30
0.0
 11
418.8729943602
 21
809.3352641352
 31
0.0
  0
ARC
  5
30C
330
1F
100
AcDbEntity
  8
0
  6
CONTINUOUS
 62
     7
100
AcDbCircle
 10
454.1729949413
 20
823.4018964811
 30
0.0
 40
0.1999999999999886
100
AcDbArc
 50
255.5224878141
 51
0.0
  0
ARC
  5
30D
330
1F
100
AcDbEntity
  8
0
  6
CONTINUOUS
 62
     7
100
AcDbCircle
 10
454.1729949413
 20
815.2686314541
 30
0.0
 40
0.2000000000000972
100
AcDbArc
 50
0.0
 51
104.4775121859
  0
ARC
  5
30E
330
1F
100
AcDbEntity
  8
0
  6
CONTINUOUS
 62
     7
100
AcDbCircle
 10
419.0729949413
 20
815.2686314541
 30
0.0
 40
0.2000000000000972
100
AcDbArc
 50
75.5224878141
 51
180.0
  0
ARC
  5
30F
330
1F
100
AcDbEntity
  8
0
  6
CONTINUOUS
 62
     7
100
AcDbCircle
 10
419.0729949413
 20
823.4018964811
 30
0.0
 40
0.1999999999999886
100
AcDbArc
 50
180.0
 51
284.4775121859
  0
ARC
  5
310
330
1F
100
AcDbEntity
  8
0
  6
CONTINUOUS
 62
     7
100
AcDbCircle
 10
449.1812313766
 20
820.7852639676
 30
0.0
 40
0.2000000000001592
100
AcDbArc
 50
270.0
 51
339.8036693413
  0
ARC
  5
311
330
1F
100
AcDbEntity
  8
0
  6
CONTINUOUS
 62
     7
100
AcDbCircle
 10
448.8229949413
 20
820.3852639676
 30
0.0
 40
0.2000000000000455
100
AcDbArc
 50
90.0
 51
180.0
  0
ARC
  5
312
330
1F
100
AcDbEntity
  8
0
  6
CONTINUOUS
 62
     7
100
AcDbCircle
 10
448.8229949413
 20
818.2852639676
 30
0.0
 40
0.1999999999999886
100
AcDbArc
 50
180.0
 51
270.0
  0
ARC
  5
313
330
1F
100
AcDbEntity
  8
0
  6
CONTINUOUS
 62
     7
100
AcDbCircle
 10
449.1812313766
 20
817.8852639676
 30
0.0
 40
0.2000000000000455
100
AcDbArc
 50
20.1963306586
 51
90.0
  0
ARC
  5
314
330
1F
100
AcDbEntity
  8
0
  6
CONTINUOUS
 62
     7
100
AcDbCircle
 10
424.064758506
 20
817.8852639676
 30
0.0
 40
0.2000000000000455
100
AcDbArc
 50
90.0
 51
159.8036693414
  0
ARC
  5
315
330
1F
100
AcDbEntity
  8
0
  6
CONTINUOUS
 62
     7
100
AcDbCircle
 10
424.4229949413
 20
818.2852639676
 30
0.0
 40
0.1999999999999318
100
AcDbArc
 50
270.0
 51
0.0
  0
ARC
  5
316
330
1F
100
AcDbEntity
  8
0
  6
CONTINUOUS
 62
     7
100
AcDbCircle
 10
424.4229949413
 20
820.3852639676
 30
0.0
 40
0.2000000000000455
100
AcDbArc
 50
0.0
 51
90.0
  0
LINE
  5
317
330
1F
100
AcDbEntity
  8
0
  6
CONTINUOUS
 62
     7
100
AcDbLine
 10
436.2229949514
 20
825.3352644295
 30
0.0
 11
429.8729947662
 21
825.3352644295
 31
0.0
  0
LINE
  5
318
330
1F
100
AcDbEntity
  8
0
  6
CONTINUOUS
 62
     7
100
AcDbLine
 10
443.3729951164
 20
825.3352644295
 30
0.0
 11
437.0229949312
 21
825.3352644295
 31
0.0
  0
LINE
  5
319
330
1F
100
AcDbEntity
  8
0
  6
CONTINUOUS
 62
     7
100
AcDbLine
 10
424.0647582231
 20
818.0852639397
 30
0.0
 11
424.4229951767
 21
818.0852639397
 31
0.0
  0
LINE
  5
31A
330
1F
100
AcDbEntity
  8
0
  6
CONTINUOUS
 62
     7
100
AcDbLine
 10
424.4229951767
 20
820.5852638838
 30
0.0
 11
424.0647582231
 21
820.5852638838
 31
0.0
  0
LINE
  5
31B
330
1F
100
AcDbEntity
  8
0
  6
CONTINUOUS
 62
     7
100
AcDbLine
 10
448.8229947059
 20
818.0852639397
 30
0.0
 11
449.1812316595
 21
818.0852639397
 31
0.0
  0
ARC
  5
31C
330
1F
100
AcDbEntity
  8
0
  6
CONTINUOUS
 62
     7
100
AcDbCircle
 10
441.7229949413
 20
811.8352639676
 30
0.0
 40
1.000000000000057
100
AcDbArc
 50
90.0
 51
180.0
  0
ARC
  5
31D
330
1F
100
AcDbEntity
  8
0
  6
CONTINUOUS
 62
     7
100
AcDbCircle
 10
431.5229949413
 20
811.8352639676
 30
0.0
 40
1.000000000000057
100
AcDbArc
 50
0.0
 51
90.0
  0
ARC
  5
31E
330
1F
100
AcDbEntity
  8
0
  6
CONTINUOUS
 62
     7
100
AcDbCircle
 10
428.6229949413
 20
813.8352639676
 30
0.0
 40
1.0
100
AcDbArc
 50
180.0
 51
270.0
  0
ARC
  5
31F
330
1F
100
AcDbEntity
  8
0
  6
CONTINUOUS
 62
     7
100
AcDbCircle
 10
428.6229949413
 20
817.1210504052
 30
0.0
 40
1.000000000000088
100
AcDbArc
 50
135.0
 51
180.0
  0
ARC
  5
320
330
1F
100
AcDbEntity
  8
0
  6
CONTINUOUS
 62
     7
100
AcDbCircle
 10
431.0372085037
 20
819.5352639676
 30
0.0
 40
1.000000000000048
100
AcDbArc
 50
90.0
 51
135.0
  0
ARC
  5
321
330
1F
100
AcDbEntity
  8
0
  6
CONTINUOUS
 62
     7
100
AcDbCircle
 10
442.2087813789
 20
819.5352639676
 30
0.0
 40
0.9999999999999679
100
AcDbArc
 50
45.0
 51
90.0
  0
ARC
  5
322
330
1F
100
AcDbEntity
  8
0
  6
CONTINUOUS
 62
     7
100
AcDbCircle
 10
444.6229949413
 20
817.1210504052
 30
0.0
 40
1.0
100
AcDbArc
 50
0.0
 51
45.0
  0
ARC
  5
323
330
1F
100
AcDbEntity
  8
0
  6
CONTINUOUS
 62
     7
100
AcDbCircle
 10
444.6229949413
 20
813.8352639676
 30
0.0
 40
1.0
100
AcDbArc
 50
270.0
 51
0.0
  0
ARC
  5
324
330
1F
100
AcDbEntity
  8
0
  6
CONTINUOUS
 62
     7
100
AcDbCircle
 10
453.3729949413
 20
809.3352639676
 30
0.0
 40
1.000000000000057
100
AcDbArc
 50
270.0
 51
0.0
  0
ARC
  5
325
330
1F
100
AcDbEntity
  8
0
  6
CONTINUOUS
 62
     7
100
AcDbCircle
 10
419.8729949413
 20
809.3352639676
 30
0.0
 40
1.0
100
AcDbArc
 50
180.0
 51
270.0
  0
ARC
  5
326
330
1F
100
AcDbEntity
  8
0
  6
CONTINUOUS
 62
     7
100
AcDbCircle
 10
419.8729949413
 20
824.3352639676
 30
0.0
 40
1.000000000000114
100
AcDbArc
 50
90.0
 51
180.0
  0
ARC
  5
327
330
1F
100
AcDbEntity
  8
0
  6
CONTINUOUS
 62
     7
100
AcDbCircle
 10
453.3729949413
 20
824.3352639676
 30
0.0
 40
1.000000000000114
100
AcDbArc
 50
0.0
 51
90.0
  0
LINE
  5
328
330
1F
100
AcDbEntity
  8
0
  6
CONTINUOUS
 62
     7
100
AcDbLine
 10
427.9158878965
 20
817.828157209
 30
0.0
 11
430.3301018557
 21
820.2423707024
 31
0.0
  0
LINE
  5
329
330
1F
100
AcDbEntity
  8
0
  6
CONTINUOUS
 62
     7
100
AcDbLine
 10
442.9158880269
 20
820.2423707024
 30
0.0
 11
445.3301019861
 21
817.828157209
 31
0.0
  0
LINE
  5
32A
330
1F
100
AcDbEntity
  8
0
  6
CONTINUOUS
 62
     7
100
AcDbLine
 10
441.7229951253
 20
812.8352637776
 30
0.0
 11
444.6229953213
 21
812.8352637776
 31
0.0
  0
LINE
  5
32B
330
1F
100
AcDbEntity
  8
0
  6
CONTINUOUS
 62
     7
100
AcDbLine
 10
445.6229945539
 20
813.8352639415
 30
0.0
 11
445.6229945539
 21
817.1210503987
 31
0.0
  0
LINE
  5
32C
330
1F
100
AcDbEntity
  8
0
  6
CONTINUOUS
 62
     7
100
AcDbLine
 10
442.2087813622
 20
820.5352639687
 30
0.0
 11
431.0372085204
 21
820.5352639687
 31
0.0
  0
LINE
  5
32D
330
1F
100
AcDbEntity
  8
0
  6
CONTINUOUS
 62
     7
100
AcDbLine
 10
427.6229953287
 20
817.1210503987
 30
0.0
 11
427.6229953287
 21
813.8352639415
 31
0.0
  0
LINE
  5
32E
330
1F
100
AcDbEntity
  8
0
  6
CONTINUOUS
 62
     7
100
AcDbLine
 10
428.6229945613
 20
812.8352637776
 30
0.0
 11
431.5229947573
 21
812.8352637776
 31
0.0
  0
DIMENSION
  5
32F
330
1F
100
AcDbEntity
  8
OPISY
100
AcDbDimension
  2
*D26
 10
368.2306900959
 20
808.3352639676
 30
0.0
 11
368.2306900959
 21
778.6602396779
 31
0.0
 70
   160
  3
SLDDIMSTYLE0
100
AcDbAlignedDimension
 13
427.6229949413
 23
817.5352639676
 33
0.0
 14
419.8729949413
 24
808.3352639676
 34
0.0
 50
90.0
100
AcDbRotatedDimension
  0
DIMENSION
  5
33B
330
1F
100
AcDbEntity
  8
OPISY
100
AcDbDimension
  2
*D27
 10
440.7229949413
 20
771.8352639676
 30
0.0
 11
470.3993726176
 21
771.8352639676
 31
0.0
 70
   160
  3
SLDDIMSTYLE0
100
AcDbAlignedDimension
 13
432.5229949413
 23
809.3352639676
 33
0.0
 14
440.7229949413
 24
809.3352639676
 34
0.0
100
AcDbRotatedDimension
  0
DIMENSION
  5
347
330
1F
100
AcDbEntity
  8
OPISY
100
AcDbDimension
  2
*D28
 10
445.6229949413
 20
753.8352639676
 30
0.0
 11
473.9165970823
 21
753.8352639676
 31
0.0
 70
   160
  3
SLDDIMSTYLE0
100
AcDbAlignedDimension
 13
427.6229949413
 23
813.8352639676
 33
0.0
 14
445.6229949413
 24
813.8352639676
 34
0.0
100
AcDbRotatedDimension
  0
DIMENSION
  5
355
330
1F
100
AcDbEntity
  8
OPISY
100
AcDbDimension
  2
*D29
 10
505.0152997867
 20
808.3352639676
 30
0.0
 11
505.0152997867
 21
778.6588862913
 31
0.0
 70
   160
  3
SLDDIMSTYLE0
100
AcDbAlignedDimension
 13
444.6229949413
 23
812.8352639676
 33
0.0
 14
453.3729949413
 24
808.3352639676
 34
0.0
 50
90.0
100
AcDbRotatedDimension
  0
DIMENSION
  5
361
330
1F
100
AcDbEntity
  8
OPISY
100
AcDbDimension
  2
*D30
 10
523.0152997867
 20
812.8352639676
 30
0.0
 11
523.0152997867
 21
783.1588862913
 31
0.0
 70
   160
  3
SLDDIMSTYLE0
100
AcDbAlignedDimension
 13
442.2087813789
 23
820.5352639676
 33
0.0
 14
444.6229949413
 24
812.8352639676
 34
0.0
 50
90.0
100
AcDbRotatedDimension
  0
DIMENSION
  5
36E
330
1F
100
AcDbEntity
  8
OPISY
100
AcDbDimension
  2
*D31
 10
430.3301017225
 20
820.2423707488
 30
0.0
 11
488.6646100136
 21
844.5768881126
 31
0.0
 70
   162
  3
SLDDIMSTYLE3
100
AcDb2LineAngularDimension
 13
442.2087813789
 23
820.5352639676
 33
0.0
 14
431.0372085037
 24
820.5352639676
 34
0.0
 15
427.9158881601
 25
817.8281571864
 35
0.0
 16
488.6646100136
 26
844.5768881126
 36
0.0
  0
INSERT
  5
384
330
1F
100
AcDbEntity
  8
OPISY
100
AcDbBlockReference
  2
SW_CENTERMARKSYMBOL_12
 10
420.1229949413
 20
819.3352639676
 30
0.0
  0
INSERT
  5
390
330
1F
100
AcDbEntity
  8
OPISY
100
AcDbBlockReference
  2
SW_CENTERMARKSYMBOL_13
 10
453.1229949413
 20
819.3352639676
 30
0.0
  0
LINE
  5
391
330
1F
100
AcDbEntity
  8
OPISY
  6
CENTERX2
 48
3.0
100
AcDbLine
 10
467.6229949413
 20
830.8352639676
 30
0.0
 11
467.6229949413
 21
807.8352639676
 31
0.0
  0
LINE
  5
392
330
1F
100
AcDbEntity
  8
OPISY
  6
CENTERX2
 48
3.0
100
AcDbLine
 10
405.6229949413
 20
830.8352639676
 30
0.0
 11
405.6229949413
 21
807.8352639676
 31
0.0
  0
INSERT
  5
396
330
1F
100
AcDbEntity
  8
0
  6
CONTINUOUS
 62
     7
100
AcDbBlockReference
  2
SW_BROKEN_VIEW_1
 10
0.0
 20
0.0
 30
0.0
  0
LINE
  5
397
330
1F
100
AcDbEntity
  8
0
  6
CONTINUOUS
 62
     7
100
AcDbLine
 10
182.5416134664
 20
706.9052205059
 30
0.0
 11
182.5416134664
 21
681.0766205761
 31
0.0
  0
LINE
  5
398
330
1F
100
AcDbEntity
  8
0
  6
CONTINUOUS
 62
     7
100
AcDbLine
 10
174.8083482956
 20
686.4444062683
 30
0.0
 11
174.8083482956
 21
706.9052205059
 31
0.0
  0
LINE
  5
399
330
1F
100
AcDbEntity
  8
0
  6
CONTINUOUS
 62
     7
100
AcDbLine
 10
182.5479643879
 20
706.9052205059
 30
0.0
 11
174.801997607
 21
706.9052205059
 31
0.0
  0
LINE
  5
39A
330
1F
100
AcDbEntity
  8
0
  6
CONTINUOUS
 62
     7
100
AcDbLine
 10
189.674980705
 20
706.9052205059
 30
0.0
 11
189.674980705
 21
683.2860455487
 31
0.0
  0
LINE
  5
39B
330
1F
100
AcDbEntity
  8
0
  6
CONTINUOUS
 62
     7
100
AcDbLine
 10
188.6749814724
 20
706.9052205059
 30
0.0
 11
189.674980705
 21
706.9052205059
 31
0.0
  0
LINE
  5
39C
330
1F
100
AcDbEntity
  8
0
  6
CONTINUOUS
 62
     7
100
AcDbLine
 10
188.6749814724
 20
706.9052205059
 30
0.0
 11
182.7416135923
 21
706.9052205059
 31
0.0
  0
LINE
  5
39D
330
1F
100
AcDbEntity
  8
0
  6
CONTINUOUS
 62
     7
100
AcDbLine
 10
182.5416134664
 20
706.9052205059
 30
0.0
 11
182.7416135923
 21
706.9052205059
 31
0.0
  0
LINE
  5
39E
330
1F
100
AcDbEntity
  8
0
  6
CONTINUOUS
 62
     7
100
AcDbLine
 10
174.6083486353
 20
706.9052205059
 30
0.0
 11
174.8083482956
 21
706.9052205059
 31
0.0
  0
LINE
  5
39F
330
1F
100
AcDbEntity
  8
0
  6
CONTINUOUS
 62
     7
100
AcDbLine
 10
174.6083486353
 20
706.9052205059
 30
0.0
 11
173.6749808764
 21
706.9052205059
 31
0.0
  0
LINE
  5
3A0
330
1F
100
AcDbEntity
  8
0
  6
CONTINUOUS
 62
     7
100
AcDbLine
 10
172.6749811781
 20
684.3110368225
 30
0.0
 11
172.6749811781
 21
706.9052205059
 31
0.0
  0
LINE
  5
3A1
330
1F
100
AcDbEntity
  8
0
  6
CONTINUOUS
 62
     7
100
AcDbLine
 10
172.6749811781
 20
706.9052205059
 30
0.0
 11
173.6749808764
 21
706.9052205059
 31
0.0
  0
ARC
  5
3A2
330
1F
100
AcDbEntity
  8
0
  6
CONTINUOUS
 62
     7
100
AcDbCircle
 10
183.8749740767
 20
427.7587080495
 30
0.0
 40
0.3000071239108263
100
AcDbArc
 50
270.0013244347
 51
359.9981864224
  0
ARC
  5
3A3
330
1F
100
AcDbEntity
  8
0
  6
CONTINUOUS
 62
     7
100
AcDbCircle
 10
183.8749804364
 20
451.1587003702
 30
0.0
 40
0.3000007641129468
100
AcDbArc
 50
0.0005990024
 51
89.9998901405
  0
LINE
  5
3A4
330
1F
100
AcDbEntity
  8
0
  6
CONTINUOUS
 62
     7
100
AcDbLine
 10
181.706069968
 20
427.4587009257
 30
0.0
 11
183.8749810116
 21
427.4587009257
 31
0.0
  0
LINE
  5
3A5
330
1F
100
AcDbEntity
  8
0
  6
CONTINUOUS
 62
     7
100
AcDbLine
 10
183.8749810116
 20
451.4587011343
 30
0.0
 11
181.706069968
 21
451.4587011343
 31
0.0
  0
ARC
  5
3A6
330
1F
100
AcDbEntity
  8
0
  6
CONTINUOUS
 62
     7
100
AcDbCircle
 10
181.7060666341
 20
427.7586935226
 30
0.0
 40
0.2999925969473926
100
AcDbArc
 50
225.1776653279
 51
270.0006367547
  0
ARC
  5
3A7
330
1F
100
AcDbEntity
  8
0
  6
CONTINUOUS
 62
     7
100
AcDbCircle
 10
181.7060666341
 20
451.1587085374
 30
0.0
 40
0.2999925969474425
100
AcDbArc
 50
89.9993632453
 51
134.8223346721
  0
LINE
  5
3A8
330
1F
100
AcDbEntity
  8
0
  6
CONTINUOUS
 62
     7
100
AcDbLine
 10
173.4749812161
 20
427.4587009257
 30
0.0
 11
175.6438922597
 21
427.4587009257
 31
0.0
  0
LINE
  5
3A9
330
1F
100
AcDbEntity
  8
0
  6
CONTINUOUS
 62
     7
100
AcDbLine
 10
175.6438922597
 20
451.4587011343
 30
0.0
 11
173.4749812161
 21
451.4587011343
 31
0.0
  0
ARC
  5
3AA
330
1F
100
AcDbEntity
  8
0
  6
CONTINUOUS
 62
     7
100
AcDbCircle
 10
175.6438954772
 20
427.7586935226
 30
0.0
 40
0.2999925969389667
100
AcDbArc
 50
269.9993854787
 51
314.8223346724
  0
ARC
  5
3AB
330
1F
100
AcDbEntity
  8
0
  6
CONTINUOUS
 62
     7
100
AcDbCircle
 10
175.6438954772
 20
451.1587085374
 30
0.0
 40
0.299992596939009
100
AcDbArc
 50
45.1776653276
 51
90.0006145213
  0
ARC
  5
3AC
330
1F
100
AcDbEntity
  8
0
  6
CONTINUOUS
 62
     7
100
AcDbCircle
 10
173.4749879182
 20
427.7587080495
 30
0.0
 40
0.3000071239017312
100
AcDbArc
 50
180.0018135769
 51
269.9987200334
  0
ARC
  5
3AD
330
1F
100
AcDbEntity
  8
0
  6
CONTINUOUS
 62
     7
100
AcDbCircle
 10
173.4749815585
 20
451.1587003702
 30
0.0
 40
0.3000007641122941
100
AcDbArc
 50
90.0000653921
 51
179.9994009977
  0
ARC
  5
3AE
330
1F
100
AcDbEntity
  8
0
  6
CONTINUOUS
 62
     7
100
AcDbCircle
 10
178.6749810556
 20
424.7086975083
 30
0.0
 40
4.000002225275657
100
AcDbArc
 50
45.1782110957
 51
134.8217889043
  0
ARC
  5
3AF
330
1F
100
AcDbEntity
  8
0
  6
CONTINUOUS
 62
     7
100
AcDbCircle
 10
178.6749810556
 20
454.2087045517
 30
0.0
 40
4.000002225275778
100
AcDbArc
 50
225.1782110957
 51
314.8217889043
  0
ARC
  5
3B0
330
1F
100
AcDbEntity
  8
0
  6
CONTINUOUS
 62
     7
100
AcDbCircle
 10
183.8749804364
 20
487.7587022113
 30
0.0
 40
0.300000764085265
100
AcDbArc
 50
270.0001098573
 51
359.9999346101
  0
ARC
  5
3B1
330
1F
100
AcDbEntity
  8
0
  6
CONTINUOUS
 62
     7
100
AcDbCircle
 10
183.8749820262
 20
511.1587024817
 30
0.0
 40
0.299999174220115
100
AcDbArc
 50
359.9999396173
 51
90.0001937848
  0
LINE
  5
3B2
330
1F
100
AcDbEntity
  8
0
  6
CONTINUOUS
 62
     7
100
AcDbLine
 10
181.706069968
 20
487.4587014473
 30
0.0
 11
183.8749810116
 21
487.4587014473
 31
0.0
  0
LINE
  5
3B3
330
1F
100
AcDbEntity
  8
0
  6
CONTINUOUS
 62
     7
100
AcDbLine
 10
183.8749810116
 20
511.4587016559
 30
0.0
 11
181.706069968
 21
511.4587016559
 31
0.0
  0
ARC
  5
3B4
330
1F
100
AcDbEntity
  8
0
  6
CONTINUOUS
 62
     7
100
AcDbCircle
 10
181.7060701137
 20
487.7587002095
 30
0.0
 40
0.2999987622944444
100
AcDbArc
 50
225.177898602
 51
269.9999721703
  0
ARC
  5
3B5
330
1F
100
AcDbEntity
  8
0
  6
CONTINUOUS
 62
     7
100
AcDbCircle
 10
181.7060709801
 20
511.1586985203
 30
0.0
 40
0.3000031355479483
100
AcDbArc
 50
90.0001932914
 51
134.821504626
  0
ARC
  5
3B6
330
1F
100
AcDbEntity
  8
0
  6
CONTINUOUS
 62
     7
100
AcDbCircle
 10
175.6438919975
 20
487.7587002095
 30
0.0
 40
0.2999987622949874
100
AcDbArc
 50
270.0000500636
 51
314.822101398
  0
ARC
  5
3B7
330
1F
100
AcDbEntity
  8
0
  6
CONTINUOUS
 62
     7
100
AcDbCircle
 10
175.6438911312
 20
511.1586985203
 30
0.0
 40
0.3000031355507033
100
AcDbArc
 50
45.1784953741
 51
89.9997844749
  0
LINE
  5
3B8
330
1F
100
AcDbEntity
  8
0
  6
CONTINUOUS
 62
     7
100
AcDbLine
 10
173.4749812161
 20
487.4587014473
 30
0.0
 11
175.6438922597
 21
487.4587014473
 31
0.0
  0
LINE
  5
3B9
330
1F
100
AcDbEntity
  8
0
  6
CONTINUOUS
 62
     7
100
AcDbLine
 10
175.6438922597
 20
511.4587016559
 30
0.0
 11
173.4749812161
 21
511.4587016559
 31
0.0
  0
ARC
  5
3BA
330
1F
100
AcDbEntity
  8
0
  6
CONTINUOUS
 62
     7
100
AcDbCircle
 10
173.4749815585
 20
487.7587022113
 30
0.0
 40
0.3000007640846398
100
AcDbArc
 50
180.0000653899
 51
269.9999346101
  0
ARC
  5
3BB
330
1F
100
AcDbEntity
  8
0
  6
CONTINUOUS
 62
     7
100
AcDbCircle
 10
173.4749799686
 20
511.1587024817
 30
0.0
 40
0.2999991742216213
100
AcDbArc
 50
89.9997617479
 51
180.0000603825
  0
ARC
  5
3BC
330
1F
100
AcDbEntity
  8
0
  6
CONTINUOUS
 62
     7
100
AcDbCircle
 10
178.6749810556
 20
484.708702165
 30
0.0
 40
3.999999952846453
100
AcDbArc
 50
45.1781787474
 51
134.8218212526
  0
ARC
  5
3BD
330
1F
100
AcDbEntity
  8
0
  6
CONTINUOUS
 62
     7
100
AcDbCircle
 10
178.6749810556
 20
514.2087018695
 30
0.0
 40
3.999999952846493
100
AcDbArc
 50
225.1781787474
 51
314.8218212526
  0
LINE
  5
3BE
330
1F
100
AcDbEntity
  8
0
  6
CONTINUOUS
 62
     7
100
AcDbLine
 10
182.5416134664
 20
669.0766114897
 30
0.0
 11
182.5416134664
 21
511.4587016559
 31
0.0
  0
LINE
  5
3BF
330
1F
100
AcDbEntity
  8
0
  6
CONTINUOUS
 62
     7
100
AcDbLine
 10
182.5416134664
 20
487.4587014473
 30
0.0
 11
182.5416134664
 21
451.4587011343
 31
0.0
  0
LINE
  5
3C0
330
1F
100
AcDbEntity
  8
0
  6
CONTINUOUS
 62
     7
100
AcDbLine
 10
182.5416134664
 20
427.4587009257
 30
0.0
 11
182.5416134664
 21
379.3679151839
 31
0.0
  0
LINE
  5
3C1
330
1F
100
AcDbEntity
  8
0
  6
CONTINUOUS
 62
     7
100
AcDbLine
 10
174.8083482956
 20
384.7357083267
 30
0.0
 11
174.8083482956
 21
427.4587009257
 31
0.0
  0
LINE
  5
3C2
330
1F
100
AcDbEntity
  8
0
  6
CONTINUOUS
 62
     7
100
AcDbLine
 10
174.8083482956
 20
451.4587011343
 30
0.0
 11
174.8083482956
 21
487.4587014473
 31
0.0
  0
LINE
  5
3C3
330
1F
100
AcDbEntity
  8
0
  6
CONTINUOUS
 62
     7
100
AcDbLine
 10
174.8083482956
 20
511.4587016559
 30
0.0
 11
174.8083482956
 21
674.444412083
 31
0.0
  0
LINE
  5
3C4
330
1F
100
AcDbEntity
  8
0
  6
CONTINUOUS
 62
     7
100
AcDbLine
 10
169.674981152
 20
492.7087018421
 30
0.0
 11
173.1749807944
 21
492.7087018421
 31
0.0
  0
LINE
  5
3C5
330
1F
100
AcDbEntity
  8
0
  6
CONTINUOUS
 62
     7
100
AcDbLine
 10
173.1749807944
 20
506.2087017267
 30
0.0
 11
169.674981152
 21
506.2087017267
 31
0.0
  0
LINE
  5
3C6
330
1F
100
AcDbEntity
  8
0
  6
CONTINUOUS
 62
     7
100
AcDbLine
 10
169.674981152
 20
432.7087003893
 30
0.0
 11
173.1749807944
 21
432.7087003893
 31
0.0
  0
LINE
  5
3C7
330
1F
100
AcDbEntity
  8
0
  6
CONTINUOUS
 62
     7
100
AcDbLine
 10
173.1749807944
 20
446.2087016708
 30
0.0
 11
169.674981152
 21
446.2087016708
 31
0.0
  0
LINE
  5
3C8
330
1F
100
AcDbEntity
  8
0
  6
CONTINUOUS
 62
     7
100
AcDbLine
 10
184.1749812005
 20
427.7586985534
 30
0.0
 11
184.1749812005
 21
451.1587035066
 31
0.0
  0
LINE
  5
3C9
330
1F
100
AcDbEntity
  8
0
  6
CONTINUOUS
 62
     7
100
AcDbLine
 10
173.1749807944
 20
427.7586985534
 30
0.0
 11
173.1749807944
 21
451.1587035066
 31
0.0
  0
LINE
  5
3CA
330
1F
100
AcDbEntity
  8
0
  6
CONTINUOUS
 62
     7
100
AcDbLine
 10
184.1749812005
 20
487.758701869
 30
0.0
 11
184.1749812005
 21
511.1587021655
 31
0.0
  0
LINE
  5
3CB
330
1F
100
AcDbEntity
  8
0
  6
CONTINUOUS
 62
     7
100
AcDbLine
 10
173.1749807944
 20
487.758701869
 30
0.0
 11
173.1749807944
 21
511.1587021655
 31
0.0
  0
LINE
  5
3CC
330
1F
100
AcDbEntity
  8
0
  6
CONTINUOUS
 62
     7
100
AcDbLine
 10
184.1749812005
 20
442.9228019124
 30
0.0
 11
186.6749811446
 21
442.9228019124
 31
0.0
  0
LINE
  5
3CD
330
1F
100
AcDbEntity
  8
0
  6
CONTINUOUS
 62
     7
100
AcDbLine
 10
186.6749811446
 20
435.9946001476
 30
0.0
 11
186.6749811446
 21
442.9228019124
 31
0.0
  0
LINE
  5
3CE
330
1F
100
AcDbEntity
  8
0
  6
CONTINUOUS
 62
     7
100
AcDbLine
 10
184.1749812005
 20
435.9946001476
 30
0.0
 11
186.6749811446
 21
435.9946001476
 31
0.0
  0
LINE
  5
3CF
330
1F
100
AcDbEntity
  8
0
  6
CONTINUOUS
 62
     7
100
AcDbLine
 10
184.1749812005
 20
446.3869046575
 30
0.0
 11
186.6749811446
 21
446.3869046575
 31
0.0
  0
LINE
  5
3D0
330
1F
100
AcDbEntity
  8
0
  6
CONTINUOUS
 62
     7
100
AcDbLine
 10
186.6749811446
 20
442.9228019124
 30
0.0
 11
186.6749811446
 21
446.3869046575
 31
0.0
  0
LINE
  5
3D1
330
1F
100
AcDbEntity
  8
0
  6
CONTINUOUS
 62
     7
100
AcDbLine
 10
184.1749812005
 20
432.5304974026
 30
0.0
 11
186.6749811446
 21
432.5304974026
 31
0.0
  0
LINE
  5
3D2
330
1F
100
AcDbEntity
  8
0
  6
CONTINUOUS
 62
     7
100
AcDbLine
 10
186.6749811446
 20
432.5304974026
 30
0.0
 11
186.6749811446
 21
435.9946001476
 31
0.0
  0
LINE
  5
3D3
330
1F
100
AcDbEntity
  8
0
  6
CONTINUOUS
 62
     7
100
AcDbLine
 10
184.1749812005
 20
502.9228033653
 30
0.0
 11
186.6749811446
 21
502.9228033653
 31
0.0
  0
LINE
  5
3D4
330
1F
100
AcDbEntity
  8
0
  6
CONTINUOUS
 62
     7
100
AcDbLine
 10
186.6749811446
 20
495.9946002035
 30
0.0
 11
186.6749811446
 21
502.9228033653
 31
0.0
  0
LINE
  5
3D5
330
1F
100
AcDbEntity
  8
0
  6
CONTINUOUS
 62
     7
100
AcDbLine
 10
184.1749812005
 20
495.9946002035
 30
0.0
 11
186.6749811446
 21
495.9946002035
 31
0.0
  0
LINE
  5
3D6
330
1F
100
AcDbEntity
  8
0
  6
CONTINUOUS
 62
     7
100
AcDbLine
 10
184.1749812005
 20
506.386905179
 30
0.0
 11
186.6749811446
 21
506.386905179
 31
0.0
  0
LINE
  5
3D7
330
1F
100
AcDbEntity
  8
0
  6
CONTINUOUS
 62
     7
100
AcDbLine
 10
186.6749811446
 20
502.9228033653
 30
0.0
 11
186.6749811446
 21
506.386905179
 31
0.0
  0
LINE
  5
3D8
330
1F
100
AcDbEntity
  8
0
  6
CONTINUOUS
 62
     7
100
AcDbLine
 10
184.1749812005
 20
492.5304983898
 30
0.0
 11
186.6749811446
 21
492.5304983898
 31
0.0
  0
LINE
  5
3D9
330
1F
100
AcDbEntity
  8
0
  6
CONTINUOUS
 62
     7
100
AcDbLine
 10
186.6749811446
 20
492.5304983898
 30
0.0
 11
186.6749811446
 21
495.9946002035
 31
0.0
  0
LINE
  5
3DA
330
1F
100
AcDbEntity
  8
0
  6
CONTINUOUS
 62
     7
100
AcDbLine
 10
168.6749809881
 20
426.9586999124
 30
0.0
 11
168.6749809881
 21
511.9587017378
 31
0.0
  0
LINE
  5
3DB
330
1F
100
AcDbEntity
  8
0
  6
CONTINUOUS
 62
     7
100
AcDbLine
 10
169.674981152
 20
511.9587017378
 30
0.0
 11
169.674981152
 21
426.9586999124
 31
0.0
  0
LINE
  5
3DC
330
1F
100
AcDbEntity
  8
0
  6
CONTINUOUS
 62
     7
100
AcDbLine
 10
156.1749808018
 20
511.9587017378
 30
0.0
 11
156.1749808018
 21
426.9586999124
 31
0.0
  0
CIRCLE
  5
3DD
330
1F
100
AcDbEntity
  8
0
  6
CONTINUOUS
 62
     7
100
AcDbCircle
 10
162.4249808167
 20
489.4587019157
 30
0.0
 40
4.000000651340733
  0
CIRCLE
  5
3DE
330
1F
100
AcDbEntity
  8
0
  6
CONTINUOUS
 62
     7
100
AcDbCircle
 10
162.4249817567
 20
449.4587027876
 30
0.0
 40
4.000000295602588
  0
LINE
  5
3DF
330
1F
100
AcDbEntity
  8
0
  6
CONTINUOUS
 62
     7
100
AcDbLine
 10
168.6749809881
 20
511.9587017378
 30
0.0
 11
168.6749809881
 21
516.9587016261
 31
0.0
  0
LINE
  5
3E0
330
1F
100
AcDbEntity
  8
0
  6
CONTINUOUS
 62
     7
100
AcDbLine
 10
168.6749809881
 20
516.9587016261
 30
0.0
 11
169.674981152
 21
515.9587014622
 31
0.0
  0
LINE
  5
3E1
330
1F
100
AcDbEntity
  8
0
  6
CONTINUOUS
 62
     7
100
AcDbLine
 10
169.674981152
 20
515.9587014622
 30
0.0
 11
169.674981152
 21
511.9587017378
 31
0.0
  0
LINE
  5
3E2
330
1F
100
AcDbEntity
  8
0
  6
CONTINUOUS
 62
     7
100
AcDbLine
 10
169.674981152
 20
426.9586999124
 30
0.0
 11
169.674981152
 21
422.9586992568
 31
0.0
  0
LINE
  5
3E3
330
1F
100
AcDbEntity
  8
0
  6
CONTINUOUS
 62
     7
100
AcDbLine
 10
169.674981152
 20
422.9586992568
 30
0.0
 11
168.6749809881
 21
421.9587046808
 31
0.0
  0
LINE
  5
3E4
330
1F
100
AcDbEntity
  8
0
  6
CONTINUOUS
 62
     7
100
AcDbLine
 10
168.6749809881
 20
421.9587046808
 30
0.0
 11
168.6749809881
 21
426.9586999124
 31
0.0
  0
LINE
  5
3E5
330
1F
100
AcDbEntity
  8
0
  6
CONTINUOUS
 62
     7
100
AcDbLine
 10
156.1749808018
 20
516.9587016261
 30
0.0
 11
156.1749808018
 21
511.9587017378
 31
0.0
  0
LINE
  5
3E6
330
1F
100
AcDbEntity
  8
0
  6
CONTINUOUS
 62
     7
100
AcDbLine
 10
156.1749808018
 20
516.9587016261
 30
0.0
 11
168.6749809881
 21
516.9587016261
 31
0.0
  0
LINE
  5
3E7
330
1F
100
AcDbEntity
  8
0
  6
CONTINUOUS
 62
     7
100
AcDbLine
 10
156.1749808018
 20
426.9586999124
 30
0.0
 11
156.1749808018
 21
421.9587046808
 31
0.0
  0
LINE
  5
3E8
330
1F
100
AcDbEntity
  8
0
  6
CONTINUOUS
 62
     7
100
AcDbLine
 10
168.6749809881
 20
421.9587046808
 30
0.0
 11
156.1749808018
 21
421.9587046808
 31
0.0
  0
CIRCLE
  5
3E9
330
1F
100
AcDbEntity
  8
0
  6
CONTINUOUS
 62
     7
100
AcDbCircle
 10
162.4249811862
 20
489.4587020385
 30
0.0
 40
3.400000380708942
  0
CIRCLE
  5
3EA
330
1F
100
AcDbEntity
  8
0
  6
CONTINUOUS
 62
     7
100
AcDbCircle
 10
162.4249818191
 20
449.4587025129
 30
0.0
 40
3.40000025059372
  0
LINE
  5
3EB
330
1F
100
AcDbEntity
  8
0
  6
CONTINUOUS
 62
     7
100
AcDbLine
 10
155.1749806379
 20
426.9586999124
 30
0.0
 11
155.1749806379
 21
511.9587017378
 31
0.0
  0
LINE
  5
3EC
330
1F
100
AcDbEntity
  8
0
  6
CONTINUOUS
 62
     7
100
AcDbLine
 10
155.1749806379
 20
422.9586992568
 30
0.0
 11
155.1749806379
 21
426.9586999124
 31
0.0
  0
LINE
  5
3ED
330
1F
100
AcDbEntity
  8
0
  6
CONTINUOUS
 62
     7
100
AcDbLine
 10
155.1749806379
 20
422.9586992568
 30
0.0
 11
156.1749808018
 21
421.9587046808
 31
0.0
  0
LINE
  5
3EE
330
1F
100
AcDbEntity
  8
0
  6
CONTINUOUS
 62
     7
100
AcDbLine
 10
155.1749806379
 20
511.9587017378
 30
0.0
 11
155.1749806379
 21
515.9587014622
 31
0.0
  0
LINE
  5
3EF
330
1F
100
AcDbEntity
  8
0
  6
CONTINUOUS
 62
     7
100
AcDbLine
 10
156.1749808018
 20
516.9587016261
 30
0.0
 11
155.1749806379
 21
515.9587014622
 31
0.0
  0
LINE
  5
3F0
330
1F
100
AcDbEntity
  8
0
  6
CONTINUOUS
 62
     7
100
AcDbLine
 10
189.674980705
 20
671.2860364622
 30
0.0
 11
189.674980705
 21
381.5773401564
 31
0.0
  0
LINE
  5
3F1
330
1F
100
AcDbEntity
  8
0
  6
CONTINUOUS
 62
     7
100
AcDbLine
 10
172.6749811781
 20
382.6023388809
 30
0.0
 11
172.6749811781
 21
432.7087003893
 31
0.0
  0
LINE
  5
3F2
330
1F
100
AcDbEntity
  8
0
  6
CONTINUOUS
 62
     7
100
AcDbLine
 10
172.6749811781
 20
446.2087016708
 30
0.0
 11
172.6749811781
 21
492.7087018421
 31
0.0
  0
LINE
  5
3F3
330
1F
100
AcDbEntity
  8
0
  6
CONTINUOUS
 62
     7
100
AcDbLine
 10
172.6749811781
 20
506.2087017267
 30
0.0
 11
172.6749811781
 21
672.3110426372
 31
0.0
  0
LINE
  5
3F4
330
1F
100
AcDbEntity
  8
0
  6
CONTINUOUS
 62
     7
100
AcDbLine
 10
182.5416134664
 20
367.3679144995
 30
0.0
 11
182.5416134664
 21
343.3743925707
 31
0.0
  0
LINE
  5
3F5
330
1F
100
AcDbEntity
  8
0
  6
CONTINUOUS
 62
     7
100
AcDbLine
 10
174.8083482956
 20
343.3743925707
 30
0.0
 11
174.8083482956
 21
372.7357001917
 31
0.0
  0
LINE
  5
3F6
330
1F
100
AcDbEntity
  8
0
  6
CONTINUOUS
 62
     7
100
AcDbLine
 10
182.5479643879
 20
343.3743925707
 30
0.0
 11
174.8083482956
 21
343.3743925707
 31
0.0
  0
LINE
  5
3F7
330
1F
100
AcDbEntity
  8
0
  6
CONTINUOUS
 62
     7
100
AcDbLine
 10
189.674980705
 20
369.5773394721
 30
0.0
 11
189.674980705
 21
343.3743925707
 31
0.0
  0
LINE
  5
3F8
330
1F
100
AcDbEntity
  8
0
  6
CONTINUOUS
 62
     7
100
AcDbLine
 10
189.674980705
 20
343.3743925707
 30
0.0
 11
188.6749814724
 21
343.3743925707
 31
0.0
  0
LINE
  5
3F9
330
1F
100
AcDbEntity
  8
0
  6
CONTINUOUS
 62
     7
100
AcDbLine
 10
188.6749814724
 20
343.3743925707
 30
0.0
 11
182.7416135923
 21
343.3743925707
 31
0.0
  0
LINE
  5
3FA
330
1F
100
AcDbEntity
  8
0
  6
CONTINUOUS
 62
     7
100
AcDbLine
 10
182.7416135923
 20
343.3743925707
 30
0.0
 11
182.5416134664
 21
343.3743925707
 31
0.0
  0
LINE
  5
3FB
330
1F
100
AcDbEntity
  8
0
  6
CONTINUOUS
 62
     7
100
AcDbLine
 10
174.8083482956
 20
343.3743925707
 30
0.0
 11
174.6083486353
 21
343.3743925707
 31
0.0
  0
LINE
  5
3FC
330
1F
100
AcDbEntity
  8
0
  6
CONTINUOUS
 62
     7
100
AcDbLine
 10
174.6083486353
 20
343.3743925707
 30
0.0
 11
173.6749808764
 21
343.3743925707
 31
0.0
  0
LINE
  5
3FD
330
1F
100
AcDbEntity
  8
0
  6
CONTINUOUS
 62
     7
100
AcDbLine
 10
172.6749811781
 20
343.3743925707
 30
0.0
 11
172.6749811781
 21
370.6023307459
 31
0.0
  0
LINE
  5
3FE
330
1F
100
AcDbEntity
  8
0
  6
CONTINUOUS
 62
     7
100
AcDbLine
 10
173.6749808764
 20
343.3743925707
 30
0.0
 11
172.6749811781
 21
343.3743925707
 31
0.0
  0
DIMENSION
  5
3FF
330
1F
100
AcDbEntity
  8
OPISY
100
AcDbDimension
  2
*D35
 10
189.6749810105
 20
304.3743925707
 30
0.0
 11
217.0193350797
 21
304.3743925707
 31
0.0
 70
   160
  3
SLDDIMSTYLE0
100
AcDbAlignedDimension
 13
172.6749810105
 23
343.3743925707
 33
0.0
 14
189.6749810105
 24
343.3743925707
 34
0.0
100
AcDbRotatedDimension
  0
DIMENSION
  5
40C
330
1F
100
AcDbEntity
  8
OPISY
100
AcDbDimension
  2
*D36
 10
162.4249810105
 20
409.8170566614
 30
0.0
 11
130.5975012517
 21
409.8170566614
 31
0.0
 70
   160
  3
SLDDIMSTYLE0
100
AcDbAlignedDimension
 13
155.1749810105
 23
426.9587018117
 33
0.0
 14
162.4249810105
 24
482.9587018117
 34
0.0
100
AcDbRotatedDimension
  0
DIMENSION
  5
418
330
1F
100
AcDbEntity
  8
OPISY
100
AcDbDimension
  2
*D37
 10
135.6749810105
 20
449.4587018117
 30
0.0
 11
135.6749810105
 21
469.4587018117
 31
0.0
 70
   160
  3
SLDDIMSTYLE1
100
AcDbAlignedDimension
 13
155.9249810105
 23
489.4587018117
 33
0.0
 14
155.9249810105
 24
449.4587018117
 34
0.0
 50
90.0
100
AcDbRotatedDimension
  0
DIMENSION
  5
422
330
1F
100
AcDbEntity
  8
OPISY
100
AcDbDimension
  2
*D38
 10
159.3008637895
 20
491.9566793116
 30
0.0
 11
131.6540881352
 21
514.0625054717
 31
0.0
 70
   163
  1
2 x M<>
  3
SLDDIMSTYLE2
100
AcDbDiametricDimension
 15
165.5490982314
 25
486.9607243119
 35
0.0
 40
0.0
  0
DIMENSION
  5
42E
330
1F
100
AcDbEntity
  8
OPISY
100
AcDbDimension
  2
*D39
 10
172.6749810105
 20
322.3743925707
 30
0.0
 11
124.2987921579
 21
322.3743925707
 31
0.0
 70
   160
  3
SLDDIMSTYLE0
100
AcDbAlignedDimension
 13
155.1749810105
 23
426.9587018117
 33
0.0
 14
172.6749810105
 24
343.3743925707
 34
0.0
100
AcDbRotatedDimension
  0
INSERT
  5
445
330
1F
100
AcDbEntity
  8
OPISY
100
AcDbBlockReference
  2
SW_CENTERMARKSYMBOL_14
 10
162.4249804293
 20
449.4587008065
 30
0.0
  0
INSERT
  5
451
330
1F
100
AcDbEntity
  8
OPISY
100
AcDbBlockReference
  2
SW_CENTERMARKSYMBOL_15
 10
162.4249804293
 20
489.4587017751
 30
0.0
  0
LINE
  5
452
330
1F
100
AcDbEntity
  8
0
  6
HIDDEN
 62
     7
100
AcDbLine
 10
199.1999810105
 20
370.0898413057
 30
0.0
 11
196.1874810105
 21
376.0898413057
 31
0.0
  0
LINE
  5
453
330
1F
100
AcDbEntity
  8
0
  6
HIDDEN
 62
     7
100
AcDbLine
 10
196.1874810105
 20
376.0898413057
 30
0.0
 11
184.1874810105
 21
364.0898413057
 31
0.0
  0
LINE
  5
454
330
1F
100
AcDbEntity
  8
0
  6
HIDDEN
 62
     7
100
AcDbLine
 10
184.1874810105
 20
364.0898413057
 30
0.0
 11
178.1624810105
 21
376.0898413057
 31
0.0
  0
LINE
  5
455
330
1F
100
AcDbEntity
  8
0
  6
HIDDEN
 62
     7
100
AcDbLine
 10
178.1624810105
 20
376.0898413057
 30
0.0
 11
166.1624810105
 21
364.0898413057
 31
0.0
  0
LINE
  5
456
330
1F
100
AcDbEntity
  8
0
  6
HIDDEN
 62
     7
100
AcDbLine
 10
166.1624810105
 20
364.0898413057
 30
0.0
 11
163.1499810105
 21
370.0898413057
 31
0.0
  0
LINE
  5
457
330
1F
100
AcDbEntity
  8
0
  6
HIDDEN
 62
     7
100
AcDbLine
 10
199.1999810105
 20
382.0898413057
 30
0.0
 11
196.1874810105
 21
388.0898413057
 31
0.0
  0
LINE
  5
458
330
1F
100
AcDbEntity
  8
0
  6
HIDDEN
 62
     7
100
AcDbLine
 10
196.1874810105
 20
388.0898413057
 30
0.0
 11
184.1874810105
 21
376.0898413057
 31
0.0
  0
LINE
  5
459
330
1F
100
AcDbEntity
  8
0
  6
HIDDEN
 62
     7
100
AcDbLine
 10
184.1874810105
 20
376.0898413057
 30
0.0
 11
178.1624810105
 21
388.0898413057
 31
0.0
  0
LINE
  5
45A
330
1F
100
AcDbEntity
  8
0
  6
HIDDEN
 62
     7
100
AcDbLine
 10
178.1624810105
 20
388.0898413057
 30
0.0
 11
166.1624810105
 21
376.0898413057
 31
0.0
  0
LINE
  5
45B
330
1F
100
AcDbEntity
  8
0
  6
HIDDEN
 62
     7
100
AcDbLine
 10
166.1624810105
 20
376.0898413057
 30
0.0
 11
163.1499810105
 21
382.0898413057
 31
0.0
  0
LINE
  5
45C
330
1F
100
AcDbEntity
  8
0
  6
HIDDEN
 62
     7
100
AcDbLine
 10
199.1999810105
 20
671.7985412342
 30
0.0
 11
196.1874810105
 21
677.7985412342
 31
0.0
  0
LINE
  5
45D
330
1F
100
AcDbEntity
  8
0
  6
HIDDEN
 62
     7
100
AcDbLine
 10
196.1874810105
 20
677.7985412342
 30
0.0
 11
184.1874810105
 21
665.7985412342
 31
0.0
  0
LINE
  5
45E
330
1F
100
AcDbEntity
  8
0
  6
HIDDEN
 62
     7
100
AcDbLine
 10
184.1874810105
 20
665.7985412342
 30
0.0
 11
178.1624810105
 21
677.7985412342
 31
0.0
  0
LINE
  5
45F
330
1F
100
AcDbEntity
  8
0
  6
HIDDEN
 62
     7
100
AcDbLine
 10
178.1624810105
 20
677.7985412342
 30
0.0
 11
166.1624810105
 21
665.7985412342
 31
0.0
  0
LINE
  5
460
330
1F
100
AcDbEntity
  8
0
  6
HIDDEN
 62
     7
100
AcDbLine
 10
166.1624810105
 20
665.7985412342
 30
0.0
 11
163.1499810105
 21
671.7985412342
 31
0.0
  0
LINE
  5
461
330
1F
100
AcDbEntity
  8
0
  6
HIDDEN
 62
     7
100
AcDbLine
 10
199.1999810105
 20
683.7985412342
 30
0.0
 11
196.1874810105
 21
689.7985412342
 31
0.0
  0
LINE
  5
462
330
1F
100
AcDbEntity
  8
0
  6
HIDDEN
 62
     7
100
AcDbLine
 10
196.1874810105
 20
689.7985412342
 30
0.0
 11
184.1874810105
 21
677.7985412342
 31
0.0
  0
LINE
  5
463
330
1F
100
AcDbEntity
  8
0
  6
HIDDEN
 62
     7
100
AcDbLine
 10
184.1874810105
 20
677.7985412342
 30
0.0
 11
178.1624810105
 21
689.7985412342
 31
0.0
  0
LINE
  5
464
330
1F
100
AcDbEntity
  8
0
  6
HIDDEN
 62
     7
100
AcDbLine
 10
178.1624810105
 20
689.7985412342
 30
0.0
 11
166.1624810105
 21
677.7985412342
 31
0.0
  0
LINE
  5
465
330
1F
100
AcDbEntity
  8
0
  6
HIDDEN
 62
     7
100
AcDbLine
 10
166.1624810105
 20
677.7985412342
 30
0.0
 11
163.1499810105
 21
683.7985412342
 31
0.0
  0
LINE
  5
466
330
1F
100
AcDbEntity
  8
OPISY
  6
CENTERX2
 48
3.0
100
AcDbLine
 10
178.6749809974
 20
337.3744102137
 30
0.0
 11
178.6749809974
 21
385.0876303332
 31
0.0
  0
LINE
  5
467
330
1F
100
AcDbEntity
  8
OPISY
  6
CENTERX2
 48
3.0
100
AcDbLine
 10
178.6749809974
 20
387.0690960592
 30
0.0
 11
178.6749809974
 21
676.7777998155
 31
0.0
  0
LINE
  5
468
330
1F
100
AcDbEntity
  8
OPISY
  6
CENTERX2
 48
3.0
100
AcDbLine
 10
178.6749809974
 20
688.777808902
 30
0.0
 11
178.6749809974
 21
712.905202863
 31
0.0
  0
LINE
  5
469
330
1F
100
AcDbEntity
  8
OPISY
  6
CENTERX2
 48
3.0
100
AcDbLine
 10
190.1749807869
 20
499.4587017844
 30
0.0
 11
152.1749801462
 21
499.4587017844
 31
0.0
  0
LINE
  5
46A
330
1F
100
AcDbEntity
  8
OPISY
  6
CENTERX2
 48
3.0
100
AcDbLine
 10
190.1749807869
 20
439.4587028927
 30
0.0
 11
152.1749801462
 21
439.4587028927
 31
0.0
  0
LINE
  5
46B
330
1F
100
AcDbEntity
  8
0
  6
CONTINUOUS
 62
     7
100
AcDbLine
 10
417.6229955522
 20
248.7869412193
 30
0.0
 11
417.6229955522
 21
250.8644420208
 31
0.0
  0
LINE
  5
46C
330
1F
100
AcDbEntity
  8
0
  6
CONTINUOUS
 62
     7
100
AcDbLine
 10
393.622993481
 20
250.9558522628
 30
0.0
 11
393.622993481
 21
248.7869412193
 31
0.0
  0
LINE
  5
46D
330
1F
100
AcDbEntity
  8
0
  6
CONTINUOUS
 62
     7
100
AcDbLine
 10
417.6229955522
 20
257.109440155
 30
0.0
 11
417.6229955522
 21
259.1869412476
 31
0.0
  0
LINE
  5
46E
330
1F
100
AcDbEntity
  8
0
  6
CONTINUOUS
 62
     7
100
AcDbLine
 10
393.622993481
 20
259.1869412476
 30
0.0
 11
393.622993481
 21
257.0180300876
 31
0.0
  0
ARC
  5
46F
330
1F
100
AcDbEntity
  8
0
  6
CONTINUOUS
 62
     7
100
AcDbCircle
 10
417.3229949413
 20
248.7869411775
 30
0.0
 40
0.3000000000000114
100
AcDbArc
 50
270.0
 51
0.0
  0
ARC
  5
470
330
1F
100
AcDbEntity
  8
0
  6
CONTINUOUS
 62
     7
100
AcDbCircle
 10
393.9229949413
 20
248.7869411775
 30
0.0
 40
0.3000000000000114
100
AcDbArc
 50
180.0
 51
270.0
  0
ARC
  5
471
330
1F
100
AcDbEntity
  8
0
  6
CONTINUOUS
 62
     7
100
AcDbCircle
 10
417.3229949413
 20
259.1869411775
 30
0.0
 40
0.3000000000000114
100
AcDbArc
 50
0.0
 51
90.0
  0
ARC
  5
472
330
1F
100
AcDbEntity
  8
0
  6
CONTINUOUS
 62
     7
100
AcDbCircle
 10
393.9229949413
 20
259.1869411775
 30
0.0
 40
0.3000000000000114
100
AcDbArc
 50
90.0
 51
180.0
  0
ARC
  5
473
330
1F
100
AcDbEntity
  8
0
  6
CONTINUOUS
 62
     7
100
AcDbCircle
 10
393.9229949413
 20
250.9558522643
 30
0.0
 40
0.3000000000000198
100
AcDbArc
 50
135.178178938
 51
180.0
  0
ARC
  5
474
330
1F
100
AcDbEntity
  8
0
  6
CONTINUOUS
 62
     7
100
AcDbCircle
 10
393.9229949413
 20
257.0180300908
 30
0.0
 40
0.3000000000000599
100
AcDbArc
 50
180.0
 51
224.8218210621
  0
ARC
  5
475
330
1F
100
AcDbEntity
  8
0
  6
CONTINUOUS
 62
     7
100
AcDbCircle
 10
390.8729949413
 20
253.9869411775
 30
0.0
 40
3.999999999999982
100
AcDbArc
 50
315.178178938
 51
44.8218210621
  0
ARC
  5
476
330
1F
100
AcDbEntity
  8
0
  6
CONTINUOUS
 62
     7
100
AcDbCircle
 10
479.3229949413
 20
248.7869411775
 30
0.0
 40
0.3000000000000114
100
AcDbArc
 50
270.0
 51
0.0
  0
ARC
  5
477
330
1F
100
AcDbEntity
  8
0
  6
CONTINUOUS
 62
     7
100
AcDbCircle
 10
455.9229949413
 20
248.7869411775
 30
0.0
 40
0.3000000000000114
100
AcDbArc
 50
180.0
 51
270.0
  0
LINE
  5
478
330
1F
100
AcDbEntity
  8
0
  6
CONTINUOUS
 62
     7
100
AcDbLine
 10
479.6229964016
 20
248.7869412193
 30
0.0
 11
479.6229964016
 21
250.9558522628
 31
0.0
  0
LINE
  5
479
330
1F
100
AcDbEntity
  8
0
  6
CONTINUOUS
 62
     7
100
AcDbLine
 10
455.6229943304
 20
250.8644420208
 30
0.0
 11
455.6229943304
 21
248.7869412193
 31
0.0
  0
LINE
  5
47A
330
1F
100
AcDbEntity
  8
0
  6
CONTINUOUS
 62
     7
100
AcDbLine
 10
479.6229964016
 20
257.0180300876
 30
0.0
 11
479.6229964016
 21
259.1869412476
 31
0.0
  0
LINE
  5
47B
330
1F
100
AcDbEntity
  8
0
  6
CONTINUOUS
 62
     7
100
AcDbLine
 10
455.6229943304
 20
259.1869412476
 30
0.0
 11
455.6229943304
 21
257.109440155
 31
0.0
  0
ARC
  5
47C
330
1F
100
AcDbEntity
  8
0
  6
CONTINUOUS
 62
     7
100
AcDbCircle
 10
479.3229949413
 20
257.0180300908
 30
0.0
 40
0.2999999999999795
100
AcDbArc
 50
315.1781789379
 51
0.0
  0
ARC
  5
47D
330
1F
100
AcDbEntity
  8
0
  6
CONTINUOUS
 62
     7
100
AcDbCircle
 10
479.3229949413
 20
250.9558522643
 30
0.0
 40
0.3000000000000196
100
AcDbArc
 50
0.0
 51
44.8218210621
  0
ARC
  5
47E
330
1F
100
AcDbEntity
  8
0
  6
CONTINUOUS
 62
     7
100
AcDbCircle
 10
479.3229949413
 20
259.1869411775
 30
0.0
 40
0.3000000000000114
100
AcDbArc
 50
0.0
 51
90.0
  0
ARC
  5
47F
330
1F
100
AcDbEntity
  8
0
  6
CONTINUOUS
 62
     7
100
AcDbCircle
 10
455.9229949413
 20
259.1869411775
 30
0.0
 40
0.3000000000000114
100
AcDbArc
 50
90.0
 51
180.0
  0
ARC
  5
480
330
1F
100
AcDbEntity
  8
0
  6
CONTINUOUS
 62
     7
100
AcDbCircle
 10
482.3729949413
 20
253.9869411775
 30
0.0
 40
3.999999999999982
100
AcDbArc
 50
135.1781789379
 51
224.8218210621
  0
ARC
  5
481
330
1F
100
AcDbEntity
  8
0
  6
CONTINUOUS
 62
     7
100
AcDbCircle
 10
433.1429949413
 20
259.6069411775
 30
0.0
 40
3.520000000000038
100
AcDbArc
 50
165.5224878141
 51
210.9123106816
  0
ARC
  5
482
330
1F
100
AcDbEntity
  8
0
  6
CONTINUOUS
 62
     7
100
AcDbCircle
 10
440.1029949413
 20
259.6069411775
 30
0.0
 40
3.520000000000038
100
AcDbArc
 50
329.0876893184
 51
14.4775121859
  0
LINE
  5
483
330
1F
100
AcDbEntity
  8
0
  6
CONTINUOUS
 62
     7
100
AcDbLine
 10
440.6229951313
 20
279.6869408825
 30
0.0
 11
439.8229948605
 21
280.4869413861
 31
0.0
  0
LINE
  5
484
330
1F
100
AcDbEntity
  8
0
  6
CONTINUOUS
 62
     7
100
AcDbLine
 10
433.4229950221
 20
280.4869413861
 30
0.0
 11
432.6229947513
 21
279.6869408825
 31
0.0
  0
LINE
  5
485
330
1F
100
AcDbEntity
  8
0
  6
CONTINUOUS
 62
     7
100
AcDbLine
 10
432.6229947513
 20
279.6869408825
 30
0.0
 11
432.6229947513
 21
260.4869413675
 31
0.0
  0
LINE
  5
486
330
1F
100
AcDbEntity
  8
0
  6
CONTINUOUS
 62
     7
100
AcDbLine
 10
440.6229951313
 20
260.4869413675
 30
0.0
 11
440.6229951313
 21
279.6869408825
 31
0.0
  0
LINE
  5
487
330
1F
100
AcDbEntity
  8
0
  6
CONTINUOUS
 62
     7
100
AcDbLine
 10
412.372994226
 20
244.9869411552
 30
0.0
 11
412.372994226
 21
248.4869407975
 31
0.0
  0
LINE
  5
488
330
1F
100
AcDbEntity
  8
0
  6
CONTINUOUS
 62
     7
100
AcDbLine
 10
398.8729966698
 20
248.4869407975
 30
0.0
 11
398.8729966698
 21
244.9869411552
 31
0.0
  0
LINE
  5
489
330
1F
100
AcDbEntity
  8
0
  6
CONTINUOUS
 62
     7
100
AcDbLine
 10
474.3729932128
 20
244.9869411552
 30
0.0
 11
474.3729932128
 21
248.4869407975
 31
0.0
  0
LINE
  5
48A
330
1F
100
AcDbEntity
  8
0
  6
CONTINUOUS
 62
     7
100
AcDbLine
 10
460.8729956566
 20
248.4869407975
 30
0.0
 11
460.8729956566
 21
244.9869411552
 31
0.0
  0
LINE
  5
48B
330
1F
100
AcDbEntity
  8
0
  6
CONTINUOUS
 62
     7
100
AcDbLine
 10
417.3229941992
 20
248.4869407975
 30
0.0
 11
393.922994834
 21
248.4869407975
 31
0.0
  0
LINE
  5
48C
330
1F
100
AcDbEntity
  8
0
  6
CONTINUOUS
 62
     7
100
AcDbLine
 10
417.3229941992
 20
259.4869412036
 30
0.0
 11
393.922994834
 21
259.4869412036
 31
0.0
  0
LINE
  5
48D
330
1F
100
AcDbEntity
  8
0
  6
CONTINUOUS
 62
     7
100
AcDbLine
 10
479.3229950486
 20
248.4869407975
 30
0.0
 11
455.9229956834
 21
248.4869407975
 31
0.0
  0
LINE
  5
48E
330
1F
100
AcDbEntity
  8
0
  6
CONTINUOUS
 62
     7
100
AcDbLine
 10
479.3229950486
 20
259.4869412036
 30
0.0
 11
455.9229956834
 21
259.4869412036
 31
0.0
  0
LINE
  5
48F
330
1F
100
AcDbEntity
  8
0
  6
CONTINUOUS
 62
     7
100
AcDbLine
 10
467.6229944347
 20
259.4869412036
 30
0.0
 11
467.6229944347
 21
261.9869411477
 31
0.0
  0
LINE
  5
490
330
1F
100
AcDbEntity
  8
0
  6
CONTINUOUS
 62
     7
100
AcDbLine
 10
473.6229954181
 20
261.9869411477
 30
0.0
 11
467.6229944347
 21
261.9869411477
 31
0.0
  0
LINE
  5
491
330
1F
100
AcDbEntity
  8
0
  6
CONTINUOUS
 62
     7
100
AcDbLine
 10
473.6229954181
 20
259.4869412036
 30
0.0
 11
473.6229954181
 21
261.9869411477
 31
0.0
  0
LINE
  5
492
330
1F
100
AcDbEntity
  8
0
  6
CONTINUOUS
 62
     7
100
AcDbLine
 10
461.6229953138
 20
259.4869412036
 30
0.0
 11
461.6229953138
 21
261.9869411477
 31
0.0
  0
LINE
  5
493
330
1F
100
AcDbEntity
  8
0
  6
CONTINUOUS
 62
     7
100
AcDbLine
 10
467.6229944347
 20
261.9869411477
 30
0.0
 11
461.6229953138
 21
261.9869411477
 31
0.0
  0
LINE
  5
494
330
1F
100
AcDbEntity
  8
0
  6
CONTINUOUS
 62
     7
100
AcDbLine
 10
405.6229954479
 20
259.4869412036
 30
0.0
 11
405.6229954479
 21
261.9869411477
 31
0.0
  0
LINE
  5
495
330
1F
100
AcDbEntity
  8
0
  6
CONTINUOUS
 62
     7
100
AcDbLine
 10
411.6229945688
 20
261.9869411477
 30
0.0
 11
405.6229954479
 21
261.9869411477
 31
0.0
  0
LINE
  5
496
330
1F
100
AcDbEntity
  8
0
  6
CONTINUOUS
 62
     7
100
AcDbLine
 10
411.6229945688
 20
259.4869412036
 30
0.0
 11
411.6229945688
 21
261.9869411477
 31
0.0
  0
LINE
  5
497
330
1F
100
AcDbEntity
  8
0
  6
CONTINUOUS
 62
     7
100
AcDbLine
 10
399.6229944645
 20
259.4869412036
 30
0.0
 11
399.6229944645
 21
261.9869411477
 31
0.0
  0
LINE
  5
498
330
1F
100
AcDbEntity
  8
0
  6
CONTINUOUS
 62
     7
100
AcDbLine
 10
405.6229954479
 20
261.9869411477
 30
0.0
 11
399.6229944645
 21
261.9869411477
 31
0.0
  0
LINE
  5
499
330
1F
100
AcDbEntity
  8
0
  6
CONTINUOUS
 62
     7
100
AcDbLine
 10
476.6229940472
 20
243.9869409913
 30
0.0
 11
396.6229958354
 21
243.9869409913
 31
0.0
  0
LINE
  5
49A
330
1F
100
AcDbEntity
  8
0
  6
CONTINUOUS
 62
     7
100
AcDbLine
 10
396.6229958354
 20
244.9869411552
 30
0.0
 11
476.6229940472
 21
244.9869411552
 31
0.0
  0
CIRCLE
  5
49B
330
1F
100
AcDbEntity
  8
0
  6
CONTINUOUS
 62
     7
100
AcDbCircle
 10
419.1229949413
 20
237.7369411775
 30
0.0
 40
3.024999999999977
  0
CIRCLE
  5
49C
330
1F
100
AcDbEntity
  8
0
  6
CONTINUOUS
 62
     7
100
AcDbCircle
 10
419.1229949413
 20
237.7369411775
 30
0.0
 40
2.5
  0
LINE
  5
49D
330
1F
100
AcDbEntity
  8
0
  6
CONTINUOUS
 62
     7
100
AcDbLine
 10
396.6229958354
 20
231.486940805
 30
0.0
 11
476.6229940472
 21
231.486940805
 31
0.0
  0
CIRCLE
  5
49E
330
1F
100
AcDbEntity
  8
0
  6
CONTINUOUS
 62
     7
100
AcDbCircle
 10
454.1229949413
 20
237.7369411775
 30
0.0
 40
3.024999999999977
  0
LINE
  5
49F
330
1F
100
AcDbEntity
  8
0
  6
CONTINUOUS
 62
     7
100
AcDbLine
 10
476.6229940472
 20
231.486940805
 30
0.0
 11
481.6229967294
 21
231.486940805
 31
0.0
  0
LINE
  5
4A0
330
1F
100
AcDbEntity
  8
0
  6
CONTINUOUS
 62
     7
100
AcDbLine
 10
481.6229967294
 20
243.9869409913
 30
0.0
 11
476.6229940472
 21
243.9869409913
 31
0.0
  0
LINE
  5
4A1
330
1F
100
AcDbEntity
  8
0
  6
CONTINUOUS
 62
     7
100
AcDbLine
 10
481.6229967294
 20
243.9869409913
 30
0.0
 11
481.6229967294
 21
231.486940805
 31
0.0
  0
LINE
  5
4A2
330
1F
100
AcDbEntity
  8
0
  6
CONTINUOUS
 62
     7
100
AcDbLine
 10
391.6229931532
 20
231.486940805
 30
0.0
 11
396.6229958354
 21
231.486940805
 31
0.0
  0
LINE
  5
4A3
330
1F
100
AcDbEntity
  8
0
  6
CONTINUOUS
 62
     7
100
AcDbLine
 10
391.6229931532
 20
231.486940805
 30
0.0
 11
391.6229931532
 21
243.9869409913
 31
0.0
  0
LINE
  5
4A4
330
1F
100
AcDbEntity
  8
0
  6
CONTINUOUS
 62
     7
100
AcDbLine
 10
396.6229958354
 20
243.9869409913
 30
0.0
 11
391.6229931532
 21
243.9869409913
 31
0.0
  0
CIRCLE
  5
4A5
330
1F
100
AcDbEntity
  8
0
  6
CONTINUOUS
 62
     7
100
AcDbCircle
 10
454.1229949413
 20
237.7369411775
 30
0.0
 40
2.5
  0
LINE
  5
4A6
330
1F
100
AcDbEntity
  8
0
  6
CONTINUOUS
 62
     7
100
AcDbLine
 10
391.6229931532
 20
243.9869409913
 30
0.0
 11
392.6229951797
 21
244.9869411552
 31
0.0
  0
LINE
  5
4A7
330
1F
100
AcDbEntity
  8
0
  6
CONTINUOUS
 62
     7
100
AcDbLine
 10
392.6229951797
 20
244.9869411552
 30
0.0
 11
396.6229958354
 21
244.9869411552
 31
0.0
  0
LINE
  5
4A8
330
1F
100
AcDbEntity
  8
0
  6
CONTINUOUS
 62
     7
100
AcDbLine
 10
476.6229940472
 20
244.9869411552
 30
0.0
 11
480.6229947029
 21
244.9869411552
 31
0.0
  0
LINE
  5
4A9
330
1F
100
AcDbEntity
  8
0
  6
CONTINUOUS
 62
     7
100
AcDbLine
 10
481.6229967294
 20
243.9869409913
 30
0.0
 11
480.6229947029
 21
244.9869411552
 31
0.0
  0
LINE
  5
4AA
330
1F
100
AcDbEntity
  8
0
  6
CONTINUOUS
 62
     7
100
AcDbLine
 10
481.6229967294
 20
231.486940805
 30
0.0
 11
480.6229947029
 21
230.4869406411
 31
0.0
  0
LINE
  5
4AB
330
1F
100
AcDbEntity
  8
0
  6
CONTINUOUS
 62
     7
100
AcDbLine
 10
480.6229947029
 20
230.4869406411
 30
0.0
 11
476.6229940472
 21
230.4869406411
 31
0.0
  0
LINE
  5
4AC
330
1F
100
AcDbEntity
  8
0
  6
CONTINUOUS
 62
     7
100
AcDbLine
 10
476.6229940472
 20
230.4869406411
 30
0.0
 11
396.6229958354
 21
230.4869406411
 31
0.0
  0
LINE
  5
4AD
330
1F
100
AcDbEntity
  8
0
  6
CONTINUOUS
 62
     7
100
AcDbLine
 10
396.6229958354
 20
230.4869406411
 30
0.0
 11
392.6229951797
 21
230.4869406411
 31
0.0
  0
LINE
  5
4AE
330
1F
100
AcDbEntity
  8
0
  6
CONTINUOUS
 62
     7
100
AcDbLine
 10
391.6229931532
 20
231.486940805
 30
0.0
 11
392.6229951797
 21
230.4869406411
 31
0.0
  0
LINE
  5
4AF
330
1F
100
AcDbEntity
  8
0
  6
CONTINUOUS
 62
     7
100
AcDbLine
 10
433.4229950221
 20
280.4869413861
 30
0.0
 11
439.8229948605
 21
280.4869413861
 31
0.0
  0
LINE
  5
4B0
330
1F
100
AcDbEntity
  8
0
  6
CONTINUOUS
 62
     7
100
AcDbLine
 10
440.6229951313
 20
279.6869408825
 30
0.0
 11
432.6229947513
 21
279.6869408825
 31
0.0
  0
SPLINE
  5
4B1
330
1F
100
AcDbEntity
  8
0
  6
CONTINUOUS
 62
     7
100
AcDbSpline
210
0.0
220
0.0
230
1.0
 70
     8
 71
     3
 72
    10
 73
     6
 74
     0
 42
0.00000001
 43
0.00000001
 40
0.0
 40
0.0
 40
0.0
 40
0.0
 40
0.2950290046215218
 40
0.6434489654181558
 40
1.0
 40
1.0
 40
1.0
 40
1.0
 10
443.1229950754101
 20
258.9324901831698
 30
0.0
 10
442.507467547917
 20
259.1721381583048
 30
0.0
 10
441.1650214000883
 20
259.694802842962
 30
0.0
 10
439.0028813585993
 20
260.3324850901442
 30
0.0
 10
437.4223669188244
 20
260.4350615723356
 30
0.0
 10
436.6229949412997
 20
260.486941367517
 30
0.0
  0
LINE
  5
4B2
330
1F
100
AcDbEntity
  8
0
  6
CONTINUOUS
 62
     7
100
AcDbLine
 10
436.6229949413
 20
260.4869413675
 30
0.0
 11
441.7229951253
 21
260.4869413675
 31
0.0
  0
SPLINE
  5
4B3
330
1F
100
AcDbEntity
  8
0
  6
CONTINUOUS
 62
     7
100
AcDbSpline
210
0.0
220
0.0
230
1.0
 70
    24
 71
     3
 72
    11
 73
     7
 74
     0
 42
0.00000001
 43
0.00000001
 40
0.0
 40
0.0
 40
0.0
 40
0.0
 40
0.0818612052203105
 40
0.404062255205723
 40
0.7337398701704004
 40
1.0
 40
1.0
 40
1.0
 40
1.0
 10
443.1229950754101
 20
260.486941367517
 30
0.0
 10
443.1229950754101
 20
260.484159157305
 30
0.0
 10
443.1229950754101
 20
260.4704263258653
 30
0.0
 10
443.1229950754101
 20
260.2211614402711
 30
0.0
 10
443.1229950754101
 20
259.6401026082783
 30
0.0
 10
443.1229950754101
 20
259.1510119189844
 30
0.0
 10
443.1229950754101
 20
258.9324901831698
 30
0.0
  0
SPLINE
  5
4B4
330
1F
100
AcDbEntity
  8
0
  6
CONTINUOUS
 62
     7
100
AcDbSpline
210
0.0
220
0.0
230
1.0
 70
     8
 71
     3
 72
    11
 73
     7
 74
     0
 42
0.00000001
 43
0.00000001
 40
0.0
 40
0.0
 40
0.0
 40
0.0
 40
0.0818611707408091
 40
0.4040622213002274
 40
0.7337398534981904
 40
1.0
 40
1.0
 40
1.0
 40
1.0
 10
436.6229949412997
 20
260.486941367517
 30
0.0
 10
436.4395513142993
 20
260.4841591558984
 30
0.0
 10
435.5340836946889
 20
260.4704263128839
 30
0.0
 10
433.8986978876491
 20
260.2211614263884
 30
0.0
 10
431.9213051687124
 20
259.6401026049898
 30
0.0
 10
430.6783410523138
 20
259.151011918833
 30
0.0
 10
430.1229948071893
 20
258.9324901831698
 30
0.0
  0
SPLINE
  5
4B5
330
1F
100
AcDbEntity
  8
0
  6
CONTINUOUS
 62
     7
100
AcDbSpline
210
0.0
220
0.0
230
1.0
 70
    24
 71
     3
 72
    11
 73
     7
 74
     0
 42
0.00000001
 43
0.00000001
 40
0.0
 40
0.0
 40
0.0
 40
0.0
 40
0.2662626142531118
 40
0.5893721321170831
 40
0.918138030948082
 40
1.0
 40
1.0
 40
1.0
 40
1.0
 10
430.1229948071893
 20
258.9324901831698
 30
0.0
 10
430.1229948071893
 20
259.1510237861018
 30
0.0
 10
430.1229948071893
 20
259.6347477811528
 30
0.0
 10
430.1229948071893
 20
260.2174715592938
 30
0.0
 10
430.1229948071893
 20
260.4701946363277
 30
0.0
 10
430.1229948071893
 20
260.4841577153733
 30
0.0
 10
430.1229948071893
 20
260.486941367517
 30
0.0
  0
LINE
  5
4B6
330
1F
100
AcDbEntity
  8
0
  6
CONTINUOUS
 62
     7
100
AcDbLine
 10
431.5229947573
 20
260.4869413675
 30
0.0
 11
436.6229949413
 21
260.4869413675
 31
0.0
  0
LINE
  5
4B7
330
1F
100
AcDbEntity
  8
0
  6
CONTINUOUS
 62
     7
100
AcDbLine
 10
443.1229950754
 20
253.9869412334
 30
0.0
 11
443.1229950754
 21
258.9324901832
 31
0.0
  0
LINE
  5
4B8
330
1F
100
AcDbEntity
  8
0
  6
CONTINUOUS
 62
     7
100
AcDbLine
 10
430.1229948072
 20
253.9869412334
 30
0.0
 11
443.1229950754
 21
253.9869412334
 31
0.0
  0
LINE
  5
4B9
330
1F
100
AcDbEntity
  8
0
  6
CONTINUOUS
 62
     7
100
AcDbLine
 10
430.1229948072
 20
253.9869412334
 30
0.0
 11
430.1229948072
 21
258.9324901832
 31
0.0
  0
ARC
  5
4BA
330
1F
100
AcDbEntity
  8
0
  6
CONTINUOUS
 62
     7
100
AcDbCircle
 10
436.6229949413
 20
257.1869411775
 30
0.0
 40
4.000000000000012
100
AcDbArc
 50
233.1301023532
 51
306.8698976468
  0
CIRCLE
  5
4BB
330
1F
100
AcDbEntity
  8
0
  6
CONTINUOUS
 62
     7
100
AcDbCircle
 10
420.1229949413
 20
253.9869411775
 30
0.0
 40
3.999999999999972
  0
CIRCLE
  5
4BC
330
1F
100
AcDbEntity
  8
0
  6
CONTINUOUS
 62
     7
100
AcDbCircle
 10
453.1229949413
 20
253.9869411775
 30
0.0
 40
3.999999999999972
  0
LINE
  5
4BD
330
1F
100
AcDbEntity
  8
0
  6
CONTINUOUS
 62
     7
100
AcDbLine
 10
436.7644163034
 20
248.2455196345
 30
0.0
 11
437.0229949312
 21
247.9869407156
 31
0.0
  0
ARC
  5
4BE
330
1F
100
AcDbEntity
  8
0
  6
CONTINUOUS
 62
     7
100
AcDbCircle
 10
436.6229949413
 20
248.1040984651
 30
0.0
 40
0.1999999999999695
100
AcDbArc
 50
45.0
 51
135.0
  0
LINE
  5
4BF
330
1F
100
AcDbEntity
  8
0
  6
CONTINUOUS
 62
     7
100
AcDbLine
 10
436.2229949514
 20
247.9869407156
 30
0.0
 11
436.4815735792
 21
248.2455196345
 31
0.0
  0
LINE
  5
4C0
330
1F
100
AcDbEntity
  8
0
  6
CONTINUOUS
 62
     7
100
AcDbLine
 10
436.2229949514
 20
247.9869407156
 30
0.0
 11
429.8729947662
 21
247.9869407156
 31
0.0
  0
ARC
  5
4C1
330
1F
100
AcDbEntity
  8
0
  6
CONTINUOUS
 62
     7
100
AcDbCircle
 10
430.0367674304
 20
253.9899136555
 30
0.0
 40
6.005206074732142
100
AcDbArc
 50
227.9980563011
 51
268.4372499702
  0
ARC
  5
4C2
330
1F
100
AcDbEntity
  8
0
  6
CONTINUOUS
 62
     7
100
AcDbCircle
 10
425.081530714
 20
248.4869411775
 30
0.0
 40
1.400000000000005
100
AcDbArc
 50
47.9980563011
 51
132.0363020504
  0
ARC
  5
4C3
330
1F
100
AcDbEntity
  8
0
  6
CONTINUOUS
 62
     7
100
AcDbCircle
 10
420.1229949413
 20
253.9869411775
 30
0.0
 40
6.00520607473217
100
AcDbArc
 50
272.3859440304
 51
312.0363020504
  0
LINE
  5
4C4
330
1F
100
AcDbEntity
  8
0
  6
CONTINUOUS
 62
     7
100
AcDbLine
 10
420.3729955373
 20
247.9869407156
 30
0.0
 11
419.8729945241
 21
247.9869407156
 31
0.0
  0
ARC
  5
4C5
330
1F
100
AcDbEntity
  8
0
  6
CONTINUOUS
 62
     7
100
AcDbCircle
 10
419.8729949413
 20
248.9869411775
 30
0.0
 40
1.0
100
AcDbArc
 50
180.0
 51
270.0
  0
LINE
  5
4C6
330
1F
100
AcDbEntity
  8
0
  6
CONTINUOUS
 62
     7
100
AcDbLine
 10
418.8729943602
 20
248.9869413452
 30
0.0
 11
418.8729943602
 21
249.9203086385
 31
0.0
  0
ARC
  5
4C7
330
1F
100
AcDbEntity
  8
0
  6
CONTINUOUS
 62
     7
100
AcDbCircle
 10
419.0729949413
 20
249.920308664
 30
0.0
 40
0.2000000000000147
100
AcDbArc
 50
75.5224878141
 51
180.0
  0
ARC
  5
4C8
330
1F
100
AcDbEntity
  8
0
  6
CONTINUOUS
 62
     7
100
AcDbCircle
 10
420.1229949413
 20
253.9869411775
 30
0.0
 40
4.000000000000039
100
AcDbArc
 50
255.5224878141
 51
339.8036693413
  0
ARC
  5
4C9
330
1F
100
AcDbEntity
  8
0
  6
CONTINUOUS
 62
     7
100
AcDbCircle
 10
424.064758506
 20
252.5369411775
 30
0.0
 40
0.1999999999999617
100
AcDbArc
 50
90.0
 51
159.8036693413
  0
LINE
  5
4CA
330
1F
100
AcDbEntity
  8
0
  6
CONTINUOUS
 62
     7
100
AcDbLine
 10
424.4229951767
 20
252.7369412613
 30
0.0
 11
424.0647582231
 21
252.7369412613
 31
0.0
  0
ARC
  5
4CB
330
1F
100
AcDbEntity
  8
0
  6
CONTINUOUS
 62
     7
100
AcDbCircle
 10
424.4229949413
 20
252.9369411775
 30
0.0
 40
0.2000000000000171
100
AcDbArc
 50
270.0
 51
0.0
  0
LINE
  5
4CC
330
1F
100
AcDbEntity
  8
0
  6
CONTINUOUS
 62
     7
100
AcDbLine
 10
424.622994837
 20
255.036941196
 30
0.0
 11
424.622994837
 21
252.9369411544
 31
0.0
  0
ARC
  5
4CD
330
1F
100
AcDbEntity
  8
0
  6
CONTINUOUS
 62
     7
100
AcDbCircle
 10
424.4229949413
 20
255.0369411775
 30
0.0
 40
0.2000000000000171
100
AcDbArc
 50
0.0
 51
90.0
  0
LINE
  5
4CE
330
1F
100
AcDbEntity
  8
0
  6
CONTINUOUS
 62
     7
100
AcDbLine
 10
424.0647582231
 20
255.2369412055
 30
0.0
 11
424.4229951767
 21
255.2369412055
 31
0.0
  0
ARC
  5
4CF
330
1F
100
AcDbEntity
  8
0
  6
CONTINUOUS
 62
     7
100
AcDbCircle
 10
424.064758506
 20
255.4369411775
 30
0.0
 40
0.1999999999999617
100
AcDbArc
 50
200.1963306587
 51
270.0
  0
ARC
  5
4D0
330
1F
100
AcDbEntity
  8
0
  6
CONTINUOUS
 62
     7
100
AcDbCircle
 10
420.1229949413
 20
253.9869411775
 30
0.0
 40
4.000000000000049
100
AcDbArc
 50
20.1963306587
 51
104.4775121859
  0
ARC
  5
4D1
330
1F
100
AcDbEntity
  8
0
  6
CONTINUOUS
 62
     7
100
AcDbCircle
 10
419.0729949413
 20
258.053573691
 30
0.0
 40
0.1999999999999886
100
AcDbArc
 50
180.0
 51
284.4775121859
  0
LINE
  5
4D2
330
1F
100
AcDbEntity
  8
0
  6
CONTINUOUS
 62
     7
100
AcDbLine
 10
418.8729943602
 20
258.0535737119
 30
0.0
 11
418.8729943602
 21
263.9869410099
 31
0.0
  0
LINE
  5
4D3
330
1F
100
AcDbEntity
  8
0
  6
CONTINUOUS
 62
     7
100
AcDbLine
 10
419.8729945241
 20
264.9869416395
 30
0.0
 11
431.5229947573
 21
264.9869416395
 31
0.0
  0
LINE
  5
4D4
330
1F
100
AcDbEntity
  8
0
  6
CONTINUOUS
 62
     7
100
AcDbLine
 10
432.5229949212
 20
261.4869410658
 30
0.0
 11
432.5229949212
 21
263.9869410099
 31
0.0
  0
ARC
  5
4D5
330
1F
100
AcDbEntity
  8
0
  6
CONTINUOUS
 62
     7
100
AcDbCircle
 10
431.5229949413
 20
261.4869411775
 30
0.0
 40
1.000000000000057
100
AcDbArc
 50
270.0
 51
0.0
  0
LINE
  5
4D6
330
1F
100
AcDbEntity
  8
0
  6
CONTINUOUS
 62
     7
100
AcDbLine
 10
428.6229945613
 20
260.4869413675
 30
0.0
 11
431.5229947573
 21
260.4869413675
 31
0.0
  0
ARC
  5
4D7
330
1F
100
AcDbEntity
  8
0
  6
CONTINUOUS
 62
     7
100
AcDbCircle
 10
428.6229949413
 20
259.4869411775
 30
0.0
 40
1.0
100
AcDbArc
 50
90.0
 51
180.0
  0
LINE
  5
4D8
330
1F
100
AcDbEntity
  8
0
  6
CONTINUOUS
 62
     7
100
AcDbLine
 10
427.6229953287
 20
256.2011547465
 30
0.0
 11
427.6229953287
 21
259.4869412036
 31
0.0
  0
ARC
  5
4D9
330
1F
100
AcDbEntity
  8
0
  6
CONTINUOUS
 62
     7
100
AcDbCircle
 10
428.6229949413
 20
256.2011547399
 30
0.0
 40
0.999999999999988
100
AcDbArc
 50
180.0
 51
225.0
  0
LINE
  5
4DA
330
1F
100
AcDbEntity
  8
0
  6
CONTINUOUS
 62
     7
100
AcDbLine
 10
430.3301018557
 20
253.0798344427
 30
0.0
 11
427.9158878965
 21
255.4940479362
 31
0.0
  0
ARC
  5
4DB
330
1F
100
AcDbEntity
  8
0
  6
CONTINUOUS
 62
     7
100
AcDbCircle
 10
431.0372085037
 20
253.7869411775
 30
0.0
 40
1.000000000000048
100
AcDbArc
 50
225.0
 51
270.0
  0
LINE
  5
4DC
330
1F
100
AcDbEntity
  8
0
  6
CONTINUOUS
 62
     7
100
AcDbLine
 10
442.2087813622
 20
252.7869411764
 30
0.0
 11
431.0372085204
 21
252.7869411764
 31
0.0
  0
ARC
  5
4DD
330
1F
100
AcDbEntity
  8
0
  6
CONTINUOUS
 62
     7
100
AcDbCircle
 10
442.2087813789
 20
253.7869411775
 30
0.0
 40
1.0
100
AcDbArc
 50
270.0
 51
315.0
  0
LINE
  5
4DE
330
1F
100
AcDbEntity
  8
0
  6
CONTINUOUS
 62
     7
100
AcDbLine
 10
445.3301019861
 20
255.4940479362
 30
0.0
 11
442.9158880269
 21
253.0798344427
 31
0.0
  0
ARC
  5
4DF
330
1F
100
AcDbEntity
  8
0
  6
CONTINUOUS
 62
     7
100
AcDbCircle
 10
444.6229949413
 20
256.2011547399
 30
0.0
 40
1.0
100
AcDbArc
 50
315.0
 51
0.0
  0
LINE
  5
4E0
330
1F
100
AcDbEntity
  8
0
  6
CONTINUOUS
 62
     7
100
AcDbLine
 10
445.6229945539
 20
259.4869412036
 30
0.0
 11
445.6229945539
 21
256.2011547465
 31
0.0
  0
ARC
  5
4E1
330
1F
100
AcDbEntity
  8
0
  6
CONTINUOUS
 62
     7
100
AcDbCircle
 10
444.6229949413
 20
259.4869411775
 30
0.0
 40
1.0
100
AcDbArc
 50
0.0
 51
90.0
  0
LINE
  5
4E2
330
1F
100
AcDbEntity
  8
0
  6
CONTINUOUS
 62
     7
100
AcDbLine
 10
441.7229951253
 20
260.4869413675
 30
0.0
 11
444.6229953213
 21
260.4869413675
 31
0.0
  0
ARC
  5
4E3
330
1F
100
AcDbEntity
  8
0
  6
CONTINUOUS
 62
     7
100
AcDbCircle
 10
441.7229949413
 20
261.4869411775
 30
0.0
 40
1.000000000000057
100
AcDbArc
 50
180.0
 51
270.0
  0
LINE
  5
4E4
330
1F
100
AcDbEntity
  8
0
  6
CONTINUOUS
 62
     7
100
AcDbLine
 10
440.7229949614
 20
263.9869410099
 30
0.0
 11
440.7229949614
 21
261.4869410658
 31
0.0
  0
ARC
  5
4E5
330
1F
100
AcDbEntity
  8
0
  6
CONTINUOUS
 62
     7
100
AcDbCircle
 10
441.7229949413
 20
263.9869411775
 30
0.0
 40
1.000000000000057
100
AcDbArc
 50
90.0
 51
180.0
  0
ARC
  5
4E6
330
1F
100
AcDbEntity
  8
0
  6
CONTINUOUS
 62
     7
100
AcDbCircle
 10
453.3729949413
 20
263.9869411775
 30
0.0
 40
1.000000000000057
100
AcDbArc
 50
0.0
 51
90.0
  0
LINE
  5
4E7
330
1F
100
AcDbEntity
  8
0
  6
CONTINUOUS
 62
     7
100
AcDbLine
 10
454.3729955224
 20
263.9869410099
 30
0.0
 11
454.3729955224
 21
258.0535737119
 31
0.0
  0
ARC
  5
4E8
330
1F
100
AcDbEntity
  8
0
  6
CONTINUOUS
 62
     7
100
AcDbCircle
 10
454.1729949413
 20
258.053573691
 30
0.0
 40
0.2000000000000455
100
AcDbArc
 50
255.5224878141
 51
0.0
  0
ARC
  5
4E9
330
1F
100
AcDbEntity
  8
0
  6
CONTINUOUS
 62
     7
100
AcDbCircle
 10
453.1229949413
 20
253.9869411775
 30
0.0
 40
4.000000000000049
100
AcDbArc
 50
75.5224878141
 51
159.8036693413
  0
ARC
  5
4EA
330
1F
100
AcDbEntity
  8
0
  6
CONTINUOUS
 62
     7
100
AcDbCircle
 10
449.1812313766
 20
255.4369411775
 30
0.0
 40
0.1999999999999617
100
AcDbArc
 50
270.0
 51
339.8036693413
  0
LINE
  5
4EB
330
1F
100
AcDbEntity
  8
0
  6
CONTINUOUS
 62
     7
100
AcDbLine
 10
448.8229947059
 20
255.2369412055
 30
0.0
 11
449.1812316595
 21
255.2369412055
 31
0.0
  0
ARC
  5
4EC
330
1F
100
AcDbEntity
  8
0
  6
CONTINUOUS
 62
     7
100
AcDbCircle
 10
448.8229949413
 20
255.0369411775
 30
0.0
 40
0.2000000000000171
100
AcDbArc
 50
90.0
 51
180.0
  0
LINE
  5
4ED
330
1F
100
AcDbEntity
  8
0
  6
CONTINUOUS
 62
     7
100
AcDbLine
 10
448.6229950456
 20
252.9369411544
 30
0.0
 11
448.6229950456
 21
255.036941196
 31
0.0
  0
ARC
  5
4EE
330
1F
100
AcDbEntity
  8
0
  6
CONTINUOUS
 62
     7
100
AcDbCircle
 10
448.8229949413
 20
252.9369411775
 30
0.0
 40
0.2000000000000171
100
AcDbArc
 50
180.0
 51
270.0
  0
LINE
  5
4EF
330
1F
100
AcDbEntity
  8
0
  6
CONTINUOUS
 62
     7
100
AcDbLine
 10
449.1812316595
 20
252.7369412613
 30
0.0
 11
448.8229947059
 21
252.7369412613
 31
0.0
  0
ARC
  5
4F0
330
1F
100
AcDbEntity
  8
0
  6
CONTINUOUS
 62
     7
100
AcDbCircle
 10
449.1812313766
 20
252.5369411775
 30
0.0
 40
0.1999999999999617
100
AcDbArc
 50
20.1963306587
 51
90.0
  0
ARC
  5
4F1
330
1F
100
AcDbEntity
  8
0
  6
CONTINUOUS
 62
     7
100
AcDbCircle
 10
453.1229949413
 20
253.9869411775
 30
0.0
 40
4.000000000000039
100
AcDbArc
 50
200.1963306587
 51
284.4775121859
  0
ARC
  5
4F2
330
1F
100
AcDbEntity
  8
0
  6
CONTINUOUS
 62
     7
100
AcDbCircle
 10
454.1729949413
 20
249.920308664
 30
0.0
 40
0.2000000000000147
100
AcDbArc
 50
0.0
 51
104.4775121859
  0
LINE
  5
4F3
330
1F
100
AcDbEntity
  8
0
  6
CONTINUOUS
 62
     7
100
AcDbLine
 10
454.3729955224
 20
249.9203086385
 30
0.0
 11
454.3729955224
 21
248.9869413452
 31
0.0
  0
ARC
  5
4F4
330
1F
100
AcDbEntity
  8
0
  6
CONTINUOUS
 62
     7
100
AcDbCircle
 10
453.3729949413
 20
248.9869411775
 30
0.0
 40
1.0
100
AcDbArc
 50
270.0
 51
0.0
  0
LINE
  5
4F5
330
1F
100
AcDbEntity
  8
0
  6
CONTINUOUS
 62
     7
100
AcDbLine
 10
453.3729953585
 20
247.9869407156
 30
0.0
 11
452.8729943453
 21
247.9869407156
 31
0.0
  0
ARC
  5
4F6
330
1F
100
AcDbEntity
  8
0
  6
CONTINUOUS
 62
     7
100
AcDbCircle
 10
453.1229949413
 20
253.9869411775
 30
0.0
 40
6.005206074732132
100
AcDbArc
 50
227.9636979496
 51
267.6140559696
  0
ARC
  5
4F7
330
1F
100
AcDbEntity
  8
0
  6
CONTINUOUS
 62
     7
100
AcDbCircle
 10
448.1644591686
 20
248.4869411775
 30
0.0
 40
1.400000000000014
100
AcDbArc
 50
47.9636979496
 51
132.0019436989
  0
ARC
  5
4F8
330
1F
100
AcDbEntity
  8
0
  6
CONTINUOUS
 62
     7
100
AcDbCircle
 10
443.2092224522
 20
253.9899136555
 30
0.0
 40
6.005206074732142
100
AcDbArc
 50
271.5627500298
 51
312.0019436989
  0
LINE
  5
4F9
330
1F
100
AcDbEntity
  8
0
  6
CONTINUOUS
 62
     7
100
AcDbLine
 10
443.3729951164
 20
247.9869407156
 30
0.0
 11
437.0229949312
 21
247.9869407156
 31
0.0
  0
LINE
  5
4FA
330
1F
100
AcDbEntity
  8
0
  6
CONTINUOUS
 62
     7
100
AcDbLine
 10
441.7229951253
 20
264.9869416395
 30
0.0
 11
453.3729953585
 21
264.9869416395
 31
0.0
  0
ARC
  5
4FB
330
1F
100
AcDbEntity
  8
0
  6
CONTINUOUS
 62
     7
100
AcDbCircle
 10
431.5229949413
 20
263.9869411775
 30
0.0
 40
1.000000000000057
100
AcDbArc
 50
0.0
 51
90.0
  0
ARC
  5
4FC
330
1F
100
AcDbEntity
  8
0
  6
CONTINUOUS
 62
     7
100
AcDbCircle
 10
419.8729949413
 20
263.9869411775
 30
0.0
 40
1.0
100
AcDbArc
 50
90.0
 51
180.0
  0
DIMENSION
  5
4FD
330
1F
100
AcDbEntity
  8
OPISY
100
AcDbDimension
  2
*D42
 10
505.0152997867
 20
230.4869411775
 30
0.0
 11
505.0152997867
 21
257.4665279485
 31
0.0
 70
   160
  3
SLDDIMSTYLE4
100
AcDbAlignedDimension
 13
459.6479949413
 23
237.7369411775
 33
0.0
 14
476.6229949413
 24
230.4869411775
 34
0.0
 50
90.0
100
AcDbRotatedDimension
  0
DIMENSION
  5
50A
330
1F
100
AcDbEntity
  8
OPISY
100
AcDbDimension
  2
*D43
 10
454.1229949413
 20
210.9869411775
 30
0.0
 11
436.6229949413
 21
210.9869411775
 31
0.0
 70
   160
  3
SLDDIMSTYLE0
100
AcDbAlignedDimension
 13
419.1229949413
 23
232.2119411775
 33
0.0
 14
454.1229949413
 24
232.2119411775
 34
0.0
100
AcDbRotatedDimension
  0
INSERT
  5
521
330
1F
100
AcDbEntity
  8
OPISY
100
AcDbBlockReference
  2
SW_CENTERMARKSYMBOL_16
 10
419.1229949413
 20
237.7369411775
 30
0.0
  0
INSERT
  5
52D
330
1F
100
AcDbEntity
  8
OPISY
100
AcDbBlockReference
  2
SW_CENTERMARKSYMBOL_17
 10
454.1229949413
 20
237.7369411775
 30
0.0
  0
ENDSEC
  0
SECTION
  2
OBJECTS
  0
DICTIONARY
  5
C
330
0
100
AcDbDictionary
  3
ACAD_GROUP
350
D
  3
ACAD_LAYOUT
350
1A
  3
ACAD_MLEADERSTYLE
350
550
  3
ACAD_MLINESTYLE
350
17
  3
ACAD_PLOTSETTINGS
350
19
  3
ACAD_SCALELIST
350
5B
  3
ACAD_VISUALSTYLE
350
2A
  3
ACDBHEADERROUNDTRIPXREC
350
52E
  3
ACDBVARIABLEDICTIONARY
350
54E
  0
DICTIONARY
  5
D
102
{ACAD_REACTORS
330
C
102
}
330
C
100
AcDbDictionary
  0
DICTIONARY
  5
1A
102
{ACAD_REACTORS
330
C
102
}
330
C
100
AcDbDictionary
  0
DICTIONARY
  5
550
102
{ACAD_REACTORS
330
C
102
}
330
C
100
AcDbDictionary
  0
DICTIONARY
  5
17
102
{ACAD_REACTORS
330
C
102
}
330
C
100
AcDbDictionary
  3
STANDARD
350
18
  0
DICTIONARY
  5
19
102
{ACAD_REACTORS
330
C
102
}
330
C
100
AcDbDictionary
  0
DICTIONARY
  5
5B
102
{ACAD_REACTORS
330
C
102
}
330
C
100
AcDbDictionary
  3
A0
350
5C
  3
A1
350
5D
  3
A2
350
5E
  3
A3
350
5F
  3
A4
350
60
  3
A5
350
61
  3
A6
350
62
  3
A7
350
63
  3
A8
350
64
  3
A9
350
65
  3
B0
350
66
  3
B1
350
67
  3
B2
350
68
  3
B3
350
69
  3
B4
350
6A
  3
B5
350
6B
  3
B6
350
6C
  3
B7
350
6D
  3
B8
350
6E
  3
B9
350
6F
  3
C0
350
70
  3
C1
350
71
  3
C2
350
72
  3
C3
350
73
  3
C4
350
74
  3
C5
350
75
  3
C6
350
76
  3
C7
350
77
  3
C8
350
78
  3
C9
350
79
  3
D0
350
7A
  3
D1
350
7B
  3
D2
350
7C
  0
DICTIONARY
  5
2A
102
{ACAD_REACTORS
330
C
102
}
330
C
100
AcDbDictionary
  3
2DWIREFRAME
350
2F
  3
3D_HIDDEN
350
31
  3
3DWIREFRAME
350
30
  3
BASIC
350
32
  3
BRIGHTEN
350
36
  3
COLORCHANGE
350
3A
  3
CONCEPTUAL
350
34
  3
DIM
350
35
  3
FACEPATTERN
350
39
  3
FLAT
350
2B
  3
FLATWITHEDGES
350
2C
  3
GOURAUD
350
2D
  3
GOURAUDWITHEDGES
350
2E
  3
LINEPATTERN
350
38
  3
REALISTIC
350
33
  3
THICKEN
350
37
  0
DICTIONARY
  5
52E
102
{ACAD_REACTORS
330
C
102
}
330
C
100
AcDbDictionary
  3
CEPSNTYPE
350
537
  3
DIMSTYLEDATA
350
54D
  3
FINGERPRINTGUID
350
538
  3
HYPERLINKBASE
350
531
  3
INSUNITS
350
536
  3
LAYOUTDICT
350
533
  3
LWETCUNION
350
535
  3
PLOTSETDICT
350
534
  3
PSVPSCALE
350
53A
  3
PUCSBASE
350
53D
  3
PUCSORGBACK
350
543
  3
PUCSORGBOTTOM
350
53F
  3
PUCSORGFRONT
350
542
  3
PUCSORGLEFT
350
540
  3
PUCSORGRIGHT
350
541
  3
PUCSORGTOP
350
53E
  3
PUCSORTHOREF
350
53B
  3
PUCSORTHOVIEW
350
53C
  3
STYLESHEET
350
532
  3
TSTACKALIGN
350
52F
  3
TSTACKSIZE
350
530
  3
UCSBASE
350
546
  3
UCSORGBACK
350
54C
  3
UCSORGBOTTOM
350
548
  3
UCSORGFRONT
350
54B
  3
UCSORGLEFT
350
549
  3
UCSORGRIGHT
350
54A
  3
UCSORGTOP
350
547
  3
UCSORTHOREF
350
544
  3
UCSORTHOVIEW
350
545
  3
VERSIONGUID
350
539
  0
DICTIONARY
  5
54E
102
{ACAD_REACTORS
330
C
102
}
330
C
100
AcDbDictionary
  3
CANNOSCALE
350
553
  3
DIMASSOC
350
554
  3
HIDETEXT
350
555
  3
PSOLHEIGHT
350
552
  3
PSOLWIDTH
350
551
  0
MLINESTYLE
  5
18
102
{ACAD_REACTORS
330
17
102
}
330
17
100
AcDbMlineStyle
  2
Standard
 70
     0
  3

 62
   256
 51
90.0
 52
90.0
 71
     2
 49
0.5
 62
   256
  6
BYLAYER
 49
-0.5
 62
   256
  6
BYLAYER
  0
ACAD_PROXY_OBJECT
  5
5C
102
{ACAD_REACTORS
330
5B
102
}
330
5B
100
AcDbProxyObject
 90
      499
 91
      502
 93
       41
310
903313A31580
  0
ACAD_PROXY_OBJECT
  5
5D
102
{ACAD_REACTORS
330
5B
102
}
330
5B
100
AcDbProxyObject
 90
      499
 91
      502
 93
      105
310
903313A324000000000000004000
  0
ACAD_PROXY_OBJECT
  5
5E
102
{ACAD_REACTORS
330
5B
102
}
330
5B
100
AcDbProxyObject
 90
      499
 91
      502
 93
      105
310
903313A344000000000000104000
  0
ACAD_PROXY_OBJECT
  5
5F
102
{ACAD_REACTORS
330
5B
102
}
330
5B
100
AcDbProxyObject
 90
      499
 91
      502
 93
      105
310
903313A354000000000000144000
  0
ACAD_PROXY_OBJECT
  5
60
102
{ACAD_REACTORS
330
5B
102
}
330
5B
100
AcDbProxyObject
 90
      499
 91
      502
 93
      105
310
903313A384000000000000204000
  0
ACAD_PROXY_OBJECT
  5
61
102
{ACAD_REACTORS
330
5B
102
}
330
5B
100
AcDbProxyObject
 90
      499
 91
      502
 93
      113
310
904313A31304000000000000244000
  0
ACAD_PROXY_OBJECT
  5
62
102
{ACAD_REACTORS
330
5B
102
}
330
5B
100
AcDbProxyObject
 90
      499
 91
      502
 93
      113
310
904313A31364000000000000304000
  0
ACAD_PROXY_OBJECT
  5
63
102
{ACAD_REACTORS
330
5B
102
}
330
5B
100
AcDbProxyObject
 90
      499
 91
      502
 93
      113
310
904313A32304000000000000344000
  0
ACAD_PROXY_OBJECT
  5
64
102
{ACAD_REACTORS
330
5B
102
}
330
5B
100
AcDbProxyObject
 90
      499
 91
      502
 93
      113
310
904313A333040000000000003E4000
  0
ACAD_PROXY_OBJECT
  5
65
102
{ACAD_REACTORS
330
5B
102
}
330
5B
100
AcDbProxyObject
 90
      499
 91
      502
 93
      113
310
904313A34304000000000000444000
  0
ACAD_PROXY_OBJECT
  5
66
102
{ACAD_REACTORS
330
5B
102
}
330
5B
100
AcDbProxyObject
 90
      499
 91
      502
 93
      113
310
904313A35304000000000000494000
  0
ACAD_PROXY_OBJECT
  5
67
102
{ACAD_REACTORS
330
5B
102
}
330
5B
100
AcDbProxyObject
 90
      499
 91
      502
 93
      121
310
905313A3130304000000000000594000
  0
ACAD_PROXY_OBJECT
  5
68
102
{ACAD_REACTORS
330
5B
102
}
330
5B
100
AcDbProxyObject
 90
      499
 91
      502
 93
      105
310
903323A310000000000000010100
  0
ACAD_PROXY_OBJECT
  5
69
102
{ACAD_REACTORS
330
5B
102
}
330
5B
100
AcDbProxyObject
 90
      499
 91
      502
 93
      105
310
903343A310000000000000410100
  0
ACAD_PROXY_OBJECT
  5
6A
102
{ACAD_REACTORS
330
5B
102
}
330
5B
100
AcDbProxyObject
 90
      499
 91
      502
 93
      105
310
903383A310000000000000810100
  0
ACAD_PROXY_OBJECT
  5
6B
102
{ACAD_REACTORS
330
5B
102
}
330
5B
100
AcDbProxyObject
 90
      499
 91
      502
 93
      113
310
90431303A310000000000000910100
  0
ACAD_PROXY_OBJECT
  5
6C
102
{ACAD_REACTORS
330
5B
102
}
330
5B
100
AcDbProxyObject
 90
      499
 91
      502
 93
      121
310
9053130303A310000000000001650100
  0
ACAD_PROXY_OBJECT
  5
6D
102
{ACAD_REACTORS
330
5B
102
}
330
5B
100
AcDbProxyObject
 90
      499
 91
      502
 93
      257
310
90E312F31323822203D2031272D3022000000000000200FC000000000000284000
  0
ACAD_PROXY_OBJECT
  5
6E
102
{ACAD_REACTORS
330
5B
102
}
330
5B
100
AcDbProxyObject
 90
      499
 91
      502
 93
      249
310
90D312F363422203D2031272D3022000000000000240FC000000000000284000
  0
ACAD_PROXY_OBJECT
  5
6F
102
{ACAD_REACTORS
330
5B
102
}
330
5B
100
AcDbProxyObject
 90
      499
 91
      502
 93
      249
310
90D312F333222203D2031272D3022000000000000280FC000000000000284000
  0
ACAD_PROXY_OBJECT
  5
70
102
{ACAD_REACTORS
330
5B
102
}
330
5B
100
AcDbProxyObject
 90
      499
 91
      502
 93
      249
310
90D312F313622203D2031272D30220000000000002C0FC000000000000284000
  0
ACAD_PROXY_OBJECT
  5
71
102
{ACAD_REACTORS
330
5B
102
}
330
5B
100
AcDbProxyObject
 90
      499
 91
      502
 93
      249
310
90D332F333222203D2031272D30220000000000002E0FC000000000000284000
  0
ACAD_PROXY_OBJECT
  5
72
102
{ACAD_REACTORS
330
5B
102
}
330
5B
100
AcDbProxyObject
 90
      499
 91
      502
 93
      241
310
90C312F3822203D2031272D3022000000000000300FC000000000000284000
  0
ACAD_PROXY_OBJECT
  5
73
102
{ACAD_REACTORS
330
5B
102
}
330
5B
100
AcDbProxyObject
 90
      499
 91
      502
 93
      249
310
90D332F313622203D2031272D3022000000000000320FC000000000000284000
  0
ACAD_PROXY_OBJECT
  5
74
102
{ACAD_REACTORS
330
5B
102
}
330
5B
100
AcDbProxyObject
 90
      499
 91
      502
 93
      241
310
90C312F3422203D2031272D3022000000000000340FC000000000000284000
  0
ACAD_PROXY_OBJECT
  5
75
102
{ACAD_REACTORS
330
5B
102
}
330
5B
100
AcDbProxyObject
 90
      499
 91
      502
 93
      241
310
90C332F3822203D2031272D3022000000000000360FC000000000000284000
  0
ACAD_PROXY_OBJECT
  5
76
102
{ACAD_REACTORS
330
5B
102
}
330
5B
100
AcDbProxyObject
 90
      499
 91
      502
 93
      241
310
90C312F3222203D2031272D3022000000000000380FC000000000000284000
  0
ACAD_PROXY_OBJECT
  5
77
102
{ACAD_REACTORS
330
5B
102
}
330
5B
100
AcDbProxyObject
 90
      499
 91
      502
 93
      241
310
90C332F3422203D2031272D30220000000000003A0FC000000000000284000
  0
ACAD_PROXY_OBJECT
  5
78
102
{ACAD_REACTORS
330
5B
102
}
330
5B
100
AcDbProxyObject
 90
      499
 91
      502
 93
      161
310
90A3122203D2031272D30224000000000000284000
  0
ACAD_PROXY_OBJECT
  5
79
102
{ACAD_REACTORS
330
5B
102
}
330
5B
100
AcDbProxyObject
 90
      499
 91
      502
 93
      257
310
90E312D312F3222203D2031272D30220000000000003E0FC000000000000284000
  0
ACAD_PROXY_OBJECT
  5
7A
102
{ACAD_REACTORS
330
5B
102
}
330
5B
100
AcDbProxyObject
 90
      499
 91
      502
 93
      225
310
90A3322203D2031272D302200000000000002100000000000000284000
  0
ACAD_PROXY_OBJECT
  5
7B
102
{ACAD_REACTORS
330
5B
102
}
330
5B
100
AcDbProxyObject
 90
      499
 91
      502
 93
      225
310
90A3622203D2031272D302200000000000006100000000000000284000
  0
ACAD_PROXY_OBJECT
  5
7C
102
{ACAD_REACTORS
330
5B
102
}
330
5B
100
AcDbProxyObject
 90
      499
 91
      502
 93
      249
310
90D31272D3022203D2031272D30220000000000000A100000000000000284000
  0
ACAD_PROXY_OBJECT
  5
2F
102
{ACAD_REACTORS
330
2A
102
}
330
2A
100
AcDbProxyObject
 90
      499
 91
      501
 93
      436
310
42CC9915DA5C99599C985B595049028333333333333E3BF0000000000000FB0107901411070040501600405405064090741402480A0340
1001
ACAD
1000
AcDbSavedByObjectVersion
1070
     0
  0
ACAD_PROXY_OBJECT
  5
31
102
{ACAD_REACTORS
330
2A
102
}
330
2A
100
AcDbProxyObject
 90
      499
 91
      501
 93
      500
310
424CD108121A5919195B90640502408333333333333E3BF0000000000000FB01079024090700405020000000000001110200405405064090740C02480A0340
1001
ACAD
1000
AcDbSavedByObjectVersion
1070
     0
  0
ACAD_PROXY_OBJECT
  5
30
102
{ACAD_REACTORS
330
2A
102
}
330
2A
100
AcDbProxyObject
 90
      499
 91
      501
 93
      436
310
42CCD915DA5C99599C985B595059028333333333333E3BF0000000000000FB0107901411070040501600405405064090741402480A0340
1001
ACAD
1000
AcDbSavedByObjectVersion
1070
     0
  0
ACAD_PROXY_OBJECT
  5
32
102
{ACAD_REACTORS
330
2A
102
}
330
2A
100
AcDbProxyObject
 90
      499
 91
      501
 93
      388
310
4150985CDA58D07406404333333333333E3BF0000000000000FB0107A41107004050150841D405064090741402480A0350
1001
ACAD
1000
AcDbSavedByObjectVersion
1070
     0
  0
ACAD_PROXY_OBJECT
  5
36
102
{ACAD_REACTORS
330
2A
102
}
330
2A
100
AcDbProxyObject
 90
      499
 91
      501
 93
      428
310
42109C9A59DA1D195B90C409028333333333333E3BF0000000000000FB010790141107004050150841D405064090741402480A029950
1001
ACAD
1000
AcDbSavedByObjectVersion
1070
     0
  0
ACAD_PROXY_OBJECT
  5
3A
102
{ACAD_REACTORS
330
2A
102
}
330
2A
100
AcDbProxyObject
 90
      499
 91
      501
 93
      452
310
42D0DBDB1BDC90DA185B99D95104090240C333333333333E3BF0000000000000FB0108901411070040501508421405064090741402480A0350
1001
ACAD
1000
AcDbSavedByObjectVersion
1070
     0
  0
ACAD_PROXY_OBJECT
  5
34
102
{ACAD_REACTORS
330
2A
102
}
330
2A
100
AcDbProxyObject
 90
      499
 91
      501
 93
      500
310
4290DBDB98D95C1D1D585B10940D028333333333333E3BF0000000000000FB0107902409070040501000000000000111010841D405064090740C02480A0340
1001
ACAD
1000
AcDbSavedByObjectVersion
1070
     0
  0
ACAD_PROXY_OBJECT
  5
35
102
{ACAD_REACTORS
330
2A
102
}
330
2A
100
AcDbProxyObject
 90
      499
 91
      501
 93
      412
310
40D11A5B50B409028333333333333E3BF0000000000000FB010790141107004050150841D405064090741402480A02677FFFFFD0
1001
ACAD
1000
AcDbSavedByObjectVersion
1070
     0
  0
ACAD_PROXY_OBJECT
  5
39
102
{ACAD_REACTORS
330
2A
102
}
330
2A
100
AcDbProxyObject
 90
      499
 91
      501
 93
      444
310
42D19858D95C185D1D195C9B90F409028333333333333E3BF0000000000000FB010790141107004050150841D405064090741402480A0350
1001
ACAD
1000
AcDbSavedByObjectVersion
1070
     0
  0
ACAD_PROXY_OBJECT
  5
2B
102
{ACAD_REACTORS
330
2A
102
}
330
2A
100
AcDbProxyObject
 90
      499
 91
      501
 93
      388
310
41119B185D240901404333333333333E3BF0000000000000F9010740A41107004050150841D405064090741402480A1B50
1001
ACAD
1000
AcDbSavedByObjectVersion
1070
     0
  0
ACAD_PROXY_OBJECT
  5
2C
102
{ACAD_REACTORS
330
2A
102
}
330
2A
100
AcDbProxyObject
 90
      499
 91
      501
 93
      476
310
43519B185D15DA5D1A115919D95CD0140901404333333333333E3BF0000000000000F9010740901411070040501600405405064090741402480A1B50
1001
ACAD
1000
AcDbSavedByObjectVersion
1070
     0
  0
ACAD_PROXY_OBJECT
  5
2D
102
{ACAD_REACTORS
330
2A
102
}
330
2A
100
AcDbProxyObject
 90
      499
 91
      501
 93
      412
310
41D1DBDD5C985D5910240902404333333333333E3BF0000000000000F9010740A411070040501641D405064090741402480A1B50
1001
ACAD
1000
AcDbSavedByObjectVersion
1070
     0
  0
ACAD_PROXY_OBJECT
  5
2E
102
{ACAD_REACTORS
330
2A
102
}
330
2A
100
AcDbProxyObject
 90
      499
 91
      501
 93
      500
310
4411DBDD5C985D5915DA5D1A115919D95CD0340902404333333333333E3BF0000000000000F9010740901411070040501600405405064090741402480A1B50
1001
ACAD
1000
AcDbSavedByObjectVersion
1070
     0
  0
ACAD_PROXY_OBJECT
  5
38
102
{ACAD_REACTORS
330
2A
102
}
330
2A
100
AcDbProxyObject
 90
      499
 91
      501
 93
      444
310
42D31A5B995C185D1D195C9B90E409028333333333333E3BF0000000000000FB010790141107004050750841D405064090741402483A0350
1001
ACAD
1000
AcDbSavedByObjectVersion
1070
     0
  0
ACAD_PROXY_OBJECT
  5
33
102
{ACAD_REACTORS
330
2A
102
}
330
2A
100
AcDbProxyObject
 90
      499
 91
      501
 93
      420
310
425499585B1A5CDD1A58D08409028333333333333E3BF0000000000000FB01079019070040501508421405064090741402480A1B40
1001
ACAD
1000
AcDbSavedByObjectVersion
1070
     0
  0
ACAD_PROXY_OBJECT
  5
37
102
{ACAD_REACTORS
330
2A
102
}
330
2A
100
AcDbProxyObject
 90
      499
 91
      501
 93
      412
310
41D51A1A58DAD95B90D409028333333333333E3BF0000000000000FB010790141107004050150C41D405064090741402480A0350
1001
ACAD
1000
AcDbSavedByObjectVersion
1070
     0
  0
ACAD_PROXY_OBJECT
  5
537
102
{ACAD_REACTORS
330
52E
102
}
330
52E
100
AcDbProxyObject
 90
      499
 91
      504
 93
       58
310
4196800000000000
  0
ACAD_PROXY_OBJECT
  5
54D
102
{ACAD_REACTORS
330
52E
102
}
330
52E
100
AcDbProxyObject
 90
      499
 91
      504
 93
     1426
310
6C7A00C180071114D51653117A80C040071ECB812CC0118000C00B8123C00A0002A150A8540A290FCB810A400A000000000000000A100B8103C0518000C00B810B000A000000000000003E0FCB810A800A000000000000003E0FCB8124C00A0000000000000006100B810400518000400B811240118000400B811280118000
310
400B811500550044400000000000000B8123000A0000000000000007900B810700518000000B811380118000003A80C040071F40
  0
ACAD_PROXY_OBJECT
  5
538
102
{ACAD_REACTORS
330
52E
102
}
330
52E
100
AcDbProxyObject
 90
      499
 91
      504
 93
      354
310
4AC0400980071ECD4DCCCE10914E108B51108CCD0B4D0E118D8B50504D908B50CC90CC8E0C50508C4C4DD05F40
  0
ACAD_PROXY_OBJECT
  5
531
102
{ACAD_REACTORS
330
52E
102
}
330
52E
100
AcDbProxyObject
 90
      499
 91
      504
 93
       50
310
41404000000700
  0
ACAD_PROXY_OBJECT
  5
536
102
{ACAD_REACTORS
330
52E
102
}
330
52E
100
AcDbProxyObject
 90
      499
 91
      504
 93
       58
310
4196800100000000
  0
ACAD_PROXY_OBJECT
  5
533
102
{ACAD_REACTORS
330
52E
102
}
330
52E
100
AcDbProxyObject
 90
      499
 91
      504
 93
       90
310
429500468000000000000000
  0
ACAD_PROXY_OBJECT
  5
535
102
{ACAD_REACTORS
330
52E
102
}
330
52E
100
AcDbProxyObject
 90
      499
 91
      504
 93
       58
310
419680074A000000
  0
ACAD_PROXY_OBJECT
  5
534
102
{ACAD_REACTORS
330
52E
102
}
330
52E
100
AcDbProxyObject
 90
      499
 91
      504
 93
       90
310
429500464000000000000000
  0
ACAD_PROXY_OBJECT
  5
53A
102
{ACAD_REACTORS
330
52E
102
}
330
52E
100
AcDbProxyObject
 90
      499
 91
      504
 93
       90
310
428A00000000000000000000
  0
ACAD_PROXY_OBJECT
  5
53D
102
{ACAD_REACTORS
330
52E
102
}
330
52E
100
AcDbProxyObject
 90
      499
 91
      504
 93
       90
310
429500400000000000000000
  0
ACAD_PROXY_OBJECT
  5
543
102
{ACAD_REACTORS
330
52E
102
}
330
52E
100
AcDbProxyObject
 90
      499
 91
      504
 93
      218
310
46828000000000000000000000000000000000000000000000000000
  0
ACAD_PROXY_OBJECT
  5
53F
102
{ACAD_REACTORS
330
52E
102
}
330
52E
100
AcDbProxyObject
 90
      499
 91
      504
 93
      218
310
46828000000000000000000000000000000000000000000000000000
  0
ACAD_PROXY_OBJECT
  5
542
102
{ACAD_REACTORS
330
52E
102
}
330
52E
100
AcDbProxyObject
 90
      499
 91
      504
 93
      218
310
46828000000000000000000000000000000000000000000000000000
  0
ACAD_PROXY_OBJECT
  5
540
102
{ACAD_REACTORS
330
52E
102
}
330
52E
100
AcDbProxyObject
 90
      499
 91
      504
 93
      218
310
46828000000000000000000000000000000000000000000000000000
  0
ACAD_PROXY_OBJECT
  5
541
102
{ACAD_REACTORS
330
52E
102
}
330
52E
100
AcDbProxyObject
 90
      499
 91
      504
 93
      218
310
46828000000000000000000000000000000000000000000000000000
  0
ACAD_PROXY_OBJECT
  5
53E
102
{ACAD_REACTORS
330
52E
102
}
330
52E
100
AcDbProxyObject
 90
      499
 91
      504
 93
      218
310
46828000000000000000000000000000000000000000000000000000
  0
ACAD_PROXY_OBJECT
  5
53B
102
{ACAD_REACTORS
330
52E
102
}
330
52E
100
AcDbProxyObject
 90
      499
 91
      504
 93
       90
310
429500400000000000000000
  0
ACAD_PROXY_OBJECT
  5
53C
102
{ACAD_REACTORS
330
52E
102
}
330
52E
100
AcDbProxyObject
 90
      499
 91
      504
 93
       42
310
411180000000
  0
ACAD_PROXY_OBJECT
  5
532
102
{ACAD_REACTORS
330
52E
102
}
330
52E
100
AcDbProxyObject
 90
      499
 91
      504
 93
       50
310
41404000000700
  0
ACAD_PROXY_OBJECT
  5
52F
102
{ACAD_REACTORS
330
52E
102
}
330
52E
100
AcDbProxyObject
 90
      499
 91
      504
 93
       58
310
4196800040000000
  0
ACAD_PROXY_OBJECT
  5
530
102
{ACAD_REACTORS
330
52E
102
}
330
52E
100
AcDbProxyObject
 90
      499
 91
      504
 93
       58
310
4196801180000000
  0
ACAD_PROXY_OBJECT
  5
546
102
{ACAD_REACTORS
330
52E
102
}
330
52E
100
AcDbProxyObject
 90
      499
 91
      504
 93
       90
310
429500400000000000000000
  0
ACAD_PROXY_OBJECT
  5
54C
102
{ACAD_REACTORS
330
52E
102
}
330
52E
100
AcDbProxyObject
 90
      499
 91
      504
 93
      218
310
46828000000000000000000000000000000000000000000000000000
  0
ACAD_PROXY_OBJECT
  5
548
102
{ACAD_REACTORS
330
52E
102
}
330
52E
100
AcDbProxyObject
 90
      499
 91
      504
 93
      218
310
46828000000000000000000000000000000000000000000000000000
  0
ACAD_PROXY_OBJECT
  5
54B
102
{ACAD_REACTORS
330
52E
102
}
330
52E
100
AcDbProxyObject
 90
      499
 91
      504
 93
      218
310
46828000000000000000000000000000000000000000000000000000
  0
ACAD_PROXY_OBJECT
  5
549
102
{ACAD_REACTORS
330
52E
102
}
330
52E
100
AcDbProxyObject
 90
      499
 91
      504
 93
      218
310
46828000000000000000000000000000000000000000000000000000
  0
ACAD_PROXY_OBJECT
  5
54A
102
{ACAD_REACTORS
330
52E
102
}
330
52E
100
AcDbProxyObject
 90
      499
 91
      504
 93
      218
310
46828000000000000000000000000000000000000000000000000000
  0
ACAD_PROXY_OBJECT
  5
547
102
{ACAD_REACTORS
330
52E
102
}
330
52E
100
AcDbProxyObject
 90
      499
 91
      504
 93
      218
310
46828000000000000000000000000000000000000000000000000000
  0
ACAD_PROXY_OBJECT
  5
544
102
{ACAD_REACTORS
330
52E
102
}
330
52E
100
AcDbProxyObject
 90
      499
 91
      504
 93
       90
310
429500400000000000000000
  0
ACAD_PROXY_OBJECT
  5
545
102
{ACAD_REACTORS
330
52E
102
}
330
52E
100
AcDbProxyObject
 90
      499
 91
      504
 93
       42
310
411180000000
  0
ACAD_PROXY_OBJECT
  5
539
102
{ACAD_REACTORS
330
52E
102
}
330
52E
100
AcDbProxyObject
 90
      499
 91
      504
 93
      354
310
4AC0400980071ED19051508C50CCCC8B514C0C4E4B4C4C510D4B4E4C8E508B4C0C10CC11118C8D4D9150CD1F40
  0
DICTIONARYVAR
  5
553
102
{ACAD_REACTORS
330
54E
102
}
330
54E
100
DictionaryVariables
280
     0
  1
1:1
  0
DICTIONARYVAR
  5
554
102
{ACAD_REACTORS
330
54E
102
}
330
54E
100
DictionaryVariables
280
     0
  1
2
  0
DICTIONARYVAR
  5
555
102
{ACAD_REACTORS
330
54E
102
}
330
54E
100
DictionaryVariables
280
     0
  1
1
  0
DICTIONARYVAR
  5
552
102
{ACAD_REACTORS
330
54E
102
}
330
54E
100
DictionaryVariables
280
     0
  1
80.000000
  0
DICTIONARYVAR
  5
551
102
{ACAD_REACTORS
330
54E
102
}
330
54E
100
DictionaryVariables
280
     0
  1
5.000000
  0
ENDSEC
  0
EOF
